猜你喜欢

【魔兽4KHDR版】带有全景声音轨 Warcraft (2016) 2160p 4K UltraHD BluRay [57G]

  [复制链接]
查看: 8500|回复: 917

286

主题

367

帖子

818

K币

Rank: 3Rank: 3

威望
2
积分
1108
LadyGaga 发表于 2017-7-23 11:19:35 | 显示全部楼层 |阅读模式

片  名:魔兽HDR [下载地址在帖子底部]

  • 年  代:2016  
  • 国  家:美国
  • 类  别:动作 冒险 奇幻 
  • 字  幕:中文简体
  • 上映日期:2016-06-08
  • 文件格式:mkv   
  • 视频效果:4K(3840x2160)    
  • 文件大小:57GB
  • 片  长:124分钟
  • 导  演:邓肯·琼斯
  • 豆瓣链接:
  • 主  演:本·福斯特 ,托比·凯贝尔,宝拉·巴顿, 多米尼克·库珀 , 鲁丝·内伽,克兰西·布朗, 丹尼尔·库德摩尔, 罗伯特·卡辛斯基, 本·施耐泽, 考乐姆·吉斯·雷尼, 泰瑞·诺塔里, 吴彦祖,瑞安·罗宾斯, 博尔克利·杜菲尔德, 丹·佩恩

剧情简介

【魔兽4K+HDR版】全景声音轨 Warcraft (2016) 2160p 4K UltraHD BluRay [57G]BT种子下载

这是一个人类和兽人共存,和谐相处,互不侵犯的世界。人类生活在艾泽拉斯大陆中,兽人则在德拉诺劳作繁衍。某日,邪恶的兽人古尔丹(吴彦祖 饰)出现了,它打开了黑暗之门,肆意屠戮手无寸铁的人类,将艾泽拉斯大陆变为了一片地狱的火海。与此同时,曾经与世无争的兽人们如今变得凶猛残暴,他们来到人类的领地,在这里烧杀抢掠,无恶不作。

杜隆坦(托比·凯贝尔 Toby Kebbell 饰)是霜狼氏族的酋长,他发现了古尔丹的野心和阴谋,于是带领着自己的部族千里迢迢来到了艾泽拉斯,在此处,人类领袖洛萨(崔维斯·费米尔 Travis Fimmel 饰)亦在寻找结束战争的两全之道。
Warcraft.2016.UltraHD.BluRay.2160p.HEVC.BT2020.TrueHD 7.1.Atmos-.jpg

General
Format                         : Matroska
Format version                 : Version 4 / Version 2
File size                      : 57.2 GiB
Duration                       : 2 h 3 min
Overall bit rate mode          : Variable
Overall bit rate               : 66.5 Mb/s
Encoded date                   : UTC 2016-10-09 22:46:24
Writing application            : mkvmerge v9.4.2 ('So High') 64bit
Writing library                : libebml v1.3.4 + libmatroska v1.4.5


Video
ID                             : 1
Format                         : HEVC
Format/Info                    : High Efficiency Video Coding
Format profile                 : Main 10@L5.1@High
Codec ID                       : V_MPEGH/ISO/HEVC
Duration                       : 2 h 3 min
Bit rate                       : 61.0 Mb/s
Width                          : 3 840 pixels
Height                         : 2 160 pixels
Display aspect ratio           : 16:9
Frame rate mode                : Constant
Frame rate                     : 23.976 (24000/1001) FPS
Color space                    : YUV
Chroma subsampling             : 4:2:0
Bit depth                      : 10 bits
Bits/(Pixel*Frame)             : 0.307
Stream size                    : 52.5 GiB (92%)
Writing library                : x265 2.0+18-b0ec268aef60:[Windows][GCC 6.1.0][64 bit] 10bit
Encoding settings              : wpp / ctu=64 / min-cu-size=8 / max-tu-size=32 / tu-intra-depth=1 / tu-inter-depth=1 / me=1 / subme=2 / merange=57 / no-rect / no-amp / max-merge=2 / temporal-mvp / no-early-skip / rskip / rdpenalty=0 / no-tskip / no-tskip-fast / strong-intra-smoothing / no-lossless / no-cu-lossless / no-constrained-intra / no-fast-intra / open-gop / no-temporal-layers / interlace=0 / keyint=250 / min-keyint=23 / scenecut=40 / rc-lookahead=20 / lookahead-slices=8 / bframes=4 / bframe-bias=0 / b-adapt=2 / ref=3 / limit-refs=3 / no-limit-modes / weightp / no-weightb / aq-mode=1 / qg-size=32 / aq-strength=1.00 / cbqpoffs=0 / crqpoffs=0 / rd=3 / psy-rd=2.00 / rdoq-level=0 / psy-rdoq=0.00 / log2-max-poc-lsb=8 / no-rd-refine / signhide / deblock=0:0 / sao / no-sao-non-deblock / b-pyramid / cutree / no-intra-refresh / rc=abr / bitrate=61000 / qcomp=0.60 / qpmin=0 / qpmax=69 / qpstep=4 / vbv-maxrate=160000 / vbv-bufsize=160000 / ipratio=1.40 / pbratio=1.30
Default                        : Yes
Forced                         : No
Color range                    : Limited
Color primaries                : BT.2020
Transfer characteristics       : SMPTE ST 2084
Matrix coefficients            : BT.2020 non-constant
Mastering display color primar : R: x=0.680000 y=0.320000, G: x=0.265000 y=0.690000, B: x=0.150000 y=0.060000, White point: x=0.312700 y=0.329000
Mastering display luminance    : min: 0.0001 cd/m2, max: 1000.0000 cd/m2
Maximum Content Light Level    : 1000 cd/m2
Maximum Frame-Average Light Le : 500 cd/m2


Audio #1
ID                             : 2
Format                         : Atmos / TrueHD
Codec ID                       : A_TRUEHD
Duration                       : 2 h 3 min
Bit rate mode                  : Variable
Bit rate                       : 4 834 kb/s
Maximum bit rate               : 7 893 kb/s
Channel(s)                     : Object Based / 8 channels
Channel positions              : Object Based / Front: L C R, Side: L R, Back: L R, LFE
Sampling rate                  :  / 48.0 kHz
Frame rate                     : 1 200.000 FPS (40 spf)
Compression mode               : Lossless
Stream size                    : 4.16 GiB (7%)
Language                       : English
Default                        : Yes
Forced                         : No


Audio #2
ID                             : 3
Format                         : AC-3
Format/Info                    : Audio Coding 3
Mode extension                 : CM (complete main)
Format settings, Endianness    : Big
Codec ID                       : A_AC3
Duration                       : 2 h 3 min
Bit rate mode                  : Constant
Bit rate                       : 640 kb/s
Channel(s)                     : 6 channels
Channel positions              : Front: L C R, Side: L R, LFE
Sampling rate                  : 48.0 kHz
Frame rate                     : 31.250 FPS (1536 spf)
Bit depth                      : 16 bits
Compression mode               : Lossy
Stream size                    : 564 MiB (1%)
Language                       : English
Default                        : No
Forced                         : No

Warcraft.2016.UltraHD.BluRay.2160p.HEVC.BT2020.TrueHD 7.1.Atmos2.jpg

【魔兽4KHDR版】带有全景声音轨 Warcraft (2016) 2160p 4K UltraHD BluRay [57G]免费下载地址:
游客,如果您要查看本帖隐藏内容请回复

资源二:
魔兽-崛起[4K版]World.of.Warcraft.2016.2160p.BluRay.x265.HEVC.10bit.2CH.AC3.BT
http://www.hao4k.com/thread-8486-1-1.html

破解4K UHD蓝光原盘版本:魔兽4K Warcraft 2016 4K COMPLETE 2160p UltraHD Blu-ray HDR HEVC Atmos-HDRINVASION 4K版下载
http://www.hao4k.com/thread-13811-1-1.html




评分

参与人数 1金钱 +1 收起 理由
hagon_78 + 1 很给力!

查看全部评分

0

主题

10

帖子

0

K币

Rank: 1

威望
0
积分
11
“从头开始” 发表于 2017-7-23 11:19:45 来自手机 | 显示全部楼层
不错 支持一个了

286

主题

367

帖子

818

K币

Rank: 3Rank: 3

威望
2
积分
1108
 楼主| LadyGaga 发表于 2017-7-23 11:20:33 | 显示全部楼层
站位编辑...

0

主题

17

帖子

11

K币

Rank: 1

威望
0
积分
32
kkr779 发表于 2017-7-23 12:08:23 | 显示全部楼层
不知道是否有中文字幕

0

主题

9

帖子

0

K币

Rank: 1

威望
0
积分
9
青衫负雪 发表于 2017-7-23 18:15:20 | 显示全部楼层
果断回帖!!!

0

主题

16

帖子

11

K币

Rank: 1

威望
0
积分
43
ryanlpf 发表于 2017-7-23 18:38:02 | 显示全部楼层
支持一个了

0

主题

67

帖子

2

K币

Rank: 8Rank: 8

威望
0
积分
116
ysy0035 发表于 2017-7-23 21:42:02 | 显示全部楼层
太谢谢了                              

0

主题

40

帖子

43

K币

Rank: 1

威望
0
积分
74
迈克尔20089 发表于 2017-7-23 21:54:11 | 显示全部楼层
啥也不说了,感谢楼主在hao4k分享4k视频内容哇!

0

主题

11

帖子

0

K币

Rank: 1

威望
0
积分
11
柚稚° 发表于 2017-7-23 23:39:09 | 显示全部楼层
支持hao4k,支持楼主大人发布4k资源!

1

主题

121

帖子

30

K币

Rank: 1

威望
0
积分
161
zolwin7 发表于 2017-7-24 00:16:06 | 显示全部楼层
确实是难得4k好帖啊,顶先
您需要登录后才可以回帖 登录 | 立即注册

本版积分规则

Copyright   ©2015-2016  hao4k  Powered by©Discuz!