猜你喜欢

末日崩塌4K San.Andreas.2015.BDREMUX.2160p.4K.UltraHD.HEVC.HDR 4K版下载[第六十八部破解4K UHD蓝光原盘电影]

  [复制链接]
查看: 2555|回复: 151

21

主题

53

帖子

2741

K币

Rank: 9Rank: 9Rank: 9

lili 发表于 2017-11-8 19:36:49 | 显示全部楼层 |阅读模式

片  名:末日崩塌4K [下载地址在帖子底部]

  • 年  代:2015  
  • 国  家:美国
  • 类  别:动作 冒险 灾难 
  • 字  幕:英文原版
  • 上映日期:2015-06-02
  • 文件格式:mkv   
  • 视频效果:4K(3840x2160)    
  • 文件大小:48.13GB
  • 片  长:114分钟
  • 导  演:布拉德·佩顿
  • 豆瓣链接:https://movie.douban.com/subject/25786077/
  • 主  演:道恩·强森 / 亚历珊德拉·达达里奥 / 卡拉·古奇诺 / 雨果·约翰斯通-伯特 / 雅奇·潘嘉比 / 科尔顿·海恩斯 / 艾恩·格拉法德 / 保罗·吉亚玛提 / 凯莉·米洛 / 李威尹 / 瓦内萨·罗斯 / 马特·杰拉德 / 阿特·帕金森 / 罗宾·阿特金·唐斯 / 艾伦·D·柏温 / 亚历克·乌特戈夫 / 摩根·格莉芬 / 杰米斯·巴特勒 / 艾伦·波普尔顿

剧情简介

前美国大兵雷蒙德·盖恩斯(道恩·强森 Dwayne Johnson 饰)在结束硝烟战火的生涯后,而今成为洛杉矶消防局的直升机救援人员。虽然工作中全力以赴,受人敬仰,值得信赖,这些却都无法挽回他失败的婚姻。某次短暂休假后,雷重返岗位,这时在内华达州南部发生了百年不遇的大地震,胡佛水坝在强震中被彻底摧毁。未过多久,又一轮强震从旧金山袭向了洛杉矶,雷在直升机上目睹了繁华城市转眼变成废墟的可怕一幕。
  此时他的妻子艾玛(卡拉·古奇诺 Carla Gugino 饰)和女儿布蕾克(亚历珊德拉·达达里奥 Alexandra Daddario 饰)此时分处两座城市,为了拯救最爱的两个人,他只身一人,勇往直前,与地震展开争分夺秒的赛跑…

加州大地震(台) / 圣安地列斯/末日崩塌4K San.Andreas.2015.BDREMUX.2160p.4K.UltraHD.HEVC.HDR 4K原盘电影资源说明
第六十八部 4K UHD 蓝光原盘破解版,含完整的 BDMV 文件夹以及数据,AACS 2.0 协议已被完整破解。

Video
Format                                   : HEVC
Format/Info                              : High Efficiency Video Coding
Format profile                           : Main@L5@Main
Codec ID                                 : V_MPEGH/ISO/HEVC
Duration                                 : 1h 54mn
Bit rate                                 : 24.8 Mbps
Width                                    : 3 840 pixels
Height                                   : 1 598 pixels
Display aspect ratio                     : 2.40:1
Frame rate mode                          : Constant
Frame rate                               : 23.976 (24000/1001) fps
color space                              : YUV
Chroma subsampling                       : 4:2:0
Bit depth                                : 8 bits
Bits/(Pixel*Frame)                       : 0.169
Stream size                              : 19.8 GiB (70%)
Language                                 : English
Default                                  : Yes
Forced                                   : No
color range                              : Limited
color primaries                          : BT.709
Transfer characteristics                 : BT.709
Matrix coefficients                      : BT.709

Audio
Audio #1
Format                                   : AC-3
Format/Info                              : Audio Coding 3
Mode extension                           : CM (complete main)
Format settings, Endianness              : Big
Codec ID                                 : A_AC3
Duration                                 : 1h 54mn
Bit rate mode                            : Constant
Bit rate                                 : 384 Kbps
Channel(s)                               : 6 channels
Channel positions                        : Front: L C R, Side: L R, LFE
Sampling rate                            : 48.0 KHz
Frame rate                               : 31.250 fps (1536 spf)
Compression mode                         : Lossy
Delay relative to video                  : -75ms
Stream size                              : 314 MiB (1%)
Title                                    : VFF AC-3 @ 384 kbps 5.1
Language                                 : French
Default                                  : Yes
Forced                                   : No

Audio #2
ID                                       : 3
Format                                   : DTS
Format/Info                              : Digital Theater Systems
Format profile                           : MA / Core
Mode                                     : 16
Format settings, Endianness              : Big
Codec ID                                 : A_DTS
Duration                                 : 1h 54mn
Bit rate mode                            : Variable / Constant
Bit rate                                 : 4 431 Kbps / 1 509 Kbps
Channel(s)                               : 8 channels / 6 channels
Channel positions                        : Front: L C R, Side: L R, Back: L R, LFE / Front: L C R, Side: L R, LFE
Sampling rate                            : 48.0 KHz
Frame rate                               : 93.750 fps (512 spf)
Bit depth                                : 24 bits
Compression mode                         : Lossless / Lossy
Delay relative to video                  : -79ms
Stream size                              : 3.54 GiB (13%)
Title                                    : DTS-HDMA 7.1 English
Language                                 : English
Default                                  : No
Forced                                   : No

Audio #3
ID                                       : 4
Format                                   : Atmos / TrueHD
Codec ID                                 : A_TRUEHD
Duration                                 : 1h 54mn
Bit rate mode                            : Variable
Bit rate                                 : 5 253 Kbps
Maximum bit rate                         : 8 682 Kbps
Channel(s)                               : Object Based / 8 channels
Channel positions                        : Object Based / Front: L C R, Side: L R, Back: L R, LFE
Sampling rate                            :  / 48.0 KHz
Frame rate                               : 1 200.000 fps (40 spf)
Compression mode                         : Lossless
Delay relative to video                  : -83ms
Stream size                              : 4.20 GiB (15%)
Title                                    : VFF TrueHD ATMOS 7.1
Language                                 : French
Default                                  : No
Forced                                   : No

Audio #4
ID                                       : 5
Format                                   : AC-3
Format/Info                              : Audio Coding 3
Mode extension                           : CM (complete main)
Format settings, Endianness              : Big
Codec ID                                 : A_AC3
Duration                                 : 1h 54mn
Bit rate mode                            : Constant
Bit rate                                 : 448 Kbps
Channel(s)                               : 6 channels
Channel positions                        : Front: L C R, Side: L R, LFE
Sampling rate                            : 48.0 KHz
Frame rate                               : 31.250 fps (1536 spf)
Compression mode                         : Lossy
Delay relative to video                  : -79ms
Stream size                              : 367 MiB (1%)
Language                                 : Hindi
Default                                  : No
Forced                                   : No

Text #1
ID                                       : 6
Format                                   : UTF-8
Codec ID                                 : S_TEXT/UTF8
Codec ID/Info                            : UTF-8 Plain Text
Duration                                 : 1h 53mn
Bit rate                                 : 0 bps
Count of elements                        : 10
Stream size                              : 326 Bytes (0%)
Title                                    : Sous-titres Francais forcé
Language                                 : French
Default                                  : Yes
Forced                                   : No

Text #2
ID                                       : 7
Format                                   : VobSub
Muxing mode                              : zlib
Codec ID                                 : S_VOBSUB
Codec ID/Info                            : Picture based subtitle format used on DVDs
Duration                                 : 1h 52mn
Bit rate                                 : 5 047 bps
Count of elements                        : 1487
Stream size                              : 4.07 MiB (0%)
Title                                    : English Sub
Language                                 : English
Default                                  : No
Forced                                   : No

4K UHD 蓝光 加州大地震(台) / 圣安地列斯/末日崩塌4K San.Andreas.2015.BDREMUX.2160p.4K.UltraHD.HEVC.HDR 4K原盘电影下载
末日崩塌4KSan.Andreas.2015.2160p.BluRay.HEVC.TrueHD.7.1.Atmos-TASTED(4K UHD 蓝光原盘 4K UHD BDISO 2160p,无中字)
游客,如果您要查看本帖隐藏内容请回复

末日崩塌4K San.Andreas.2015.BDREMUX.2160p.4K.UltraHD.HEVC.HDR.ExKinoRay(4K UHD 蓝光 REMUX 4K UHD BD REMUX 2160p 48.13GB)

游客,如果您要查看本帖隐藏内容请回复


0

主题

21

帖子

8

K币

Rank: 1

sjs22 发表于 2017-11-8 19:47:47 | 显示全部楼层
支持hao4k,支持楼主大人发布4k资源!

0

主题

23

帖子

4

K币

Rank: 1

巴黎夏天 发表于 2017-11-8 20:04:27 | 显示全部楼层
啥也不说了,感谢楼主在hao4k分享4k视频内容哇!

0

主题

81

帖子

6

K币

Rank: 1

签到达人

zhuyongshe 发表于 2017-11-8 20:11:45 | 显示全部楼层
确实是难得4k好帖啊,顶先

1

主题

71

帖子

40

K币

Rank: 1

签到达人

phjtcn. 发表于 2017-11-8 20:23:35 | 显示全部楼层
好东东,必须顶!

0

主题

163

帖子

48

K币

Rank: 8Rank: 8

guannong 发表于 2017-11-8 20:27:41 | 显示全部楼层
谢谢分享。

0

主题

3

帖子

0

K币

Rank: 1

懂得失去。 发表于 2017-11-8 20:44:56 | 显示全部楼层
支持,楼下的跟上哈~

1

主题

20

帖子

9

K币

Rank: 1

zinternety 发表于 2017-11-8 20:55:56 | 显示全部楼层
谢谢楼主分享好的电影。

0

主题

64

帖子

6

K币

Rank: 8Rank: 8

jiujiupi 发表于 2017-11-8 21:09:24 | 显示全部楼层
这个灾难片还是值得一看的

0

主题

111

帖子

10

K币

Rank: 8Rank: 8

cdplz 发表于 2017-11-8 21:12:53 | 显示全部楼层
刚发布许多链接都出不来
您需要登录后才可以回帖 登录 | 立即注册

本版积分规则

Copyright   ©2015-2016  hao4k  Powered by©Discuz!