104

主题

349

帖子

290

K币

Rank: 3Rank: 3

引领者

威望
14
积分
934
发表于 2017-11-29 21:28:06 | 显示全部楼层 |阅读模式

电视剧名:绝命毒师4K 第一季 [下载地址在帖子底部]

  • 年  代:00年代  
  • 国  家:美国
  • 类  别:犯罪 剧情 
  • 字  幕:英文原版
  • 上映日期:2008-01-20
  • 文件格式:mkv    
  • 视频效果:4K(3840x2160)    
  • 文件大小:266.7GB
  • 片  长:50分钟
  • 导  演:亚当·伯恩斯坦 / 文斯·吉里根 / 翠西亚·布洛克 / 蒂姆·亨特 / 吉姆·麦凯 / 布朗温·休斯

剧情简介

新墨西哥州的高中化学老师沃尔特·H·怀特(布莱恩·科兰斯顿 Bryan Cranston 饰)是拮据家庭的唯一经济来源。他大半生安分守己,兢兢业业,却在50岁生日之际突然得知自己罹患肺癌晚期的噩耗,原本便不甚顺意的人生顿时雪上加霜。
  为了保障怀孕的妻子斯凯勒(安娜·冈 Anna Gunn 饰)和残疾的儿子小沃特能在自己死后衣食无忧,沃尔特决意铤而走险。他主动找到曾经的学生、而今的毒贩小混混杰西·平克曼(亚伦·保尔 Aaron Paul 饰)谈合作,并运用娴熟高超的化学技术提炼出高纯度冰毒交给后者贩售。孰料事态的发展却在平克曼带回毒品供销商疯狂小八及其表弟后急转直下,沃尔特的人生也由此彻底步向失控。他被迫开始了教书与制毒的双重生活,逐渐坠落至万劫不复的深渊。
General
Format : Matroska
Format version : Version 4 / Version 2
File size : 50.8 GiB
Duration : 58mn 4s
Overall bit rate : 125 Mbps
Movie name : Breaking Bad: Season 1, Episode 1:
Encoded date : UTC 2016-03-30 20:28:42
Writing application : mkvmerge v9.0.1 ('Obstacles') 64bit

Video
ID : 1
Format : AVC
Format/Info : Advanced Video Codec
Format profile : High@L5.1
Format settings, CABAC : Yes
Format settings, ReFrames : 5 frames
Codec ID : V_MPEG4/ISO/AVC
Duration : 57mn 59s
Bit rate : 105 Mbps
Width : 3 840 pixels
Height : 2 160 pixels
Display aspect ratio : 16:9
Frame rate mode : Constant
Frame rate : 23.976 (24000/1001) fps
Color space : YUV
Chroma subsampling : 4:2:0
Bit depth : 8 bits
Scan type : Progressive
Bits/(Pixel*Frame) : 0.530
Stream size : 42.7 GiB (84%)
Title : Breaking Bad: Season 1, Episode 1:
Writing library : x264 core 148 r2638 7599210
Language : English
Default : Yes
Forced : No

Audio #1
ID : 2
Format : DTS
Format/Info : Digital Theater Systems
Format profile : MA / Core
Mode : 16
Format settings, Endianness : Big
Codec ID : A_DTS
Duration : 58mn 4s
Bit rate mode : Variable / Constant
Bit rate : 3 840 Kbps / 1 509 Kbps
Channel(s) : 6 channels
Channel positions : Front: L C R, Side: L R, LFE
Sampling rate : 48.0 KHz
Frame rate : 93.750 fps (512 spf)
Bit depth : 24 bits
Compression mode : Lossless / Lossy
Delay relative to video : 5ms
Stream size : 1.58 GiB (3%)
Title : DTS HD 5.1 - Blu-ray
Language : English
Default : Yes
Forced : No

Audio #2
ID : 3
Format : DTS
Format/Info : Digital Theater Systems
Format profile : MA / Core
Mode : 16
Format settings, Endianness : Big
Codec ID : A_DTS
Duration : 58mn 4s
Bit rate mode : Variable / Constant
Bit rate : 3 840 Kbps / 1 509 Kbps
Channel(s) : 6 channels
Channel positions : Front: L C R, Side: L R, LFE
Sampling rate : 48.0 KHz
Frame rate : 93.750 fps (512 spf)
Bit depth : 24 bits
Compression mode : Lossless / Lossy
Delay relative to video : 5ms
Stream size : 1.53 GiB (3%)
Title : DTS HD 5.1 - MVO, LostFilm
Language : Russian
Default : No
Forced : No

Audio #3
ID : 4
Format : DTS
Format/Info : Digital Theater Systems
Format profile : MA / Core
Mode : 16
Format settings, Endianness : Big
Codec ID : A_DTS
Duration : 58mn 4s
Bit rate mode : Variable / Constant
Bit rate : 3 840 Kbps / 1 509 Kbps
Channel(s) : 6 channels
Channel positions : Front: L C R, Side: L R, LFE
Sampling rate : 48.0 KHz
Frame rate : 93.750 fps (512 spf)
Bit depth : 24 bits
Compression mode : Lossless / Lossy
Delay relative to video : 5ms
Stream size : 1.56 GiB (3%)
Title : DTS HD 5.1 - MVO, KvK
Language : Russian
Default : No
Forced : No

Audio #4
ID : 5
Format : DTS
Format/Info : Digital Theater Systems
Format profile : MA / Core
Mode : 16
Format settings, Endianness : Big
Codec ID : A_DTS
Duration : 58mn 4s
Bit rate mode : Variable / Constant
Bit rate : 3 840 Kbps / 1 509 Kbps
Channel(s) : 6 channels
Channel positions : Front: L C R, Side: L R, LFE
Sampling rate : 48.0 KHz
Frame rate : 93.750 fps (512 spf)
Bit depth : 24 bits
Compression mode : Lossless / Lossy
Delay relative to video : 5ms
Stream size : 1.53 GiB (3%)
Title : DTS HD 5.1 - MVO, FoxCrime
Language : Russian
Default : No
Forced : No

Audio #5
ID : 6
Format : DTS
Format/Info : Digital Theater Systems
Format profile : MA / Core
Mode : 16
Format settings, Endianness : Big
Codec ID : A_DTS
Duration : 58mn 4s
Bit rate mode : Variable / Constant
Bit rate : 3 924 Kbps / 1 509 Kbps
Channel(s) : 6 channels
Channel positions : Front: L C R, Side: L R, LFE
Sampling rate : 48.0 KHz
Frame rate : 93.750 fps (512 spf)
Bit depth : 24 bits
Compression mode : Lossless / Lossy
Delay relative to video : 5ms
Stream size : 1.59 GiB (3%)
Title : DTS HD 5.1 - AVO, Y.Serbin
Language : Russian
Default : No
Forced : No

Audio #6
ID : 7
Format : AC-3
Format/Info : Audio Coding 3
Mode extension : CM (complete main)
Format settings, Endianness : Big
Codec ID : A_AC3
Duration : 58mn 4s
Bit rate mode : Constant
Bit rate : 640 Kbps
Channel(s) : 6 channels
Channel positions : Front: L C R, Side: L R, LFE
Sampling rate : 48.0 KHz
Frame rate : 31.250 fps (1536 spf)
Compression mode : Lossy
Delay relative to video : 16ms
Stream size : 266 MiB (1%)
Title : AC3 5.1 @ 640 kbps - AVO, Foxlight
Language : Russian
Default : No
Forced : No

Audio #7
ID : 8
Format : AC-3
Format/Info : Audio Coding 3
Mode extension : CM (complete main)
Format settings, Endianness : Big
Codec ID : A_AC3
Duration : 58mn 4s
Bit rate mode : Constant
Bit rate : 192 Kbps
Channel(s) : 2 channels
Channel positions : Front: L R
Sampling rate : 48.0 KHz
Frame rate : 31.250 fps (1536 spf)
Compression mode : Lossy
Delay relative to video : 16ms
Stream size : 79.8 MiB (0%)
Title : AC3 2.0 @ 192 kbps - MVO, Inter
Language : Ukrainian
Default : No
Forced : No

下载地址:
游客,如果您要查看本帖隐藏内容请回复


评分

参与人数 1K币 +2 收起 理由
lili + 2 很给力!

查看全部评分

0

主题

35

帖子

144

K币

Rank: 1

威望
0
积分
105
发表于 2017-12-1 20:58:04 | 显示全部楼层
请问楼主大大,有没有后面四季的4K蓝光资源啊?谢谢了。

104

主题

349

帖子

290

K币

Rank: 3Rank: 3

引领者

威望
14
积分
934
 楼主| 发表于 2017-12-1 20:59:23 | 显示全部楼层
hzlzd 发表于 2017-12-1 20:58
请问楼主大大,有没有后面四季的4K蓝光资源啊?谢谢了。

目前还没有,遇到了会发的

0

主题

47

帖子

17

K币

Rank: 1

威望
0
积分
207
发表于 2017-12-2 13:34:56 | 显示全部楼层
想下来看看,太棒了

1

主题

25

帖子

21

K币

Rank: 1

威望
0
积分
61
发表于 2017-12-7 17:21:34 | 显示全部楼层
谢谢分享

0

主题

24

帖子

81

K币

Rank: 1

威望
0
积分
93
发表于 2017-12-9 10:50:59 | 显示全部楼层
想下来看看,太棒了

1

主题

28

帖子

0

K币

Rank: 1

威望
0
积分
42
发表于 2017-12-10 19:02:14 | 显示全部楼层
电视剧名:绝命毒师4K 第一季

1

主题

28

帖子

0

K币

Rank: 1

威望
0
积分
42
发表于 2017-12-10 19:03:19 | 显示全部楼层
270G,没地方存了

104

主题

349

帖子

290

K币

Rank: 3Rank: 3

引领者

威望
14
积分
934
 楼主| 发表于 2017-12-10 19:04:28 | 显示全部楼层

可以自己重新压缩一下,压到16Mb/S就行

0

主题

25

帖子

13

K币

Rank: 1

威望
0
积分
99
发表于 2017-12-11 13:10:15 | 显示全部楼层
这部属于神剧哎,需要下载收藏
您需要登录后才可以回帖 登录 | 立即注册

本版积分规则

返回顶部 联系我们