查看 44945回复 1598

[4k模特美女] 维多利亚秘密超模内衣走秀(2017)

  [复制链接]
发表于 2017-11-30 17:20 | 显示全部楼层 |阅读模式
维多利亚秘密内衣走秀 全球美女超模 高码收藏版1080i/TS
# I6 t6 o, V, b& D$ Z
110321b487k827q728qc8p.jpg
6 B" Z1 t1 L5 C
6 S5 v% G' I; u' m) H% x) R( h0 ~ 110322e6u6ubplx6ynwunl.jpg
+ M) Q/ R  ?3 U; Q+ K
8 T6 p) z8 N% O+ j) V( ` 110322a5k5yy582z5t5xy2.jpg 8 J( H! ~( K! o- i0 P( b2 L
9 N+ E2 ?  ^3 }# d- e6 C+ X
110323atgenzrecchlsctk.jpg - C" D5 W6 V6 x( r, ?
& U  s4 C3 i! G8 [0 j" q6 D7 B" r
110323jd9wc02kqiyczwqd.jpg 7 C; m1 b; Y  I! }4 ?
' M8 E1 D: t9 d0 j; I1 }* h0 d& c* T
110323p9r694f241xfw69u.jpg . m* \- z9 r! j+ V5 S  m7 x- R0 P
7 n4 a3 Q  i) H" d$ e7 F
110324pur6x6rm5oqhmo82.jpg & E: b# R# ~7 B  ?8 A9 w4 O

( d% h' ~8 u2 n6 E( B2 s# r 110325o29atwq5zi177aa1.jpg
5 G7 y3 `, F, M  T' b/ R$ e- I+ k) A. x- w2 H
110325m9sca895b9898zz5.jpg 3 U% w% k0 z/ _
2 \& S/ R! m) q' e" ?6 g+ J
110326xrbjqqq74y7ia4qd.jpg / J4 E2 F4 r: z5 i2 x

+ B& }/ U" S3 J$ o 110326k4y42jzvgn4g4428.jpg
- l* I- b# R8 b' a
5 S" q5 @& d5 E# Q  u  N. M$ U 110326v9g7cblwz52867c0.jpg
* q/ p# |6 v, ~  W+ i
" ~0 t6 ?+ h; P  g# s( S. G7 t; O 110326eatzg637htni6am6.jpg
" p1 y. Q1 f; u3 z& L8 T
+ I( I! W7 O, _/ |9 o1 v, T, h 110327qfnhyhi449k94kfo.jpg
# Z/ R; @/ ]& R3 V1 |' d
. f7 `1 M) `! S/ v  q. c0 j 110327uydspagz80lyzt30.jpg
6 P+ z  t! `1 o. u- H/ P/ G' T/ @7 p/ c' [* Q# s
110328bttg5gwzqjhxo299.jpg
5 q0 I1 d, J3 ~& q8 ?2 h" J0 I4 D7 v8 _0 g& V! @0 }( ?
110328paswhkyzllpywmwx.jpg 7 Q& L! V, S$ i0 S% }7 w

1 O, ~+ r  [7 s8 J: C; H 110328l13roo381qozqqoy.jpg
' Q, e8 B9 a( j- d# }% e8 _5 m6 ?) H
2 ?8 N5 K0 }: h9 V- \  f! P" \0 F2 v! _0 }  @& q7 r  w$ l3 p+ U
General
( f) {, V' B6 j+ _& W. X, tUnique ID : 198278693116789408771285385503491589211 (0x952B1655690FA7BEB0FEB95BFDD5845B)( X# c( r4 D$ D+ h$ U# J
Complete name : The.Victoria.Secret.Fashion.Show.2017.1080i.HDTV.DTS-HD.MA5.1.H264-ALANiS.mkv3 T6 N4 H' n: C6 m' {( B. k
Format : Matroska
" T8 d5 R7 R4 U) T0 V; c9 E7 HFormat version : Version 4 / Version 2
) Z) @  N; m& d# M, FFile size : 5.20 GiB7 P1 B' b+ C3 b* P6 r- i
Duration : 42 min 29 s
$ F8 u! |, z" Q0 h  dOverall bit rate : 17.5 Mbps
# b7 b$ [; P/ f$ o: n2 ?$ lEncoded date : UTC 2017-11-29 04:50:41% Q3 E2 }, F6 c2 U. l
Writing application : mkvmerge v18.0.0 ('Apricity') 64-bit
& H, V5 H3 C* fWriting library : libebml v1.3.5 + libmatroska v1.4.8
/ w0 J; W. r/ D0 v3 S  ^/ w0 ~% Y3 p& A' Z! H. |# J
Video
' A! l9 ]+ O: Z1 C1 z+ FID : 1
( p" {. l! G- IFormat : AVC& h$ a& W) W4 P+ u4 N) m* S; J
Format/Info : Advanced Video Codec
( _& `5 C2 h- f" |Format profile : High 4:2:2@L4.1
1 p5 p& X  `, l0 o' @- WFormat settings : CABAC / 2 Ref Frames; W( x# E  W- F, I6 ]
Format settings, CABAC : Yes
, @9 D- o0 ]0 W" ~/ zFormat settings, RefFrames : 2 frames
/ R7 T! N* C# I" bCodec ID : V_MPEG4/ISO/AVC4 i. }1 _0 R" w! F
Duration : 42 min 29 s
2 k5 c5 U8 f3 @Bit rate mode : Constant
8 K, B2 J. j: QBit rate : 13.5 Mbps
' D3 d# x% U  eNominal bit rate : 15.2 Mbps
/ g8 D  l- @1 G) T+ A' ]Width : 1920 pixels7 i0 U7 b' N1 A. ~& _6 p
Height : 1080 pixels
( D. C) b( g  _Display aspect ratio : 16:9
) W+ F3 o% c7 p' h' fFrame rate mode : Variable
; j. r' d4 l5 j' W) vFrame rate : 59.940 (60000/1001) FPS
) P1 I: _1 y/ k2 q' JOriginal frame rate : 29.970 (30000/1001) FPS1 }. o) v) Z, {# H& l; m/ H
Color space : YUV
' @: J+ ~* P3 w$ {. UChroma subsampling : 4:2:2: \* I2 \% J/ w5 o8 E2 f
Bit depth : 8 bits
5 a7 g4 g2 ^3 d- i$ FScan type : Interlaced
1 e) d/ Y& M4 e  Z4 xScan type, store method : Separated fields
  F# Z; K  G& r4 ]Scan order : Top Field First8 L/ G( `# a  N) ^) y$ j0 n/ t! H$ U
Bits/(Pixel*Frame) : 0.109
, M3 Y5 H6 Q# v% H. W; @( {6 l1 QStream size : 4.00 GiB (77%)
. n  L0 G! e1 aDefault : Yes
: h  I  B+ E( D8 l! @, X& ]! TForced : No" r; c6 g8 y; f3 p) A! a5 _) g& \
$ X1 A  \7 I8 O" ?. g# i9 l4 e
Audio #1
+ K7 y9 A8 ?  t4 U$ y# A0 UID : 2
9 |2 @% b2 P, a2 A! U/ eFormat : DTS  p" u5 c" U/ r1 H1 M9 e- t
Format/Info : Digital Theater Systems! q) E) K9 D2 n, E, S1 q+ e
Format profile : MA / Core
. X' D; r9 [  P/ Q- h: l% @Mode : 160 {* s- x, K: X4 h& c0 b8 X$ p$ p
Format settings, Endianness : Big  j/ `. ]& v1 u/ a9 r' O
Codec ID : A_DTS
& {4 J6 Y( @; ZDuration : 42 min 29 s. H! \  Y* O5 j5 t
Bit rate mode : Variable / Constant
2 S) w0 l5 e! T- eBit rate : 3840 kbps / 1509 kbps
+ D" v8 i) B; vChannel(s) : 6 channels8 [7 G' t( T' L/ |9 Z. d
Channel positions : Front: L C R, Side: L R, LFE. g/ O" [) s1 p% g/ C
Sampling rate : 48.0 kHz; \) F0 F; ^) A4 h1 i
Frame rate : 93.750 FPS (512 SPF)) w( i4 l0 `% \
Bit depth : 24 bits
( A7 [9 j9 L2 xCompression mode : Lossless / Lossy- `! ]6 @( N3 j# a& |) P0 E
Stream size : 1.12 GiB (22%)0 k# U- g0 q( n# c% r6 X
Language : English0 k& t7 {: }" a0 y& K$ O
Default : Yes* S( s4 B- m6 \+ p! x
Forced : No
9 r6 z- [+ Y- j7 O0 ~" S& @2 W5 F' u4 [1 L! v- M
Audio #2
. V  T6 d) ~3 |1 K6 W" I7 l! VID : 3" l4 B/ S/ B" i, r( m& m
Format : MPEG Audio
' A& F, M: @( |4 \Format version : Version 1
* d/ w8 r0 |' h) [Format profile : Layer 2% {% G' W1 @! {5 T
Codec ID : A_MPEG/L2
8 d+ @* x- V' J( {Codec ID/Hint : MP2( Y& P# Y4 K, j
Duration : 42 min 29 s; x. n# D) ^1 n" Y9 B
Bit rate mode : Constant
. ], W, Z% j( ^( U: N0 J! H8 BBit rate : 256 kbps- i, q/ F7 [+ W1 Y$ @: T4 h( H- |
Channel(s) : 2 channels& e2 ?' R, e7 a. R! J
Sampling rate : 48.0 kHz
; e5 h2 K- C) \, P9 R: A* J- j9 bFrame rate : 41.667 FPS (1152 SPF)4 s/ s# j9 o3 Y- [
Compression mode : Lossy
2 N! {  e4 ~& B8 X& yStream size : 77.8 MiB (1%)
+ l! h+ J# q0 o8 r8 OLanguage : English
% m" q1 Y* G/ M; VDefault : No
& a) H: i/ k) u. I9 u/ \Forced : No

' O. Z4 P( D1 m: F" K
维多利亚秘密超模内衣走秀(2017)
, h7 Z; z- y" W% u: n! q# F
游客,如果您要查看本帖隐藏内容请回复

点评

重新又下一次,这次没有钓金龟广告了  发表于 2017-12-8 09:30
没想到是个钓金龟广告,版主不审核还让这么低端的人来骗K币......  发表于 2017-12-6 17:12
发表于 2017-11-30 17:22 来自 移动版  | 显示全部楼层
不错 支持一个了
发表于 2017-11-30 17:34 | 显示全部楼层
这个绝对毛        孔都能看到啊,4K 真不错!!
发表于 2017-11-30 17:54 | 显示全部楼层
到底是 1080i ? 还是4k?
发表于 2017-11-30 17:56 | 显示全部楼层
啥也不说了,感谢楼主在hao4k分享4k视频内容哇!
发表于 2017-11-30 18:43 | 显示全部楼层
啥也不说了,感谢楼主在hao4k分享4k视频内容哇!
发表于 2017-11-30 18:49 | 显示全部楼层
啥也不说了,感谢楼主在hao4k分享4k视频内容哇!
发表于 2017-11-30 19:45 | 显示全部楼层
最新的一期啊!
发表于 2017-11-30 19:45 | 显示全部楼层
谢谢大大分享,非常棒的电影
发表于 2017-11-30 19:51 | 显示全部楼层
确实是难得4k好帖啊,顶先
发表于 2017-11-30 20:16 | 显示全部楼层
支持一波,这个ts可以
发表于 2017-11-30 20:37 | 显示全部楼层
啥也不说了,感谢楼主在hao4k分享4k视频内容哇!
发表于 2017-11-30 20:48 | 显示全部楼层
啥也不说了,感谢楼主在hao4k分享4k视频内容哇!
发表于 2017-11-30 22:56 | 显示全部楼层
啥也不说了,感谢楼主在hao4k分享4k视频内容哇!
发表于 2017-11-30 23:33 | 显示全部楼层
啥也不说了,感谢楼主在hao4k分享4k视频内容哇!好快的速度
8 z! m' v' r* b. E9 P
发表于 2017-11-30 23:41 | 显示全部楼层
赞赞赞赞赞赞赞赞赞赞赞赞赞赞赞赞
发表于 2017-11-30 23:45 | 显示全部楼层
不错 支持一个了
发表于 2017-12-1 00:30 来自 移动版  | 显示全部楼层
农膜回收的时候再给我
您需要登录后才可以回帖 登录 | 立即注册

本版积分规则

关闭

站长通知上一条 /1 下一条

返回顶部 联系我们