查看 30018回复 1255

[4k模特美女] 维多利亚秘密超模内衣走秀(2017)

  [复制链接]
发表于 2017-11-30 17:20 | 显示全部楼层 |阅读模式
维多利亚秘密内衣走秀 全球美女超模 高码收藏版1080i/TS

2 p. t2 e# O$ b, j0 X 110321b487k827q728qc8p.jpg
8 N4 o3 j9 S  A6 h- D, A0 D- ?& d) K
110322e6u6ubplx6ynwunl.jpg
3 J* j8 q; k6 i, O2 N2 m" m; R6 N0 H( O. Y4 y& i; E8 ^
110322a5k5yy582z5t5xy2.jpg
& |3 u7 S- N# R+ v. P6 `& h
. d6 F2 B6 ?( u% K0 D& B; E2 O0 L 110323atgenzrecchlsctk.jpg
) W* r! `, u7 ~: T4 f+ K0 G; n* Q) @& R) ]/ i
110323jd9wc02kqiyczwqd.jpg . c! g2 P. b3 G

" O5 c9 _% Z& u1 g& F+ n 110323p9r694f241xfw69u.jpg
/ j/ a" v* T' H" E2 O3 n
& B# x# ?5 m0 G5 Y* b5 @0 O 110324pur6x6rm5oqhmo82.jpg 3 V3 u1 u) _6 U4 h' [

5 q2 b2 L! k0 E0 ?& c( A 110325o29atwq5zi177aa1.jpg
& z2 l8 a0 |6 m% K! M
+ ~& ]3 ^0 S, I' C( E+ E 110325m9sca895b9898zz5.jpg - M( D, t3 R8 f& [& w, \1 L0 n
" G" y$ |2 z0 R( }0 ~
110326xrbjqqq74y7ia4qd.jpg
5 U  x4 n5 w/ C+ Q" }; x9 O9 t3 M% Y
110326k4y42jzvgn4g4428.jpg # P5 M& v* F2 I- d
& B+ r" H6 F& g( \
110326v9g7cblwz52867c0.jpg
* ?; D. V9 J- ^. J5 h9 i0 u
, k; A, @( L9 D0 o: w) U 110326eatzg637htni6am6.jpg * Q3 R- `- a8 t7 E2 H! a3 W
: B) `+ |8 @) h
110327qfnhyhi449k94kfo.jpg 1 \% c: y! M5 w, C+ I
2 w+ H3 \& ^1 a& {, F- \! n
110327uydspagz80lyzt30.jpg 8 Z2 p5 m$ _" ]5 `% b2 ~

( A+ a% g$ r" e- K8 A; | 110328bttg5gwzqjhxo299.jpg
- E  a# k, }7 W7 O4 e/ a
2 v- t+ A1 T$ ]( Y 110328paswhkyzllpywmwx.jpg
/ A5 `  H/ n+ \) O7 g! f5 l  |" ~! t+ b
110328l13roo381qozqqoy.jpg
' J, ?# t# ]2 P$ l) M" ~' w4 n. n# j3 _
; t7 _0 r( r: _/ X
General9 J" q" I1 f- a+ E+ T5 x
Unique ID : 198278693116789408771285385503491589211 (0x952B1655690FA7BEB0FEB95BFDD5845B)
; m" h2 W, |& `" _Complete name : The.Victoria.Secret.Fashion.Show.2017.1080i.HDTV.DTS-HD.MA5.1.H264-ALANiS.mkv
: A$ R' a* k4 M/ I( p; ]5 o5 UFormat : Matroska! z+ y  E* X$ i& C9 T* T) n/ D
Format version : Version 4 / Version 2  Y* j, Z& r: h1 p6 I
File size : 5.20 GiB
) u9 m9 e. ^8 r2 g5 R1 t8 FDuration : 42 min 29 s. H4 c) x7 K4 Y* I( {0 E* d
Overall bit rate : 17.5 Mbps+ N8 m' c/ d8 k
Encoded date : UTC 2017-11-29 04:50:415 |0 Y  ?% H; X3 H
Writing application : mkvmerge v18.0.0 ('Apricity') 64-bit
. x" n% Y  n# vWriting library : libebml v1.3.5 + libmatroska v1.4.8
# W$ z1 ^# A3 H# Z7 }# J9 a8 Y" I" G  B. J
Video
1 v( k& A. j! {ID : 1, q+ b4 Y1 i- H! b8 i& k% n% M0 ?
Format : AVC$ Z* _- _& z7 ^
Format/Info : Advanced Video Codec
$ p0 Q. {7 X, J7 S) f1 D5 S" A7 UFormat profile : High 4:2:2@L4.1
, @6 }( f1 E  `' rFormat settings : CABAC / 2 Ref Frames
5 j7 x3 S2 g' U' I/ `5 K* oFormat settings, CABAC : Yes
9 ?: `' a% P: |% D2 e- Y% NFormat settings, RefFrames : 2 frames
$ B2 A( N: m3 M2 i( |1 j. pCodec ID : V_MPEG4/ISO/AVC
8 ^' e4 V" \' R+ H& {0 N0 RDuration : 42 min 29 s  D& c" N$ A9 k0 T6 A* t2 t0 y
Bit rate mode : Constant
0 [/ m: E4 z6 [) L7 oBit rate : 13.5 Mbps
6 l4 f5 S, w3 `, r% p6 UNominal bit rate : 15.2 Mbps
+ e. v, Y- w$ B) w2 ]* dWidth : 1920 pixels
* k2 K: \+ m0 c; THeight : 1080 pixels
5 K0 x! e0 L, l; t" b+ YDisplay aspect ratio : 16:94 [9 b# s' h9 E
Frame rate mode : Variable
% Z  V4 |% z) {/ }- pFrame rate : 59.940 (60000/1001) FPS
5 |; o) |8 K. d' k3 w" ^Original frame rate : 29.970 (30000/1001) FPS' h3 M5 G$ n$ r$ m0 `2 |' s# |
Color space : YUV6 v; x5 m8 I, b* j" P
Chroma subsampling : 4:2:2
2 H* a) t( V, f$ Z: oBit depth : 8 bits! B' t( K( t3 X. n4 M
Scan type : Interlaced/ a3 X8 u- Y0 `8 h$ g4 k  ^* C2 @
Scan type, store method : Separated fields
6 z; o1 Z8 X" o. mScan order : Top Field First
- ]7 O+ t/ |% h2 A# W! XBits/(Pixel*Frame) : 0.109
3 v0 X. z1 }$ T) B+ f4 L" q- d6 l% {Stream size : 4.00 GiB (77%)
8 a* P: c7 d4 D( G: ADefault : Yes
( I1 ^0 L0 L" vForced : No* s; G& _2 _; U% z- I4 }- K. f

& s; ~7 r+ Y( q2 S; q" {7 r2 W. ]Audio #1' o- Q. O% J" T2 }. C
ID : 2
4 ?7 e% s/ n' }" G& ^2 j- TFormat : DTS, d5 F& h9 s& [$ b
Format/Info : Digital Theater Systems
, H4 f! t) U( f+ q; @" `! ZFormat profile : MA / Core6 w+ X0 E: N& N0 ~' t2 E7 x/ a
Mode : 16
9 A/ h  h' |& I4 e( b- s2 x! ?Format settings, Endianness : Big" w7 G. V/ A& s0 A
Codec ID : A_DTS1 v9 D+ h) ?! _; V* ~+ r3 l) A
Duration : 42 min 29 s$ h: I9 F( M; k0 R# r0 F  j
Bit rate mode : Variable / Constant
$ M, _2 Y& c& _  `Bit rate : 3840 kbps / 1509 kbps  i, g0 O3 t8 l& F" n
Channel(s) : 6 channels
* M, J% x7 H, h2 a1 lChannel positions : Front: L C R, Side: L R, LFE0 t, ~( c$ m% ~
Sampling rate : 48.0 kHz
0 B( n! p8 m) p  S0 m6 e$ cFrame rate : 93.750 FPS (512 SPF)
8 P5 H9 |  [4 O" `# |. v& N  d4 K9 iBit depth : 24 bits
3 F' _! N% N, z8 ACompression mode : Lossless / Lossy# k+ t5 R* ?0 ^+ v5 [
Stream size : 1.12 GiB (22%)
* r! I0 a3 S$ \7 y4 W' |Language : English, w  a. o7 p- g% g6 E1 j. t% i' a; a
Default : Yes
% ~3 q% b6 B8 @+ G6 LForced : No( T) Z& R8 ^' R  k) e* W

( J' P2 {5 ^) XAudio #2
; i0 t$ r; f1 t: F: w2 {% ]% qID : 3/ T( b9 r! U+ s$ l* Q
Format : MPEG Audio8 M& w" ^; f; X% T. o
Format version : Version 1# B+ u( p' L' b" ?/ Y, [: H
Format profile : Layer 2% S5 O) |4 C( t. D( s7 H
Codec ID : A_MPEG/L2
5 }4 C. D  i+ ~  ACodec ID/Hint : MP2
9 @6 j7 E3 L6 S& ?/ f$ b% ADuration : 42 min 29 s. X" _+ ]  o6 Z7 C" g; l1 a1 m( p
Bit rate mode : Constant
3 e4 H# D  k/ y9 [Bit rate : 256 kbps
! T. V! X8 Y4 Z2 M2 i) ]Channel(s) : 2 channels& X; s4 \- N7 c8 B0 j
Sampling rate : 48.0 kHz
6 ?% `4 \5 U8 @& U. BFrame rate : 41.667 FPS (1152 SPF)
& R7 E% H$ K( Z# V' H9 DCompression mode : Lossy
/ x( M' L# I4 Q: L  k7 O& u- l. c( ~Stream size : 77.8 MiB (1%)0 \7 F% I$ N6 V) B# V
Language : English
' p, d, V% t; }Default : No
* }1 a& R* c  O* s3 O4 P+ x2 rForced : No

: O& G, m9 e/ Z' @9 s, Q9 }3 H$ }
维多利亚秘密超模内衣走秀(2017)& k; C' c/ A0 Y& X& ^
游客,如果您要查看本帖隐藏内容请回复

点评

重新又下一次,这次没有钓金龟广告了  发表于 2017-12-8 09:30
没想到是个钓金龟广告,版主不审核还让这么低端的人来骗K币......  发表于 2017-12-6 17:12
发表于 2017-11-30 17:22 来自手机 | 显示全部楼层
不错 支持一个了
发表于 2017-11-30 17:34 | 显示全部楼层
这个绝对毛        孔都能看到啊,4K 真不错!!
发表于 2017-11-30 17:54 | 显示全部楼层
到底是 1080i ? 还是4k?
发表于 2017-11-30 17:56 | 显示全部楼层
啥也不说了,感谢楼主在hao4k分享4k视频内容哇!
发表于 2017-11-30 18:43 | 显示全部楼层
啥也不说了,感谢楼主在hao4k分享4k视频内容哇!
发表于 2017-11-30 18:49 | 显示全部楼层
啥也不说了,感谢楼主在hao4k分享4k视频内容哇!
发表于 2017-11-30 19:45 | 显示全部楼层
最新的一期啊!
发表于 2017-11-30 19:45 | 显示全部楼层
谢谢大大分享,非常棒的电影
发表于 2017-11-30 19:51 | 显示全部楼层
确实是难得4k好帖啊,顶先
您需要登录后才可以回帖 登录 | 立即注册

本版积分规则

返回顶部 联系我们