查看 48373回复 1752

[4k模特美女] 维多利亚秘密超模内衣走秀(2017)

  [复制链接]
lili 发表于 2017-11-30 17:20 | 显示全部楼层 |阅读模式
维多利亚秘密内衣走秀 全球美女超模 高码收藏版1080i/TS
: k& p6 k% [7 M( m0 t# ~
110321b487k827q728qc8p.jpg
4 [9 G& y7 _' A( @( l! Q) E" G" N8 X: g4 _
110322e6u6ubplx6ynwunl.jpg 0 z5 T/ }" ?/ ~' a3 W% t( Q

' M/ h( k7 z! Z4 Z 110322a5k5yy582z5t5xy2.jpg
6 l2 |& E4 ~0 i6 @
9 T- g; e: A  y; X4 f) c 110323atgenzrecchlsctk.jpg
3 O% J  F  v/ K: _; F9 a" e4 {, ?" t8 B7 e
110323jd9wc02kqiyczwqd.jpg ( T1 \, s9 v* g
/ C3 g0 t9 Y/ ]
110323p9r694f241xfw69u.jpg ( Y5 v  I5 p: r/ m7 T; _

: Z9 P2 _$ S5 r  U: A8 Y 110324pur6x6rm5oqhmo82.jpg
- K3 b' Z1 g2 c! o
8 z. n0 c, ~+ L$ _3 @- ~) D 110325o29atwq5zi177aa1.jpg
2 @: \) F. m8 M+ O+ T. b6 S
' R# X: O3 C" V! z; Q& R5 v 110325m9sca895b9898zz5.jpg 4 K; g5 p+ I2 g2 C

: j# t4 ]$ f/ Z 110326xrbjqqq74y7ia4qd.jpg 3 I8 X/ `! l) }) J0 Z% ]
+ ?5 Z1 m" r/ Z8 v) y5 ~* N% s
110326k4y42jzvgn4g4428.jpg 7 G: @4 V& |; T

' R* [+ b+ X, u0 D& m" b3 \ 110326v9g7cblwz52867c0.jpg ( C1 A: b/ C0 X( H
% x( h0 J& n5 E% b# G* c1 H6 _
110326eatzg637htni6am6.jpg * i; w; }( b7 u" X9 H9 T5 ]; |
5 c0 d0 H/ [* h# n7 t% J3 D
110327qfnhyhi449k94kfo.jpg
. n/ {. w2 M) L; W7 h% Q2 m% i) X9 L, e8 ?  r& w4 t9 i
110327uydspagz80lyzt30.jpg : C+ J: G. O; D) S# x
, \) d( N% t+ L
110328bttg5gwzqjhxo299.jpg 5 I9 F3 ]! `; y. t9 E% d. ?& ]9 Y

8 ~; Z: R5 o- l0 e 110328paswhkyzllpywmwx.jpg
0 {3 n# m1 Q( c+ @
; C* J& ^6 A. u  x# l5 Q 110328l13roo381qozqqoy.jpg
$ t' \5 o. c* o8 Y9 e
; d7 \0 x; b% \* a! c/ h" ^
/ _2 F7 [; {$ d4 Q
General
! z6 s0 o* ^4 u: a% YUnique ID : 198278693116789408771285385503491589211 (0x952B1655690FA7BEB0FEB95BFDD5845B)% E7 n, H) {8 I% Z# L
Complete name : The.Victoria.Secret.Fashion.Show.2017.1080i.HDTV.DTS-HD.MA5.1.H264-ALANiS.mkv
6 P$ p0 w8 D, ]1 q9 MFormat : Matroska
5 ^& C. E: [  nFormat version : Version 4 / Version 2
/ {/ P! O5 B3 l& ZFile size : 5.20 GiB
, H, [1 b# b4 D) c5 [) K7 zDuration : 42 min 29 s
: |* p6 \) h2 E- h0 h4 h+ ~  |Overall bit rate : 17.5 Mbps, c$ H( B0 x. ^" ]% ~
Encoded date : UTC 2017-11-29 04:50:41
9 r4 c" a) M# W5 n! u" DWriting application : mkvmerge v18.0.0 ('Apricity') 64-bit
& D: x8 A$ V3 B2 lWriting library : libebml v1.3.5 + libmatroska v1.4.8
" D. V2 O, K' p- p5 j/ \  p
3 j  N* y3 [/ M# X% p* u: B1 vVideo& x5 R8 {' S4 P" C0 Z! C% k
ID : 1! ?5 z( j6 F' D! j) @7 X/ V% }7 c
Format : AVC# L/ Z6 A& E; M
Format/Info : Advanced Video Codec
9 {& ?6 m9 L9 A% o8 f' R+ MFormat profile : High 4:2:2@L4.19 A6 W8 z% j( a1 O) ]% J& D1 ?
Format settings : CABAC / 2 Ref Frames+ e2 s1 [" g: j# w4 _
Format settings, CABAC : Yes  }1 ?+ j1 |1 ?  f7 H+ B  I- Z
Format settings, RefFrames : 2 frames9 X' i- _8 ~2 M% ]% ^! R3 P
Codec ID : V_MPEG4/ISO/AVC
6 y* u9 \7 {. {6 WDuration : 42 min 29 s
+ p# w- s7 w& e9 E. h! X# lBit rate mode : Constant
+ E1 N6 D. R. Z$ r& `Bit rate : 13.5 Mbps+ W5 s7 |3 X' {3 `
Nominal bit rate : 15.2 Mbps
/ }9 K  n* \  O& L4 Y8 r8 A& uWidth : 1920 pixels& z+ p: j% A; H  A
Height : 1080 pixels) D8 L6 @( n5 Y: E
Display aspect ratio : 16:9
9 l2 o. {5 P3 n9 y3 s4 G7 P. CFrame rate mode : Variable
" q/ s1 n8 e: q7 AFrame rate : 59.940 (60000/1001) FPS
3 [/ {  m$ I8 K5 I$ {Original frame rate : 29.970 (30000/1001) FPS
' p, _1 h% ^. r' f* MColor space : YUV
3 Y  \, }* m/ S% R' s( oChroma subsampling : 4:2:2
; r) k" i; m3 t$ gBit depth : 8 bits
5 y  E  m  s7 UScan type : Interlaced
6 Y8 Q0 w# m3 p( t6 [* E% W# IScan type, store method : Separated fields5 p( c/ v) n/ g) r
Scan order : Top Field First
4 `8 A: I8 z; e6 V, v9 [# P3 VBits/(Pixel*Frame) : 0.109. g  T" n9 x2 j5 X
Stream size : 4.00 GiB (77%)
: o; j+ ?" j: O- WDefault : Yes
, ?) P; V- d; u, U- P+ |! YForced : No
* w4 h9 S) {  b6 I- n7 x* I9 m
Audio #1
; v# [: w+ X" S$ \4 L6 M# cID : 2+ i4 b' ~5 w6 Z" w# s- ]/ d
Format : DTS
3 g# t* }- ]& S# @Format/Info : Digital Theater Systems/ r4 T& W; P4 }7 s) t5 [; u
Format profile : MA / Core& Y, |: m# y0 ?% Z5 U1 I
Mode : 16, L8 n1 r! o  f; A) N5 C) d2 b
Format settings, Endianness : Big
# U6 E: @- A5 i4 QCodec ID : A_DTS
8 r. v* L5 |/ c) w& K6 t$ _; cDuration : 42 min 29 s
2 }9 f7 s9 z. k1 [* eBit rate mode : Variable / Constant
1 `/ g! {% n# v0 |Bit rate : 3840 kbps / 1509 kbps& T$ @4 t3 M+ b3 O$ v1 k' c
Channel(s) : 6 channels
4 {% p6 C7 T1 {/ [' ~Channel positions : Front: L C R, Side: L R, LFE
, f( j$ Z/ Q4 W  p: H+ H  ^4 o  n7 DSampling rate : 48.0 kHz4 q( f& o4 |. u/ M0 o
Frame rate : 93.750 FPS (512 SPF)  Y: f; \8 d2 k; y. [
Bit depth : 24 bits
/ ^. x* t# H; O1 t+ R; LCompression mode : Lossless / Lossy
/ g) N, T' D* C7 bStream size : 1.12 GiB (22%)
; ?  `9 [! D- X, zLanguage : English
9 u1 `2 L5 Y0 ]* YDefault : Yes' Z* L% [0 o" A( I
Forced : No, r  N3 X. s+ e
% `9 A1 @& m; E+ M# b
Audio #2: O' F6 C8 C5 d2 a! ?
ID : 37 j1 x* l7 m' O5 V% B
Format : MPEG Audio$ B, {- w3 X; `" l' E
Format version : Version 1* Q# O; }7 E4 c& B/ N, B
Format profile : Layer 2. s/ n! a3 c$ V6 V- o" M/ Y
Codec ID : A_MPEG/L2
+ g8 J4 e9 x4 wCodec ID/Hint : MP2
6 B- P- D  B, N8 MDuration : 42 min 29 s
# a  R- y! u3 ]/ WBit rate mode : Constant
0 |: z- \9 s4 r9 F. gBit rate : 256 kbps
0 L# M3 C9 i$ O3 H& B' J9 Q+ OChannel(s) : 2 channels( K) I, v; q" \! s
Sampling rate : 48.0 kHz) z4 K: v7 g3 V4 G0 q1 a* v% v
Frame rate : 41.667 FPS (1152 SPF)( L' f) q, M, }  m8 n- t
Compression mode : Lossy
* H) }' r2 O+ }Stream size : 77.8 MiB (1%)
2 d) B& S' x' `3 H9 W- DLanguage : English
) F' y" ^9 a: R1 K' k# `Default : No6 U4 L( Z) A7 }" t
Forced : No
1 H7 u- `3 o- y# N0 l- M- Y, K' P
维多利亚秘密超模内衣走秀(2017)6 M/ `, K' V) L. I) {4 p! n' h
游客,如果您要查看本帖隐藏内容请回复

点评

重新又下一次,这次没有钓金龟广告了  发表于 2017-12-8 09:30
没想到是个钓金龟广告,版主不审核还让这么低端的人来骗K币......  发表于 2017-12-6 17:12
倒影 发表于 2018-9-22 00:47 | 显示全部楼层
维多利亚的秘密场面真是壮观
wzf651027 发表于 2018-9-21 21:12 | 显示全部楼层
由衷感谢Hao4k平台提供4K资源,可以试试我家的私人影院了。
790430118 发表于 2018-9-21 13:07 | 显示全部楼层
维密秀,女神,性感,音乐,时尚
tacbqm 发表于 2018-9-21 12:41 | 显示全部楼层
维多利亚的秘密场面真是壮观
一见你就笑 发表于 2018-9-20 14:57 | 显示全部楼层
支持Hao4k发展
纹身30 发表于 2018-9-20 12:40 | 显示全部楼层
  这个4K资源很不错哦,我喜欢
mhl8108 发表于 2018-9-20 11:06 | 显示全部楼层

4 M' `2 H& Y0 N& {7 H$ u5 k& a这个4K资源很不错哦,我喜欢
slh1202 发表于 2018-9-19 20:50 | 显示全部楼层
维多利亚秘密超模内衣走秀
wiflxxx 发表于 2018-9-19 10:46 | 显示全部楼层
由衷感谢Hao4k平台提供4K资源,可以试试我家的私人影院了。
chiou0616 发表于 2018-9-18 19:55 | 显示全部楼层
支持Hao4k发展
netvigator38 发表于 2018-9-18 19:51 | 显示全部楼层
Nice video
LZQXCH 发表于 2018-9-18 18:08 | 显示全部楼层
谢谢楼主的资源,这个好
cxd98 发表于 2018-9-18 14:17 | 显示全部楼层
由衷感谢Hao4k平台提供4K资源,可以试试我家的私人影院了。