猜你喜欢

不可饶恕4K Unforgiven.1992.UHD.BluRay.2160p.DTS-HD.MA.5.1.HEVC.REMUX-FraMeSToR 4K版下载[第九十六部破解4K UHD蓝光原盘电影]

  [复制链接]
查看: 1968|回复: 115

123

主题

200

帖子

2646

K币

Rank: 9Rank: 9Rank: 9

威望
0
积分
398
lili 发表于 2017-11-30 20:14:35 | 显示全部楼层 |阅读模式

片  名:不可饶恕 Unforgiven 4k [下载地址在帖子底部]

  • 年  代:90年代  
  • 国  家:美国
  • 类  别:剧情 
  • 字  幕:中文简体
  • 上映日期:1992-08-03
  • 文件格式:mkv   
  • 视频效果:4K(3840x2160)    
  • 文件大小:53.0GB
  • 片  长:131分钟
  • 导  演:林特·伊斯特伍德
  • 豆瓣链接:https://movie.douban.com/subject/1293566/
  • 主  演:克林特·伊斯特伍德 / 吉恩·哈克曼 / 摩根·弗里曼 / 理查德·哈里斯 / 杰姆·沃尔福特 / 绍尔·鲁宾内克 / 弗兰西丝·费舍 / 安娜·莱文 / 大卫·木西 / 罗伯·坎贝尔 / 安东尼·詹姆斯 / 塔拉·弗莱德里克 / 贝弗利·埃略特 / 莉萨·雷波-马特尔 / 乔西·史密斯

剧情简介

堪萨斯的农民威廉(克林特·伊斯特伍德 Clint Eastwood )年轻时曾是出名的杀手和劫匪,然而当遇上了克劳迪亚后,他的生活开始彻底改变。威廉和克劳迪亚结婚生子后,洗手不干,一家人过着幸福的生活。好景不长,克劳迪亚不久故去,威廉独立带着两个孩子过着清贫宁静的生活。
  这时,该地区发生了一起牛仔醉酒殴打妓女并将其毁容的恶性事件,坏蛋警长达格特(吉恩·哈克曼 Gene Hackman 饰)只将此事草草了结,凶手仍逍遥法外。当地妓女纷纷捐钱,要求悬红1000美金请杀手来伸张正义。“思科菲尔德小子”找到威廉,要求合伙干这票买卖。为了给孩子们一个幸福富足的家庭,威廉终于答应再次出山。

不可饶恕4K Unforgiven.1992.UHD.BluRay.2160p.DTS-HD.MA.5.1.HEVC.REMUX-FraMeSToR 4K版下载[第九十六部破 ...

不可饶恕4K Unforgiven.1992.UHD.BluRay.2160p.DTS-HD.MA.5.1.HEVC.REMUX-FraMeSToR 4K版下载[第九十六部破 ...


豪情盖天(港) / 杀无赦(台) / 不被饶恕的人 / The Cut Whore Killings / The William Munny Killings/不可饶恕4K Unforgiven.1992.UHD.BluRay.2160p.DTS-HD.MA.5.1.HEVC.REMUX-FraMeSToR 4KUHD蓝光原盘电影资源说明

第九十六部 4K UHD 蓝光原盘破解版,含完整的 BDMV 文件夹以及数据,AACS 2.0 协议已被完整破解。
Unforgiven.1992.UHD.BluRay.2160p.DTS-HD.MA.5.1.HEVC.REMUX-FraMeSToR

GENERAL INFO
SOURCE : UHD Blu-ray Disc HDRINVASION (Thanks!)
FORMAT : MKV (Matroska)
SIZE : 53.0 GiB
DURATION : 02:10:40 (h:m:s)
CHAPTERS : Named
IMDB : http://www.imdb.com/title/tt0105695/

VIDEO
CODEC : HEVC
TYPE : 2160p (Progressive)
FRAME RATE : 23.976 fps
DISPLAY ASPECT RATIO : 16:9
FORMAT PROFILE LEVEL : Main 10@L5.1@High
BITRATE : 52.9 Mbps
WIDTH x HEIGHT : 3840 x 2160 pixels
COLOR PRIMARIES : BT.2020

AUDIO (1)
CODEC : DTS-HD Master Audio
LANGUAGE : English
CHANNEL(S) : 5.1
BITRATE : 4394 kbps
SAMPLING RATE : 48 KHz
BIT DEPTH : 24 bits
OTHER INFO : DTS Core: 5.1 / 48 kHz / 1509 kbps / 24-bit

AUDIO (2)
CODEC : AC-3
LANGUAGE : English
CHANNEL(S) : 2.0
BITRATE : 192 kbps
SAMPLING RATE : 48 KHz
OTHER INFO : Commentary by Film Critic Richard Schickel

SUBTITLES
English (SDH) | Arabic | Chinese (Traditional) | Chinese (Cantonese) | Czech | Danish | Dutch | Finnish | French | German (SDH) | Greek | Hebrew | Hungarian | Italian (SDH) | Japanese | Korean | Norwegian | Polish | Portuguese | Spanish (Castilian) | Spanish (Latin American) | Swedish | Turkish

REMUX
Video
ID                                       : 1
Format                                   : HEVC
Format/Info                              : High Efficiency Video Coding
Format profile                           : Main 10@L5.1@High
Codec ID                                 : V_MPEGH/ISO/HEVC
Duration                                 : 2 h 10 min
Bit rate                                 : 52.9 Mb/s
Width                                    : 3 840 pixels
Height                                   : 2 160 pixels
Display aspect ratio                     : 16:9
Frame rate mode                          : Constant
Frame rate                               : 23.976 (24000/1001) FPS
Color space                              : YUV
Chroma subsampling                       : 4:2:0 (Type 2)
Bit depth                                : 10 bits
Bits/(Pixel*Frame)                       : 0.266
Stream size                              : 48.3 GiB (88%)
Title                                    : Unforgiven.1992.2160p.BluRay.REMUX.HEVC.DTS-HD.MA.5.1-FGT
Default                                  : Yes
Forced                                   : No
Color range                              : Limited
Color primaries                          : BT.2020
Transfer characteristics                 : PQ
Matrix coefficients                      : BT.2020 non-constant
Mastering display color primaries        : R: x=0.680000 y=0.320000, G: x=0.265000 y=0.690000, B: x=0.150000 y=0.060000, White point: x=0.312700 y=0.329000
Mastering display luminance              : min: 0.0050 cd/m2, max: 4000.0000 cd/m2
Maximum Content Light Level              : 500 cd/m2
Maximum Frame-Average Light Level        : 200 cd/m2

Audio #1
ID                                       : 2
Format                                   : DTS
Format/Info                              : Digital Theater Systems
Format profile                           : MA / Core
Codec ID                                 : A_DTS
Duration                                 : 2 h 10 min
Bit rate mode                            : Variable / Constant
Bit rate                                 : 4 394 kb/s / 1 509 kb/s
Channel(s)                               : 6 channels
Channel positions                        : Front: L C R, Side: L R, LFE
Sampling rate                            : 48.0 kHz
Frame rate                               : 93.750 FPS (512 SPF)
Bit depth                                : 24 bits
Compression mode                         : Lossless / Lossy
Stream size                              : 4.01 GiB (7%)
Title                                    : Unforgiven.1992.2160p.BluRay.REMUX.HEVC.DTS-HD.MA.5.1-FGT
Language                                 : English
Default                                  : Yes
Forced                                   : No

Audio #2
ID                                       : 3
Format                                   : AC-3
Format/Info                              : Audio Coding 3
Codec ID                                 : A_AC3
Duration                                 : 2 h 10 min
Bit rate mode                            : Constant
Bit rate                                 : 192 kb/s
Channel(s)                               : 2 channels
Channel positions                        : Front: L R
Sampling rate                            : 48.0 kHz
Frame rate                               : 31.250 FPS (1536 SPF)
Bit depth                                : 16 bits
Compression mode                         : Lossy
Delay relative to video                  : 32 ms
Stream size                              : 179 MiB (0%)
Title                                    : Unforgiven.1992.2160p.BluRay.REMUX.HEVC.DTS-HD.MA.5.1-FGT
Language                                 : French
Service kind                             : Complete Main
Default                                  : No
Forced                                   : No

Audio #3
ID                                       : 4
Format                                   : AC-3
Format/Info                              : Audio Coding 3
Codec ID                                 : A_AC3
Duration                                 : 2 h 10 min
Bit rate mode                            : Constant
Bit rate                                 : 192 kb/s
Channel(s)                               : 2 channels
Channel positions                        : Front: L R
Sampling rate                            : 48.0 kHz
Frame rate                               : 31.250 FPS (1536 SPF)
Bit depth                                : 16 bits
Compression mode                         : Lossy
Delay relative to video                  : 32 ms
Stream size                              : 179 MiB (0%)
Title                                    : Unforgiven.1992.2160p.BluRay.REMUX.HEVC.DTS-HD.MA.5.1-FGT
Language                                 : German
Service kind                             : Complete Main
Default                                  : No
Forced                                   : No

Audio #4
ID                                       : 5
Format                                   : AC-3
Format/Info                              : Audio Coding 3
Codec ID                                 : A_AC3
Duration                                 : 2 h 10 min
Bit rate mode                            : Constant
Bit rate                                 : 192 kb/s
Channel(s)                               : 2 channels
Channel positions                        : Front: L R
Sampling rate                            : 48.0 kHz
Frame rate                               : 31.250 FPS (1536 SPF)
Bit depth                                : 16 bits
Compression mode                         : Lossy
Delay relative to video                  : 32 ms
Stream size                              : 179 MiB (0%)
Title                                    : Unforgiven.1992.2160p.BluRay.REMUX.HEVC.DTS-HD.MA.5.1-FGT
Language                                 : Italian
Service kind                             : Complete Main
Default                                  : No
Forced                                   : No

Audio #5
ID                                       : 6
Format                                   : AC-3
Format/Info                              : Audio Coding 3
Codec ID                                 : A_AC3
Duration                                 : 2 h 10 min
Bit rate mode                            : Constant
Bit rate                                 : 192 kb/s
Channel(s)                               : 2 channels
Channel positions                        : Front: L R
Sampling rate                            : 48.0 kHz
Frame rate                               : 31.250 FPS (1536 SPF)
Bit depth                                : 16 bits
Compression mode                         : Lossy
Delay relative to video                  : 32 ms
Stream size                              : 179 MiB (0%)
Title                                    : Unforgiven.1992.2160p.BluRay.REMUX.HEVC.DTS-HD.MA.5.1-FGT
Language                                 : Spanish
Service kind                             : Complete Main
Default                                  : No
Forced                                   : No

Audio #6
ID                                       : 7
Format                                   : AC-3
Format/Info                              : Audio Coding 3
Codec ID                                 : A_AC3
Duration                                 : 2 h 10 min
Bit rate mode                            : Constant
Bit rate                                 : 192 kb/s
Channel(s)                               : 2 channels
Channel positions                        : Front: L R
Sampling rate                            : 48.0 kHz
Frame rate                               : 31.250 FPS (1536 SPF)
Bit depth                                : 16 bits
Compression mode                         : Lossy
Delay relative to video                  : 6 ms
Stream size                              : 179 MiB (0%)
Title                                    : Unforgiven.1992.2160p.BluRay.REMUX.HEVC.DTS-HD.MA.5.1-FGT
Language                                 : Spanish
Service kind                             : Complete Main
Default                                  : No
Forced                                   : No

Audio #7
ID                                       : 8
Format                                   : AC-3
Format/Info                              : Audio Coding 3
Codec ID                                 : A_AC3
Duration                                 : 2 h 10 min
Bit rate mode                            : Constant
Bit rate                                 : 640 kb/s
Channel(s)                               : 6 channels
Channel positions                        : Front: L C R, Side: L R, LFE
Sampling rate                            : 48.0 kHz
Frame rate                               : 31.250 FPS (1536 SPF)
Bit depth                                : 16 bits
Compression mode                         : Lossy
Delay relative to video                  : 6 ms
Stream size                              : 598 MiB (1%)
Title                                    : Unforgiven.1992.2160p.BluRay.REMUX.HEVC.DTS-HD.MA.5.1-FGT
Language                                 : Czech
Service kind                             : Complete Main
Default                                  : No
Forced                                   : No

Audio #8
ID                                       : 9
Format                                   : AC-3
Format/Info                              : Audio Coding 3
Codec ID                                 : A_AC3
Duration                                 : 2 h 10 min
Bit rate mode                            : Constant
Bit rate                                 : 192 kb/s
Channel(s)                               : 2 channels
Channel positions                        : Front: L R
Sampling rate                            : 48.0 kHz
Frame rate                               : 31.250 FPS (1536 SPF)
Bit depth                                : 16 bits
Compression mode                         : Lossy
Delay relative to video                  : 6 ms
Stream size                              : 179 MiB (0%)
Title                                    : Unforgiven.1992.2160p.BluRay.REMUX.HEVC.DTS-HD.MA.5.1-FGT
Language                                 : Hungarian
Service kind                             : Complete Main
Default                                  : No
Forced                                   : No

Audio #9
ID                                       : 10
Format                                   : AC-3
Format/Info                              : Audio Coding 3
Codec ID                                 : A_AC3
Duration                                 : 2 h 10 min
Bit rate mode                            : Constant
Bit rate                                 : 192 kb/s
Channel(s)                               : 2 channels
Channel positions                        : Front: L R
Sampling rate                            : 48.0 kHz
Frame rate                               : 31.250 FPS (1536 SPF)
Bit depth                                : 16 bits
Compression mode                         : Lossy
Delay relative to video                  : 6 ms
Stream size                              : 179 MiB (0%)
Title                                    : Unforgiven.1992.2160p.BluRay.REMUX.HEVC.DTS-HD.MA.5.1-FGT
Language                                 : Polish
Service kind                             : Complete Main
Default                                  : No
Forced                                   : No

Audio #10
ID                                       : 11
Format                                   : AC-3
Format/Info                              : Audio Coding 3
Codec ID                                 : A_AC3
Duration                                 : 2 h 10 min
Bit rate mode                            : Constant
Bit rate                                 : 192 kb/s
Channel(s)                               : 2 channels
Channel positions                        : Front: L R
Sampling rate                            : 48.0 kHz
Frame rate                               : 31.250 FPS (1536 SPF)
Bit depth                                : 16 bits
Compression mode                         : Lossy
Delay relative to video                  : 6 ms
Stream size                              : 179 MiB (0%)
Title                                    : Unforgiven.1992.2160p.BluRay.REMUX.HEVC.DTS-HD.MA.5.1-FGT
Language                                 : Russian
Service kind                             : Complete Main
Default                                  : No
Forced                                   : No

Audio #11
ID                                       : 12
Format                                   : AC-3
Format/Info                              : Audio Coding 3
Codec ID                                 : A_AC3
Duration                                 : 2 h 10 min
Bit rate mode                            : Constant
Bit rate                                 : 192 kb/s
Channel(s)                               : 2 channels
Channel positions                        : Front: L R
Sampling rate                            : 48.0 kHz
Frame rate                               : 31.250 FPS (1536 SPF)
Bit depth                                : 16 bits
Compression mode                         : Lossy
Delay relative to video                  : 6 ms
Stream size                              : 179 MiB (0%)
Title                                    : Unforgiven.1992.2160p.BluRay.REMUX.HEVC.DTS-HD.MA.5.1-FGT
Language                                 : Thai
Service kind                             : Complete Main
Default                                  : No
Forced                                   : No

Audio #12
ID                                       : 13
Format                                   : AC-3
Format/Info                              : Audio Coding 3
Codec ID                                 : A_AC3
Duration                                 : 2 h 10 min
Bit rate mode                            : Constant
Bit rate                                 : 192 kb/s
Channel(s)                               : 2 channels
Channel positions                        : Front: L R
Sampling rate                            : 48.0 kHz
Frame rate                               : 31.250 FPS (1536 SPF)
Bit depth                                : 16 bits
Compression mode                         : Lossy
Delay relative to video                  : 32 ms
Stream size                              : 179 MiB (0%)
Title                                    : Unforgiven.1992.2160p.BluRay.REMUX.HEVC.DTS-HD.MA.5.1-FGT
Language                                 : Japanese
Service kind                             : Complete Main
Default                                  : No
Forced                                   : No

Audio #13
ID                                       : 14
Format                                   : AC-3
Format/Info                              : Audio Coding 3
Codec ID                                 : A_AC3
Duration                                 : 2 h 10 min
Bit rate mode                            : Constant
Bit rate                                 : 192 kb/s
Channel(s)                               : 2 channels
Channel positions                        : Front: L R
Sampling rate                            : 48.0 kHz
Frame rate                               : 31.250 FPS (1536 SPF)
Bit depth                                : 16 bits
Compression mode                         : Lossy
Delay relative to video                  : 32 ms
Stream size                              : 179 MiB (0%)
Title                                    : Unforgiven.1992.2160p.BluRay.REMUX.HEVC.DTS-HD.MA.5.1-FGT
Language                                 : English
Service kind                             : Complete Main
Default                                  : No
Forced                                   : No

Text #1
ID                                       : 15
Format                                   : PGS
Muxing mode                              : zlib
Codec ID                                 : S_HDMV/PGS
Codec ID/Info                            : Picture based subtitle format used on BDs/HD-DVDs
Duration                                 : 2 h 9 min
Bit rate                                 : 28.0 kb/s
Count of elements                        : 2850
Stream size                              : 25.9 MiB (0%)
Title                                    : English-PGS
Language                                 : English
Default                                  : Yes
Forced                                   : No

Text #2
ID                                       : 16
Format                                   : PGS
Muxing mode                              : zlib
Codec ID                                 : S_HDMV/PGS
Codec ID/Info                            : Picture based subtitle format used on BDs/HD-DVDs
Duration                                 : 2 h 10 min
Bit rate                                 : 23.1 kb/s
Count of elements                        : 2636
Stream size                              : 21.5 MiB (0%)
Title                                    : French-PGS
Language                                 : French
Default                                  : No
Forced                                   : No

Text #3
ID                                       : 17
Format                                   : PGS
Muxing mode                              : zlib
Codec ID                                 : S_HDMV/PGS
Codec ID/Info                            : Picture based subtitle format used on BDs/HD-DVDs
Duration                                 : 2 h 10 min
Bit rate                                 : 29.3 kb/s
Count of elements                        : 2885
Stream size                              : 27.3 MiB (0%)
Title                                    : German-PGS
Language                                 : German
Default                                  : No
Forced                                   : No

Text #4
ID                                       : 18
Format                                   : PGS
Muxing mode                              : zlib
Codec ID                                 : S_HDMV/PGS
Codec ID/Info                            : Picture based subtitle format used on BDs/HD-DVDs
Duration                                 : 2 h 10 min
Bit rate                                 : 27.8 kb/s
Count of elements                        : 2898
Stream size                              : 25.9 MiB (0%)
Title                                    : Italian-PGS
Language                                 : Italian
Default                                  : No
Forced                                   : No

Text #5
ID                                       : 19
Format                                   : PGS
Muxing mode                              : zlib
Codec ID                                 : S_HDMV/PGS
Codec ID/Info                            : Picture based subtitle format used on BDs/HD-DVDs
Duration                                 : 2 h 10 min
Bit rate                                 : 25.1 kb/s
Count of elements                        : 2668
Stream size                              : 23.4 MiB (0%)
Title                                    : Spanish-PGS
Language                                 : Spanish
Default                                  : No
Forced                                   : No

Text #6
ID                                       : 20
Format                                   : PGS
Muxing mode                              : zlib
Codec ID                                 : S_HDMV/PGS
Codec ID/Info                            : Picture based subtitle format used on BDs/HD-DVDs
Duration                                 : 2 h 10 min
Bit rate                                 : 25.9 kb/s
Count of elements                        : 2688
Stream size                              : 24.1 MiB (0%)
Title                                    : Dutch-PGS
Language                                 : Dutch
Default                                  : No
Forced                                   : No

Text #7
ID                                       : 21
Format                                   : PGS
Muxing mode                              : zlib
Codec ID                                 : S_HDMV/PGS
Codec ID/Info                            : Picture based subtitle format used on BDs/HD-DVDs
Duration                                 : 2 h 10 min
Bit rate                                 : 22.9 kb/s
Count of elements                        : 2646
Stream size                              : 21.3 MiB (0%)
Title                                    : Chinese-PGS
Language                                 : Chinese
Default                                  : No
Forced                                   : No

Text #8
ID                                       : 22
Format                                   : PGS
Muxing mode                              : zlib
Codec ID                                 : S_HDMV/PGS
Codec ID/Info                            : Picture based subtitle format used on BDs/HD-DVDs
Duration                                 : 2 h 10 min
Bit rate                                 : 22.9 kb/s
Count of elements                        : 2648
Stream size                              : 21.3 MiB (0%)
Title                                    : Chinese-PGS
Language                                 : Chinese
Default                                  : No
Forced                                   : No

Text #9
ID                                       : 23
Format                                   : PGS
Muxing mode                              : zlib
Codec ID                                 : S_HDMV/PGS
Codec ID/Info                            : Picture based subtitle format used on BDs/HD-DVDs
Duration                                 : 2 h 10 min
Bit rate                                 : 16.8 kb/s
Count of elements                        : 3034
Stream size                              : 15.7 MiB (0%)
Title                                    : Korean-PGS
Language                                 : Korean
Default                                  : No
Forced                                   : No

Text #10
ID                                       : 24
Format                                   : PGS
Muxing mode                              : zlib
Codec ID                                 : S_HDMV/PGS
Codec ID/Info                            : Picture based subtitle format used on BDs/HD-DVDs
Duration                                 : 2 h 10 min
Bit rate                                 : 24.3 kb/s
Count of elements                        : 2814
Stream size                              : 22.6 MiB (0%)
Title                                    : Spanish-PGS
Language                                 : Spanish
Default                                  : No
Forced                                   : No

Text #11
ID                                       : 25
Format                                   : PGS
Muxing mode                              : zlib
Codec ID                                 : S_HDMV/PGS
Codec ID/Info                            : Picture based subtitle format used on BDs/HD-DVDs
Duration                                 : 2 h 10 min
Bit rate                                 : 14.1 kb/s
Count of elements                        : 2638
Stream size                              : 13.1 MiB (0%)
Title                                    : Arabic-PGS
Language                                 : Arabic
Default                                  : No
Forced                                   : No

Text #12
ID                                       : 26
Format                                   : PGS
Muxing mode                              : zlib
Codec ID                                 : S_HDMV/PGS
Codec ID/Info                            : Picture based subtitle format used on BDs/HD-DVDs
Duration                                 : 2 h 10 min
Bit rate                                 : 26.1 kb/s
Count of elements                        : 2636
Stream size                              : 24.3 MiB (0%)
Title                                    : Czech-PGS
Language                                 : Czech
Default                                  : No
Forced                                   : No

Text #13
ID                                       : 27
Format                                   : PGS
Muxing mode                              : zlib
Codec ID                                 : S_HDMV/PGS
Codec ID/Info                            : Picture based subtitle format used on BDs/HD-DVDs
Duration                                 : 2 h 10 min
Bit rate                                 : 25.2 kb/s
Count of elements                        : 2648
Stream size                              : 23.4 MiB (0%)
Title                                    : Danish-PGS
Language                                 : Danish
Default                                  : No
Forced                                   : No

Text #14
ID                                       : 28
Format                                   : PGS
Muxing mode                              : zlib
Codec ID                                 : S_HDMV/PGS
Codec ID/Info                            : Picture based subtitle format used on BDs/HD-DVDs
Duration                                 : 2 h 10 min
Bit rate                                 : 25.9 kb/s
Count of elements                        : 2562
Stream size                              : 24.0 MiB (0%)
Title                                    : Finnish-PGS
Language                                 : Finnish
Default                                  : No
Forced                                   : No

Text #15
ID                                       : 29
Format                                   : PGS
Muxing mode                              : zlib
Codec ID                                 : S_HDMV/PGS
Codec ID/Info                            : Picture based subtitle format used on BDs/HD-DVDs
Duration                                 : 2 h 10 min
Bit rate                                 : 25.5 kb/s
Count of elements                        : 2668
Stream size                              : 23.7 MiB (0%)
Title                                    : Greek-PGS
Language                                 : Greek
Default                                  : No
Forced                                   : No

Text #16
ID                                       : 30
Format                                   : PGS
Muxing mode                              : zlib
Codec ID                                 : S_HDMV/PGS
Codec ID/Info                            : Picture based subtitle format used on BDs/HD-DVDs
Duration                                 : 2 h 10 min
Bit rate                                 : 19.3 kb/s
Count of elements                        : 2634
Stream size                              : 18.0 MiB (0%)
Title                                    : Hebrew-PGS
Language                                 : Hebrew
Default                                  : No
Forced                                   : No

Text #17
ID                                       : 31
Format                                   : PGS
Muxing mode                              : zlib
Codec ID                                 : S_HDMV/PGS
Codec ID/Info                            : Picture based subtitle format used on BDs/HD-DVDs
Duration                                 : 2 h 10 min
Bit rate                                 : 23.5 kb/s
Count of elements                        : 2670
Stream size                              : 21.8 MiB (0%)
Title                                    : Hungarian-PGS
Language                                 : Hungarian
Default                                  : No
Forced                                   : No

Text #18
ID                                       : 32
Format                                   : PGS
Muxing mode                              : zlib
Codec ID                                 : S_HDMV/PGS
Codec ID/Info                            : Picture based subtitle format used on BDs/HD-DVDs
Duration                                 : 2 h 10 min
Bit rate                                 : 23.3 kb/s
Count of elements                        : 2670
Stream size                              : 21.7 MiB (0%)
Title                                    : Norwegian-PGS
Language                                 : Norwegian
Default                                  : No
Forced                                   : No

Text #19
ID                                       : 33
Format                                   : PGS
Muxing mode                              : zlib
Codec ID                                 : S_HDMV/PGS
Codec ID/Info                            : Picture based subtitle format used on BDs/HD-DVDs
Duration                                 : 2 h 10 min
Bit rate                                 : 22.2 kb/s
Count of elements                        : 2614
Stream size                              : 20.6 MiB (0%)
Title                                    : Polish-PGS
Language                                 : Polish
Default                                  : No
Forced                                   : No

Text #20
ID                                       : 34
Format                                   : PGS
Muxing mode                              : zlib
Codec ID                                 : S_HDMV/PGS
Codec ID/Info                            : Picture based subtitle format used on BDs/HD-DVDs
Duration                                 : 2 h 10 min
Bit rate                                 : 23.6 kb/s
Count of elements                        : 2586
Stream size                              : 22.0 MiB (0%)
Title                                    : Portuguese-PGS
Language                                 : Portuguese
Default                                  : No
Forced                                   : No

Text #21
ID                                       : 35
Format                                   : PGS
Muxing mode                              : zlib
Codec ID                                 : S_HDMV/PGS
Codec ID/Info                            : Picture based subtitle format used on BDs/HD-DVDs
Duration                                 : 2 h 10 min
Bit rate                                 : 24.5 kb/s
Count of elements                        : 2644
Stream size                              : 22.8 MiB (0%)
Title                                    : Romanian-PGS
Language                                 : Romanian
Default                                  : No
Forced                                   : No

Text #22
ID                                       : 36
Format                                   : PGS
Muxing mode                              : zlib
Codec ID                                 : S_HDMV/PGS
Codec ID/Info                            : Picture based subtitle format used on BDs/HD-DVDs
Duration                                 : 2 h 10 min
Bit rate                                 : 28.2 kb/s
Count of elements                        : 2730
Stream size                              : 26.2 MiB (0%)
Title                                    : Russian-PGS
Language                                 : Russian
Default                                  : No
Forced                                   : No

Text #23
ID                                       : 37
Format                                   : PGS
Muxing mode                              : zlib
Codec ID                                 : S_HDMV/PGS
Codec ID/Info                            : Picture based subtitle format used on BDs/HD-DVDs
Duration                                 : 2 h 10 min
Bit rate                                 : 22.9 kb/s
Count of elements                        : 2632
Stream size                              : 21.3 MiB (0%)
Title                                    : Swedish-PGS
Language                                 : Swedish
Default                                  : No
Forced                                   : No

Text #24
ID                                       : 38
Format                                   : PGS
Muxing mode                              : zlib
Codec ID                                 : S_HDMV/PGS
Codec ID/Info                            : Picture based subtitle format used on BDs/HD-DVDs
Duration                                 : 2 h 10 min
Bit rate                                 : 23.4 kb/s
Count of elements                        : 2630
Stream size                              : 21.8 MiB (0%)
Title                                    : Turkish-PGS
Language                                 : Turkish
Default                                  : No
Forced                                   : No

Text #25
ID                                       : 39
Format                                   : PGS
Muxing mode                              : zlib
Codec ID                                 : S_HDMV/PGS
Codec ID/Info                            : Picture based subtitle format used on BDs/HD-DVDs
Duration                                 : 2 h 10 min
Bit rate                                 : 530 b/s
Count of elements                        : 46
Stream size                              : 505 KiB (0%)
Title                                    : French-FORCED-PGS
Language                                 : French
Default                                  : No
Forced                                   : No

Text #26
ID                                       : 40
Format                                   : PGS
Muxing mode                              : zlib
Codec ID                                 : S_HDMV/PGS
Codec ID/Info                            : Picture based subtitle format used on BDs/HD-DVDs
Duration                                 : 2 h 10 min
Bit rate                                 : 612 b/s
Count of elements                        : 48
Stream size                              : 583 KiB (0%)
Title                                    : German-FORCED-PGS
Language                                 : German
Default                                  : No
Forced                                   : No

Text #27
ID                                       : 41
Format                                   : PGS
Muxing mode                              : zlib
Codec ID                                 : S_HDMV/PGS
Codec ID/Info                            : Picture based subtitle format used on BDs/HD-DVDs
Duration                                 : 2 h 10 min
Bit rate                                 : 636 b/s
Count of elements                        : 48
Stream size                              : 606 KiB (0%)
Title                                    : Italian-FORCED-PGS
Language                                 : Italian
Default                                  : No
Forced                                   : No

Text #28
ID                                       : 42
Format                                   : PGS
Muxing mode                              : zlib
Codec ID                                 : S_HDMV/PGS
Codec ID/Info                            : Picture based subtitle format used on BDs/HD-DVDs
Duration                                 : 2 h 10 min
Bit rate                                 : 644 b/s
Count of elements                        : 48
Stream size                              : 614 KiB (0%)
Title                                    : Spanish-FORCED-PGS
Language                                 : Spanish
Default                                  : No
Forced                                   : No

Text #29
ID                                       : 43
Format                                   : PGS
Muxing mode                              : zlib
Codec ID                                 : S_HDMV/PGS
Codec ID/Info                            : Picture based subtitle format used on BDs/HD-DVDs
Duration                                 : 2 h 10 min
Bit rate                                 : 638 b/s
Count of elements                        : 50
Stream size                              : 608 KiB (0%)
Title                                    : Thai-FORCED-PGS
Language                                 : Thai
Default                                  : No
Forced                                   : No

Text #30
ID                                       : 44
Format                                   : PGS
Muxing mode                              : zlib
Codec ID                                 : S_HDMV/PGS
Codec ID/Info                            : Picture based subtitle format used on BDs/HD-DVDs
Duration                                 : 2 h 9 min
Bit rate                                 : 20.4 kb/s
Count of elements                        : 2848
Stream size                              : 18.9 MiB (0%)
Title                                    : Japanese-PGS
Language                                 : Japanese
Default                                  : No
Forced                                   : No

Text #31
ID                                       : 45
Format                                   : PGS
Muxing mode                              : zlib
Codec ID                                 : S_HDMV/PGS
Codec ID/Info                            : Picture based subtitle format used on BDs/HD-DVDs
Duration                                 : 2 h 9 min
Bit rate                                 : 226 b/s
Count of elements                        : 139
Stream size                              : 214 KiB (0%)
Title                                    : Japanese-FORCED-PGS
Language                                 : Japanese
Default                                  : No
Forced                                   : No

Menu
00:00:00.000                             : en:Chapter 1
00:01:09.861                             : en:Chapter 2
00:03:52.232                             : en:Chapter 3
00:06:59.043                             : en:Chapter 4
00:08:15.536                             : en:Chapter 5
00:14:08.597                             : en:Chapter 6
00:16:52.678                             : en:Chapter 7
00:24:16.496                             : en:Chapter 8
00:28:50.395                             : en:Chapter 9
00:31:40.023                             : en:Chapter 10
00:34:32.862                             : en:Chapter 11
00:38:51.954                             : en:Chapter 12
00:46:22.529                             : en:Chapter 13
00:53:42.344                             : en:Chapter 14
00:58:03.021                             : en:Chapter 15
01:00:22.702                             : en:Chapter 16
01:06:46.752                             : en:Chapter 17
01:09:34.086                             : en:Chapter 18
01:13:46.672                             : en:Chapter 19
01:20:57.602                             : en:Chapter 20
01:24:44.621                             : en:Chapter 21
01:29:36.662                             : en:Chapter 22
01:34:25.076                             : en:Chapter 23
01:36:08.888                             : en:Chapter 24
01:41:08.896                             : en:Chapter 25
01:43:11.685                             : en:Chapter 26
01:45:48.216                             : en:Chapter 27
01:49:17.092                             : en:Chapter 28
01:53:12.327                             : en:Chapter 29
01:54:32.073                             : en:Chapter 30
01:58:19.342                             : en:Chapter 31
02:02:10.656                             : en:Chapter 32
02:04:30.045                             : en:Chapter 33



豪情盖天(港) / 杀无赦(台) / 不被饶恕的人 / The Cut Whore Killings / The William Munny Killings/不可饶恕4K Unforgiven.1992.UHD.BluRay.2160p.DTS-HD.MA.5.1.HEVC.REMUX-FraMeSToR 4KUHD蓝光原盘电影下载

不可饶恕4K  The Cut Whore Killings / The William Munny Killings Unforgiven.1992.2160p.BluRay.HEVC.DTS-HD.MA.5.1-HDRINVASION(4K UHD 蓝光原盘破解版 2160P+HDR  )
游客,如果您要查看本帖隐藏内容请回复
不可饶恕 4K The Cut Whore Killings / The William Munny Killings Unforgiven.1992.2160p.BluRay.REMUX.HEVC.DTS-HD.MA.5.1-FGT(4K UHD 蓝光原盘破解版 2160P+HDR  )
游客,如果您要查看本帖隐藏内容请回复


0

主题

11

帖子

0

K币

Rank: 1

威望
0
积分
12
强颜欢笑 发表于 2017-11-30 20:44:02 | 显示全部楼层
我只是路过打酱油的,赞hao4k

0

主题

69

帖子

3

K币

Rank: 8Rank: 8

威望
0
积分
82
xinanjiang 发表于 2017-11-30 20:49:34 | 显示全部楼层
啥也不说了,感谢楼主在hao4k分享4k视频内容哇!

0

主题

6

帖子

2

K币

Rank: 1

威望
0
积分
12
steve09291111 发表于 2017-11-30 21:01:07 | 显示全部楼层
好片子,顶

0

主题

158

帖子

10

K币

Rank: 8Rank: 8

威望
0
积分
186
cdplz 发表于 2017-11-30 21:09:53 | 显示全部楼层
感谢分享新资源!

0

主题

129

帖子

1

K币

Rank: 1

签到达人

威望
0
积分
209
clfong 发表于 2017-11-30 21:29:37 | 显示全部楼层
啥也不说了,感谢楼主在hao4k分享4k视频内容哇!

0

主题

202

帖子

48

K币

Rank: 8Rank: 8

威望
0
积分
258
guannong 发表于 2017-11-30 21:30:10 | 显示全部楼层
谢谢分享。

1

主题

32

帖子

41

K币

Rank: 1

威望
0
积分
95
tronx 发表于 2017-11-30 22:17:45 | 显示全部楼层
啥也不说了,感谢楼主在hao4k分享4k视频内容哇!

0

主题

10

帖子

0

K币

Rank: 1

威望
0
积分
11
学会珍惜i 发表于 2017-11-30 22:42:42 | 显示全部楼层
传说中的沙发???哇卡卡

1

主题

14

帖子

27

K币

Rank: 1

威望
0
积分
32
手指shouzhi 发表于 2017-11-30 22:51:50 | 显示全部楼层
这么老的片子也有4K?太惊讶了!
您需要登录后才可以回帖 登录 | 立即注册

本版积分规则

Copyright   ©2015-2016  hao4k  Powered by©Discuz!