猜你喜欢

怪奇物语 第一季 Stranger Things S01 2160p 5.1ch

[复制链接]
查看: 97|回复: 11

61

主题

219

帖子

177

K币

Rank: 2

引领者

威望
8
积分
613
pyang921 发表于 2017-12-1 19:48:28 | 显示全部楼层 |阅读模式

电视剧名:怪奇物语 第一季 [下载地址在帖子底部]

  • 年  代:2016  
  • 国  家:美国
  • 类  别:科幻 惊悚 剧情 悬疑 
  • 字  幕:英文原版
  • 上映日期:2016-07-15
  • 文件格式:mkv    
  • 视频效果:4K(3840x2160)    
  • 文件大小:94.22GB
  • 片  长:50分钟
  • 导  演:肖恩·利维 / 马特·达菲 / 罗斯·达菲

剧情简介

《怪奇物语 Stranger Things》(原名《Montauk》)。本剧背景设置在上世纪八十年代的印第安纳州,一个小男孩神秘的消失了;他的朋友、家人以及当地的警方开始竭力找寻答案,但却被卷入了一个充斥秘密试验和恐怖超自然力量的神秘事件中,一个陌生的小女孩看似也与这起事件有莫大的关系。本剧由年轻的类型片电影制作人Matt Duffer和Russ Duffer编剧并执导,由Shawn Levy担任执行制作人。
  Winona Ryder飾演Joyce,他的兒子就是那失蹤的小孩;David Harbour饰演帮助其寻找调查的警官。Cara Buono将饰演Karen,Mike和Nancy的母亲,这两个孩子也加入寻找失踪男孩的队伍中。Ross Partridge将饰演Lonnie,虽然与Joyce(Ryder饰)离婚但仍对此抱持不满的Joyce的前夫。Matthew Modine飾演Martin Brenner博士,聰明但背景神秘,或許跟兒童失蹤有關。
  在经过全球筛选年轻小演员之后,Netflix在上年确定了即将开拍的超自然剧集的主演,被选中的小演员有Finn Wolfhard、Millie Brown、Gaten Matarazzo、Caleb McLaughlin、Noah Schnapp、Natalia Dyer和Charlie Heaton。
  Finn Wolfhard饰演Mike,一个备受欺凌的12岁男孩,为了拯救他最好的朋友,他成为了一个让人最意想不到的英雄。他之前参演过《地球百子 The 100》、《Aftermath》、《The Resurrection》。
  Millie Brown,之前因参演《寄居者 Intruders》被人们所熟知;她将饰演Mike在森林里遇见,一个拥有神奇力量的神秘角色。她还参演过《童话镇 Once Upon A Time》和《海军犯罪调查处 NCIS》。
  Gaten Matarazzo饰演12岁的Dustin,一个非常有节奏感的男生,并在整部剧中担任幽默担当,用自己的幽默感化解尴尬的气氛和情况。
  Caleb McLaughlin饰演Lucas,Mike刚愎自用的朋友,有别的男孩没有的凶猛和勇气。
  Noah Schnapp饰演Will,一个幼弱敏感的男生,他似乎不符合在80年代的「普通」定义;也就是他凭空消失了。
  Natalia Dyer饰演Nancy,Mike的姐姐。Charlie Heaton饰演Joanthan,Will的哥哥。
General
Format                         : Matroska
Format version                 : Version 4 / Version 2
File size                      : 10.3 GiB
Duration                       : 48mn 16s
Overall bit rate               : 30.6 Mbps
Encoded date                   : UTC 2016-07-16 18:43:48
Writing application            : mkvmerge v7.6.0 ('Garden of Dreams') 64bit built on Feb  8 2015 13:04:34
Writing library                : libebml v1.3.1 + libmatroska v1.4.2

Video
ID                             : 1
Format                         : AVC
Format/Info                    : Advanced Video Codec
Format profile                 : High@L5.1
Format settings, CABAC         : Yes
Format settings, ReFrames      : 6 frames
Codec ID                       : V_MPEG4/ISO/AVC
Duration                       : 48mn 16s
Bit rate                       : 29.6 Mbps
Width                          : 3 840 pixels
Height                         : 1 920 pixels
Display aspect ratio           : 2.000
Frame rate mode                : Constant
Frame rate                     : 23.976 (24000/1001) fps
Color space                    : YUV
Chroma subsampling             : 4:2:0
Bit depth                      : 8 bits
Scan type                      : Progressive
Bits/(Pixel*Frame)             : 0.168
Stream size                    : 9.99 GiB (97%)
Writing library                : x264 core 144 r2525 40bb568
Language                       : English
Default                        : Yes
Forced                         : No

Audio
ID                             : 2
Format                         : AC-3
Format/Info                    : Audio Coding 3
Mode extension                 : CM (complete main)
Format settings, Endianness    : Big
Codec ID                       : A_AC3
Duration                       : 48mn 16s
Bit rate mode                  : Constant
Bit rate                       : 384 Kbps
Channel(s)                     : 6 channels
Channel positions              : Front: L C R, Side: L R, LFE
Sampling rate                  : 48.0 KHz
Frame rate                     : 31.250 fps (1536 spf)
Compression mode               : Lossy
Stream size                    : 133 MiB (1%)
Language                       : English
Default                        : Yes
Forced                         : No

Text #1
ID                             : 3
Format                         : UTF-8
Codec ID                       : S_TEXT/UTF8
Codec ID/Info                  : UTF-8 Plain Text
Language                       : English
Default                        : No
Forced                         : No

Text #2
ID                             : 4
Format                         : UTF-8
Codec ID                       : S_TEXT/UTF8
Codec ID/Info                  : UTF-8 Plain Text
Language                       : French
Default                        : No
Forced                         : No

Text #3
ID                             : 5
Format                         : UTF-8
Codec ID                       : S_TEXT/UTF8
Codec ID/Info                  : UTF-8 Plain Text
Language                       : German
Default                        : No
Forced                         : No

Text #4
ID                             : 6
Format                         : UTF-8
Codec ID                       : S_TEXT/UTF8
Codec ID/Info                  : UTF-8 Plain Text
Language                       : Italian
Default                        : No
Forced                         : No



下载地址:
游客,如果您要查看本帖隐藏内容请回复


评分

参与人数 1K币 +3 收起 理由
hao4k + 3 赞一个!

查看全部评分

1

主题

82

帖子

61

K币

Rank: 1

签到达人

威望
0
积分
118
15583239283 发表于 2017-12-1 20:53:33 | 显示全部楼层
这剧豆瓣评分超高啊,各方媒体评价都非常值得一看,可惜了好资源,都没什么人下载美剧么?顶楼主多上美剧好资源!

0

主题

22

帖子

30

K币

Rank: 1

威望
0
积分
33
hzlzd 发表于 2017-12-1 20:55:52 | 显示全部楼层
正准备看这部美剧呢。不知道有没有匹配的字幕。

0

主题

59

帖子

8

K币

Rank: 1

威望
0
积分
107
renleix 发表于 2017-12-1 23:43:11 | 显示全部楼层
顶楼主多上美剧好资源!

0

主题

147

帖子

48

K币

Rank: 1

签到达人

威望
0
积分
162
sap 发表于 2017-12-2 00:16:14 | 显示全部楼层
得一看美剧,值

0

主题

30

帖子

52

K币

Rank: 1

威望
0
积分
67
jyg1970 发表于 2017-12-2 02:41:50 | 显示全部楼层
谢谢分享!!!!!!!!!!!

0

主题

53

帖子

69

K币

Rank: 1

威望
0
积分
143
roymok 发表于 2017-12-2 15:37:08 | 显示全部楼层
thanks a lot

1

主题

82

帖子

61

K币

Rank: 1

签到达人

威望
0
积分
118
15583239283 发表于 2017-12-3 08:56:25 | 显示全部楼层
这么好的4k资源没人来加速吗,速度依旧为零,老铁们,你们有速度吗??顶楼主 多上4K 美剧资源!!!

61

主题

219

帖子

177

K币

Rank: 2

引领者

威望
8
积分
613
 楼主| pyang921 发表于 2017-12-3 10:52:11 | 显示全部楼层
15583239283 发表于 2017-12-3 08:56
这么好的4k资源没人来加速吗,速度依旧为零,老铁们,你们有速度吗??顶楼主 多上4K 美剧资源!!!

下的人实在是太少,尤其是很多人用的是迅雷。你可以试试115网盘,看看能不能离线取回。

0

主题

2

帖子

12

K币

Rank: 1

威望
0
积分
3
zhengwu89 发表于 2017-12-7 05:16:33 | 显示全部楼层
不知道好不好
您需要登录后才可以回帖 登录 | 立即注册

本版积分规则

Copyright   ©2015-2016  hao4k  Powered by©Discuz!