猜你喜欢

[4k演示视频] samsung三星4K演示片-全球最美城市夜景:4K[迪拜Dubai]无与伦比的华丽璀璨3840×2160p[百度]

  [复制链接]
查看: 702|回复: 73

123

主题

200

帖子

2646

K币

Rank: 9Rank: 9Rank: 9

威望
0
积分
398
lili 发表于 2017-12-6 19:37:40 | 显示全部楼层 |阅读模式
全球最美城市夜景:4K[迪拜Dubai]无与伦比的华丽璀璨3840×2160p[百度]
1 e1 l0 t6 c% y% V
$ `& `3 G2 j& f& q! b 130427ayzewl585ssi5dsy.jpg
' {/ }, Z7 m9 I" x! b& x& Z5 D2 m# T4 I$ c9 r5 X$ Z, b) U8 V
130427pt5vvfzgp200p70z.jpg , I- Z, Y# f+ A5 u# u' n

  q/ s+ o' v0 y1 K0 \+ {  H# k' v5 q 130428clq1010l4ypzy967.jpg
$ S# }8 Z$ ]$ p1 z5 S# C& W: ]# m# ^' u
130428h797r9sh0o40bov1.jpg ; k. I) r3 ?+ L! T% i, o) X0 H
* l# S+ @5 e$ h: `. l
130428rxo5d4n45qobog4g.jpg ! r. t# \. j( [1 o; f

1 r5 O3 `( |  l+ J0 q* [ 130429x3y3rrm59yz9k9d2.jpg
: H8 z  x' X3 v  h& h; G' Y' y
/ [# f% S; y: i; P/ Z 130429tuogo0022mgsm5kv.jpg
1 X4 c- U/ w) l$ `
3 y5 u* k+ ^. T  o) j& z+ H一座超级土豪的城市,金碧辉煌的城市夜景。samsung三星4K演示片视频。; ~/ e7 C7 r2 @' O! b! f3 S

; I8 _+ E3 K# C! p9 t* U; s) t全球最美城市夜景:4K[迪拜Dubai]无与伦比的华丽璀璨) _/ [/ h/ m0 @5 t+ v
视频参数信息:
) S' T0 I$ G1 o: f$ `0 J9 X2 k8 K4 V
  • General
  • ID                             : 0 (0x0)
  • Complete name                  : T:K中国samsung三星4K演示片uhdtv迪拜Dubai.ts
  • Format                         : MPEG-TS
  • File size                      : 656 MiB
  • Duration                       : 1mn 47s
  • Overall bit rate mode          : Constant
  • Overall bit rate               : 51.4 Mbps
  • Video
  • ID                             : 257 (0x101)
  • Menu ID                        : 1 (0x1)
  • Format                         : HEVC
  • Format/Info                    : High Efficiency Video Coding
  • Codec ID                       : 36
  • Duration                       : 1mn 46s
  • Bit rate                       : 48.7 Mbps
  • Stream size                    : 616 MiB (94%)
  • Audio
  • ID                             : 258 (0x102)
  • Menu ID                        : 1 (0x1)
  • Format                         : AAC
  • Format/Info                    : Advanced Audio Codec
  • Format version                 : Version 4
  • Format profile                 : LC
  • Muxing mode                    : ADTS
  • Codec ID                       : 15
  • Duration                       : 1mn 46s
  • Bit rate mode                  : Variable
  • Bit rate                       : 137 Kbps
  • Channel(s)                     : 2 channels
  • Channel positions              : Front: L R
  • Sampling rate                  : 48.0 KHz
  • Compression mode               : Lossy
  • Stream size                    : 1.73 MiB (0%)) U6 F5 r  O) A3 _! t& ?

% y$ [3 z8 |0 t, w- [( g其它关键信息:
3 P3 T6 N0 G9 Z! O( S6 O+ R6 F( Q8 ]. F" Q) B* C( x4 M9 ?
+类型:三星4K UHDTV视频演示片  N+ f2 P0 p5 h: C: z
+视频格式:TS/ T9 m! F  a0 H: q+ |+ ?
+文件大小:655mb0 ^; y+ F$ Y" L7 b/ n% S7 z, m
+视频编码:HEVC/H.265
: Z$ M3 U! L$ x" Z9 X+PS: H265需要软、硬件支持才能播放。
; o8 o* m$ l: `
* [/ L6 L9 U% M1 R3 y3 o$ U0 F* u
每一个镜头画面,都值得仔仔细细欣赏,反正我忍不住看了10多遍!
( `8 S' ~# c( g( o推荐在50寸以上屏幕观看。否则是体验不了这部片的真实感受。

& Y. o  y0 Y& O- r5 csamsung三星4K演示片-全球最美城市夜景:4K[迪拜Dubai]无与伦比的华丽璀璨3840×2160p百度云盘下载:
8 P0 u; L- a9 D  u* `5 L
游客,如果您要查看本帖隐藏内容请回复
" V+ ]+ n( N8 \4 C. u+ X
8 ~: t, N8 M& n' @1 {0 `, O
+ k( ~4 r' D; n( H0 t( g9 V

0

主题

88

帖子

24

K币

Rank: 1

威望
0
积分
122
农家的孩子 发表于 2017-12-6 19:39:20 | 显示全部楼层
啥也不说了,感谢楼主在hao4k分享4k视频内容哇!

0

主题

13

帖子

0

K币

Rank: 1

威望
0
积分
13
毫无保留。 发表于 2017-12-6 20:19:45 | 显示全部楼层
楼主能不能高点4k演示视频啊~~~

1

主题

396

帖子

82

K币

Rank: 2

威望
0
积分
504
绵阳伊缘圆 发表于 2017-12-6 20:58:50 | 显示全部楼层
确实是难得4k好帖啊,顶先

0

主题

9

帖子

12

K币

Rank: 1

威望
0
积分
11
zp8519 发表于 2017-12-6 21:37:21 | 显示全部楼层
黑猫股份规定发给对方

0

主题

19

帖子

12

K币

Rank: 1

威望
0
积分
22
q303195251 发表于 2017-12-6 22:48:15 | 显示全部楼层
啥也不说了,感谢楼主在hao4k分享4k视频内容哇!

0

主题

26

帖子

81

K币

Rank: 1

威望
0
积分
67
powerc 发表于 2017-12-6 23:34:15 | 显示全部楼层
支持hao4k,支持楼主大人发布4k资源!

0

主题

9

帖子

0

K币

Rank: 1

威望
0
积分
9
少了你旳蓝天っ 发表于 2017-12-6 23:40:36 来自手机 | 显示全部楼层
珍惜生命、珍惜hao4k网站,果断回帖。

0

主题

4

帖子

0

K币

Rank: 1

威望
0
积分
5
Resurgam 发表于 2017-12-7 00:10:00 | 显示全部楼层
不错 支持一个了

0

主题

39

帖子

22

K币

Rank: 1

威望
0
积分
62
sheng56 发表于 2017-12-7 00:10:48 | 显示全部楼层
好美的景色。谢谢楼主。
您需要登录后才可以回帖 登录 | 立即注册

本版积分规则

Copyright   ©2015-2016  hao4k  Powered by©Discuz!