你所知道的4K资源这里全部都有 4K电影 | 4K视频 | 4K壁纸 | 4K MV 怎么播放4K视频 | 4K电视演示片▼

教你玩转4K私人与家庭影院存储 NAS组装 | 黑群辉 家庭/影院Nas论坛

4K家庭影院信号源与视频设备知识 4K蓝光高清播放机 - 那个品牌好? 4K投影机论坛 | 4K电视机论坛

手把手教你搭建属于自己的家庭影院 4K家庭影院案例 | 家庭影院音频 4K家庭影院论坛

发表于 2017-12-6 19:37 | 显示全部楼层 |阅读模式
全球最美城市夜景:4K[迪拜Dubai]无与伦比的华丽璀璨3840×2160p[百度]9 ?5 N+ ?) }% H4 T; S
# E. n7 S) Y" X1 |, y' L
130427ayzewl585ssi5dsy.jpg 1 D1 Z9 X. P& H' T, Q6 f

4 W8 P! s# E6 K- g& A 130427pt5vvfzgp200p70z.jpg 5 V( `/ r1 l! n( I6 b" S

# y5 j/ N. Y& `2 { 130428clq1010l4ypzy967.jpg 5 u6 _- a8 P% R

; L: Z+ x5 `5 ^, s6 E 130428h797r9sh0o40bov1.jpg 6 t7 d! t+ e' M  K

' A+ c) d; e0 z1 x$ J 130428rxo5d4n45qobog4g.jpg ) I5 }& \( f  G+ Y
$ [3 G: f2 g; W8 Y! N, z
130429x3y3rrm59yz9k9d2.jpg
# K' w) j7 _+ f* M+ V5 y- Q+ n! J/ w. x9 x( P, K8 K2 }1 u4 _
130429tuogo0022mgsm5kv.jpg 9 ^0 X5 W% i/ I" x( l  z, n

! G7 C1 i3 n" D- n' z# q一座超级土豪的城市,金碧辉煌的城市夜景。samsung三星4K演示片视频。+ K( l8 p$ s) |3 j8 p( v$ r2 q7 z+ c
8 ?6 P! g8 G& O: x
全球最美城市夜景:4K[迪拜Dubai]无与伦比的华丽璀璨4 [, m" `9 j  k, d% f" ~
视频参数信息:( z6 }0 |, v" B4 x, O7 w
+ x& v- w! u$ X6 J
  • General
  • ID                             : 0 (0x0)
  • Complete name                  : T:K中国samsung三星4K演示片uhdtv迪拜Dubai.ts
  • Format                         : MPEG-TS
  • File size                      : 656 MiB
  • Duration                       : 1mn 47s
  • Overall bit rate mode          : Constant
  • Overall bit rate               : 51.4 Mbps
  • Video
  • ID                             : 257 (0x101)
  • Menu ID                        : 1 (0x1)
  • Format                         : HEVC
  • Format/Info                    : High Efficiency Video Coding
  • Codec ID                       : 36
  • Duration                       : 1mn 46s
  • Bit rate                       : 48.7 Mbps
  • Stream size                    : 616 MiB (94%)
  • Audio
  • ID                             : 258 (0x102)
  • Menu ID                        : 1 (0x1)
  • Format                         : AAC
  • Format/Info                    : Advanced Audio Codec
  • Format version                 : Version 4
  • Format profile                 : LC
  • Muxing mode                    : ADTS
  • Codec ID                       : 15
  • Duration                       : 1mn 46s
  • Bit rate mode                  : Variable
  • Bit rate                       : 137 Kbps
  • Channel(s)                     : 2 channels
  • Channel positions              : Front: L R
  • Sampling rate                  : 48.0 KHz
  • Compression mode               : Lossy
  • Stream size                    : 1.73 MiB (0%); ?8 T" j+ S' A% ^  V% y( c
0 l* r5 K# D! X1 Y4 I1 I
其它关键信息:
- g+ M) M2 b/ R* J; p% D$ V# a  m9 R
+类型:三星4K UHDTV视频演示片) ?) L+ s( l! F
+视频格式:TS
* P, k: f0 S9 A3 o; w; P+文件大小:655mb/ E9 t5 Y4 D0 K& q" U
+视频编码:HEVC/H.2652 }6 W7 }. `. E1 U
+PS: H265需要软、硬件支持才能播放。0 z5 L* Y8 O, F: V
/ z, Q2 l+ N$ Y8 Q
每一个镜头画面,都值得仔仔细细欣赏,反正我忍不住看了10多遍!- w3 i9 h3 @4 f0 m7 A0 D# n0 ~* P
推荐在50寸以上屏幕观看。否则是体验不了这部片的真实感受。
! a9 R+ f) A* N
samsung三星4K演示片-全球最美城市夜景:4K[迪拜Dubai]无与伦比的华丽璀璨3840×2160p百度云盘下载:6 i! [0 v6 K: e& ~4 |- \% l- C2 \
游客,如果您要查看本帖隐藏内容请回复

; {4 f: o) p* b5 J$ @, a# J& l" \0 N) n
3 |' W' {9 p  C
发表于 2017-12-6 19:39 | 显示全部楼层
啥也不说了,感谢楼主在hao4k分享4k视频内容哇!
发表于 2017-12-6 20:19 | 显示全部楼层
发表于 2017-12-6 20:58 | 显示全部楼层
确实是难得4k好帖啊,顶先
发表于 2017-12-6 21:37 | 显示全部楼层
发表于 2017-12-6 22:48 | 显示全部楼层
啥也不说了,感谢楼主在hao4k分享4k视频内容哇!
发表于 2017-12-6 23:34 | 显示全部楼层
支持hao4k,支持楼主大人发布4k资源!
发表于 2017-12-6 23:40 来自 移动版  | 显示全部楼层
珍惜生命、珍惜hao4k网站,果断回帖。
发表于 2017-12-7 00:10 | 显示全部楼层
不错 支持一个了
发表于 2017-12-7 00:10 | 显示全部楼层
好美的景色。谢谢楼主。
发表于 2017-12-7 00:39 | 显示全部楼层
不错的演示片。
发表于 2017-12-7 01:21 | 显示全部楼层
hao4k提供的4k视频资源有效率果然很高,其他网站的资源都失效了,这里还可以下载!
发表于 2017-12-7 03:56 来自 移动版  | 显示全部楼层
支持楼主,用户楼主,楼主英明呀!!!
发表于 2017-12-7 09:37 | 显示全部楼层
支持hao4k,支持楼主大人发布4k资源!
发表于 2017-12-7 23:12 | 显示全部楼层
谢谢。想试试显卡
发表于 2017-12-7 23:33 | 显示全部楼层
回的人少,我来小顶一下。支持hao4k发展
发表于 2017-12-8 07:58 | 显示全部楼层
支持hao4k,支持楼主大人发布4k资源
发表于 2017-12-8 09:37 | 显示全部楼层
看看这个可以
您需要登录后才可以回帖 登录 | 立即注册

本版积分规则

返回顶部 联系我们