lili 发表于 2017-12-6 19:37 | 显示全部楼层 |阅读模式
全球最美城市夜景:4K[迪拜Dubai]无与伦比的华丽璀璨3840×2160p[百度]
7 m1 U: ]' q5 J2 K% u1 [7 @
0 a4 e/ e$ `1 J 130427ayzewl585ssi5dsy.jpg   |0 v" P! e, P/ Z1 A; [' G( m; \

$ l3 r0 P" J2 ?, ?1 v# o& I 130427pt5vvfzgp200p70z.jpg
6 K( {6 F6 ^0 E( ?( A" y1 F
5 r# G7 H5 p3 R- S, l1 e 130428clq1010l4ypzy967.jpg $ V+ y, H% `3 A3 W  u$ u
/ |) Y' f/ W6 K- ^$ ?
130428h797r9sh0o40bov1.jpg
" s7 e, j, \# u+ s; X* L0 n( h
7 ]8 Y5 T/ N5 ~6 d 130428rxo5d4n45qobog4g.jpg
( I. O. ]% i/ l0 M0 ^! C! G# H+ d. e, v; `
130429x3y3rrm59yz9k9d2.jpg * G  X0 f; L6 |- D$ _$ \! s& H

. L# H+ V, M0 B: l  v 130429tuogo0022mgsm5kv.jpg 1 Z2 A. h2 x2 W
6 @5 Q/ L% n6 t0 `
一座超级土豪的城市,金碧辉煌的城市夜景。samsung三星4K演示片视频。& }) q) R0 L' c  _2 Q
( f9 P2 z; [/ O- U1 A
全球最美城市夜景:4K[迪拜Dubai]无与伦比的华丽璀璨- _+ u, d1 m# v  u
视频参数信息:
6 V8 {) ?- e# g4 a3 g' ]) }4 X! g$ x. I0 O8 M
  • General
  • ID                             : 0 (0x0)
  • Complete name                  : T:K中国samsung三星4K演示片uhdtv迪拜Dubai.ts
  • Format                         : MPEG-TS
  • File size                      : 656 MiB
  • Duration                       : 1mn 47s
  • Overall bit rate mode          : Constant
  • Overall bit rate               : 51.4 Mbps
  • Video
  • ID                             : 257 (0x101)
  • Menu ID                        : 1 (0x1)
  • Format                         : HEVC
  • Format/Info                    : High Efficiency Video Coding
  • Codec ID                       : 36
  • Duration                       : 1mn 46s
  • Bit rate                       : 48.7 Mbps
  • Stream size                    : 616 MiB (94%)
  • Audio
  • ID                             : 258 (0x102)
  • Menu ID                        : 1 (0x1)
  • Format                         : AAC
  • Format/Info                    : Advanced Audio Codec
  • Format version                 : Version 4
  • Format profile                 : LC
  • Muxing mode                    : ADTS
  • Codec ID                       : 15
  • Duration                       : 1mn 46s
  • Bit rate mode                  : Variable
  • Bit rate                       : 137 Kbps
  • Channel(s)                     : 2 channels
  • Channel positions              : Front: L R
  • Sampling rate                  : 48.0 KHz
  • Compression mode               : Lossy
  • Stream size                    : 1.73 MiB (0%)
    9 u$ e: Y* U' F  v
3 U. L0 R, b* Y# v, o4 d
其它关键信息:/ `0 P, c; L! q
3 z+ K) A# a& E; ~8 K
+类型:三星4K UHDTV视频演示片
" B" N- S, `& B$ ?7 s% s2 p+视频格式:TS9 @0 M) @2 @' }6 s. I
+文件大小:655mb! h! `# ], I6 z* S
+视频编码:HEVC/H.265
8 p3 z! J7 T; j5 ?4 R+PS: H265需要软、硬件支持才能播放。2 @* H( N- A: J

' W! }( ~  @8 B# \6 M# Q. W! v
每一个镜头画面,都值得仔仔细细欣赏,反正我忍不住看了10多遍!$ d! S" ~) ]" s) g9 e0 ~; p3 Z1 h
推荐在50寸以上屏幕观看。否则是体验不了这部片的真实感受。

% f4 Q5 d7 |% Y1 g0 d( f" Csamsung三星4K演示片-全球最美城市夜景:4K[迪拜Dubai]无与伦比的华丽璀璨3840×2160p百度云盘下载:1 X: f; N3 J7 g6 J" @( e
samsung三星4K演示片-全球最美城市夜景视频下载.txt (295 Bytes, 下载次数: 33)
农家的孩子 发表于 2017-12-6 19:39 | 显示全部楼层
啥也不说了,感谢楼主在hao4k分享4k视频内容哇!
毫无保留。 发表于 2017-12-6 20:19 | 显示全部楼层
楼主能不能高点4k演示视频啊~~~
绵阳伊缘圆 发表于 2017-12-6 20:58 | 显示全部楼层
确实是难得4k好帖啊,顶先
头像被屏蔽
zp8519 发表于 2017-12-6 21:37 | 显示全部楼层
提示: 作者被禁止或删除 内容自动屏蔽
q303195251 发表于 2017-12-6 22:48 | 显示全部楼层
啥也不说了,感谢楼主在hao4k分享4k视频内容哇!
powerc 发表于 2017-12-6 23:34 | 显示全部楼层
支持hao4k,支持楼主大人发布4k资源!
少了你旳蓝天っ 发表于 2017-12-6 23:40 来自 移动版  | 显示全部楼层
珍惜生命、珍惜hao4k网站,果断回帖。
Resurgam 发表于 2017-12-7 00:10 | 显示全部楼层
不错 支持一个了
sheng56 发表于 2017-12-7 00:10 | 显示全部楼层
好美的景色。谢谢楼主。
xxjj 发表于 2017-12-7 00:39 | 显示全部楼层
不错的演示片。
Energy 发表于 2017-12-7 01:21 | 显示全部楼层
hao4k提供的4k视频资源有效率果然很高,其他网站的资源都失效了,这里还可以下载!
暗香疏影 发表于 2017-12-7 03:56 来自 移动版  | 显示全部楼层
支持楼主,用户楼主,楼主英明呀!!!
zqs318 发表于 2017-12-7 09:37 | 显示全部楼层
支持hao4k,支持楼主大人发布4k资源!
CrazyX 发表于 2017-12-7 23:12 | 显示全部楼层
谢谢。想试试显卡
asd1236388 发表于 2017-12-7 23:33 | 显示全部楼层
回的人少,我来小顶一下。支持hao4k发展
石雲海涯 发表于 2017-12-8 07:58 | 显示全部楼层
支持hao4k,支持楼主大人发布4k资源
hzswj 发表于 2017-12-8 09:37 | 显示全部楼层
看看这个可以
您需要登录后才可以回帖 登录 | 立即注册

本版积分规则

返回顶部 联系我们