猜你喜欢

仓皇一夜4k Rough.Night.2017.2160p.BluRay.REMUX.HEVC.DTS-HD.MA.TrueHD.7.1.Atmos-FGT 4K版下载[第九十八部破解4K UHD蓝光原盘电影]

[复制链接]
查看: 819|回复: 46

123

主题

200

帖子

2646

K币

Rank: 9Rank: 9Rank: 9

威望
0
积分
398
lili 发表于 2017-12-7 09:54:03 | 显示全部楼层 |阅读模式

片  名:仓皇一夜4k [下载地址在帖子底部]

  • 年  代:2017  
  • 国  家:美国
  • 类  别:喜剧 
  • 字  幕:英文原版
  • 上映日期:2017-06-16
  • 文件格式:mkv   
  • 视频效果:4K(3840x2160)    
  • 文件大小:45.34GB
  • 片  长:101分钟
  • 导  演:露西亚·安尼洛
  • 豆瓣链接:https://movie.douban.com/subject/26687241/
  • 主  演:斯嘉丽·约翰逊 / 吉莉恩·贝尔 / 佐伊·克罗维兹 / 伊拉纳·格雷泽 / 凯特·麦克金农 / 保罗·当斯 / 瑞安·库柏 / 泰·布利尔 / 黛米·摩尔 / 恩里克·穆西安诺 / 迪恩·文特斯 / 科尔顿·海恩斯 / 帕特里克·卡莱尔 / 埃里克·安德烈 / 博·伯翰

剧情简介

  影片由美剧《大城小妞》的导演Lucia Aniello执导,讲述五个好朋友为了单身周末在迈阿密租下了一所海滨别墅,不料一位男性脱衣舞者意外身亡而引发的一串故事,据说是影片《宿醉》和《老板渡假去》的结合版。
仓惶一夜 / 姊妹欲蒲团(港) / 女狼嗨到趴(台) / 晃动那具尸体 / 移动那具尸体 / 挪动尸体 / 摇动身体4kRough.Night.2017.2160p.BluRay.REMUX.HEVC.DTS-HD.MA.TrueHD.7.1.Atmos-FGT 4K UHD蓝光原盘资源说明
第九十八部 4K UHD 蓝光原盘破解版,含完整的 BDMV 文件夹以及数据,AACS 2.0 协议已被完整破解。

hao4k.com

hao4k.com


[-] Hide MediaInfo
Video
ID                                       : 1
Format                                   : HEVC
Format/Info                              : High Efficiency Video Coding
Format profile                           : Main 10@L5.1@High
Codec ID                                 : V_MPEGH/ISO/HEVC
Duration                                 : 1 h 40 min
Bit rate                                 : 23.1 Mb/s
Width                                    : 3 840 pixels
Height                                   : 1 606 pixels
Display aspect ratio                     : 2.40:1
Frame rate mode                          : Constant
Frame rate                               : 23.976 (24000/1001) FPS
Color space                              : YUV
Chroma subsampling                       : 4:2:0
Bit depth                                : 10 bits
Bits/(Pixel*Frame)                       : 0.156
Stream size                              : 16.3 GiB (72%)
Title                                    : Rough.Night.2017.2160p.BluRay.x265.10bit.SDR.DTS-HD.MA.TrueHD.7.1.Atmos-SWTYBLZ
Writing library                          : x265 2.5+4-b4a5bcfe29c7:[Windows][GCC 4.9.3][64 bit] 10bit
Encoding settings                        : cpuid=1173503 / frame-threads=16 / numa-pools=24,24,24,24 / wpp / no-pmode / no-pme / no-psnr / no-ssim / log-level=2 / input-csp=1 / input-res=3840x1606 / interlace=0 / total-frames=0 / level-idc=51 / high-tier=1 / uhd-bd=0 / ref=3 / no-allow-non-conformance / repeat-headers / annexb / aud / hrd / info / hash=0 / no-temporal-layers / no-open-gop / min-keyint=1 / keyint=24 / bframes=4 / b-adapt=2 / b-pyramid / bframe-bias=0 / rc-lookahead=25 / lookahead-slices=4 / scenecut=40 / no-intra-refresh / ctu=64 / min-cu-size=8 / no-rect / no-amp / max-tu-size=32 / tu-inter-depth=1 / tu-intra-depth=1 / limit-tu=0 / rdoq-level=0 / dynamic-rd=0.00 / no-ssim-rd / signhide / no-tskip / nr-intra=0 / nr-inter=0 / no-constrained-intra / strong-intra-smoothing / max-merge=2 / limit-refs=3 / no-limit-modes / me=1 / subme=2 / merange=57 / temporal-mvp / weightp / no-weightb / no-analyze-src-pics / deblock=0:0 / no-sao / no-sao-non-deblock / rd=3 / no-early-skip / rskip / no-fast-intra / no-tskip-fast / no-cu-lossless / no-b-intra / rdpenalty=0 / psy-rd=2.00 / psy-rdoq=0.00 / no-rd-refine / analysis-reuse-mode=0 / no-lossless / cbqpoffs=0 / crqpoffs=0 / rc=crf / crf=16.0 / qcomp=0.60 / qpstep=4 / stats-write=0 / stats-read=0 / vbv-maxrate=160000 / vbv-bufsize=160000 / vbv-init=0.9 / crf-max=0.0 / crf-min=0.0 / ipratio=1.40 / pbratio=1.30 / aq-mode=1 / aq-strength=1.00 / cutree / zone-count=0 / no-strict-cbr / qg-size=32 / no-rc-grain / qpmax=69 / qpmin=0 / no-const-vbv / sar=1 / overscan=0 / videoformat=5 / range=0 / colorprim=2 / transfer=2 / colormatrix=2 / chromaloc=0 / display-window=0 / max-cll=0,0 / min-luma=0 / max-luma=1023 / log2-max-poc-lsb=8 / vui-timing-info / vui-hrd-info / slices=1 / opt-qp-pps / opt-ref-list-length-pps / no-multi-pass-opt-rps / scenecut-bias=0.05 / no-opt-cu-delta-qp / no-aq-motion / no-HDR / no-hdr-opt / no-dhdr10-opt / analysis-reuse-level=5 / scale-factor=0 / refine-intra=0 / refine-inter=0 / refine-mv=0 / no-limit-sao / ctu-info=0
Language                                 : English
Default                                  : Yes
Forced                                   : No

Audio #1
ID                                       : 2
Format                                   : TrueHD
Format profile                           : TrueHD+Atmos / TrueHD
Codec ID                                 : A_TRUEHD
Duration                                 : 1 h 40 min
Bit rate mode                            : Variable
Bit rate                                 : 4 336 kb/s
Maximum bit rate                         : 7 836 kb/s
Channel(s)                               : Object Based / 8 channels
Channel positions                        : Object Based / Front: L C R, Side: L R, Back: L R, LFE
Sampling rate                            :  / 48.0 kHz
Frame rate                               : 1 200.000 FPS (40 SPF)
Compression mode                         : Lossless
Stream size                              : 3.05 GiB (14%)
Title                                    : Rough.Night.2017.2160p.BluRay.x265.10bit.SDR.DTS-HD.MA.TrueHD.7.1.Atmos-SWTYBLZ
Language                                 : English
Default                                  : Yes
Forced                                   : No

Audio #2
ID                                       : 3
Format                                   : DTS
Format/Info                              : Digital Theater Systems
Format profile                           : MA / Core
Codec ID                                 : A_DTS
Duration                                 : 1 h 40 min
Bit rate mode                            : Variable / Constant
Bit rate                                 : 3 660 kb/s / 1 509 kb/s
Channel(s)                               : 8 channels / 6 channels
Channel positions                        : Front: L C R, Side: L R, Back: L R, LFE / Front: L C R, Side: L R, LFE
Sampling rate                            : 48.0 kHz
Frame rate                               : 93.750 FPS (512 SPF)
Bit depth                                : 24 bits
Compression mode                         : Lossless / Lossy
Stream size                              : 2.58 GiB (11%)
Title                                    : Rough.Night.2017.2160p.BluRay.x265.10bit.SDR.DTS-HD.MA.TrueHD.7.1.Atmos-SWTYBLZ
Language                                 : English
Default                                  : No
Forced                                   : No

Audio #3
ID                                       : 4
Format                                   : AC-3
Format/Info                              : Audio Coding 3
Codec ID                                 : A_AC3
Duration                                 : 1 h 40 min
Bit rate mode                            : Constant
Bit rate                                 : 640 kb/s
Channel(s)                               : 6 channels
Channel positions                        : Front: L C R, Side: L R, LFE
Sampling rate                            : 48.0 kHz
Frame rate                               : 31.250 FPS (1536 SPF)
Bit depth                                : 16 bits
Compression mode                         : Lossy
Stream size                              : 462 MiB (2%)
Title                                    : Rough.Night.2017.2160p.BluRay.x265.10bit.SDR.DTS-HD.MA.TrueHD.7.1.Atmos-SWTYBLZ
Language                                 : English
Service kind                             : Complete Main
Default                                  : No
Forced                                   : No

Text #1
ID                                       : 5
Format                                   : UTF-8
Codec ID                                 : S_TEXT/UTF8
Codec ID/Info                            : UTF-8 Plain Text
Duration                                 : 1 h 39 min
Bit rate                                 : 100 b/s
Count of elements                        : 2211
Stream size                              : 73.0 KiB (0%)
Title                                    : English-SRT
Language                                 : English
Default                                  : Yes
Forced                                   : No

Text #2
ID                                       : 6
Format                                   : PGS
Muxing mode                              : zlib
Codec ID                                 : S_HDMV/PGS
Codec ID/Info                            : Picture based subtitle format used on BDs/HD-DVDs
Duration                                 : 1 h 39 min
Bit rate                                 : 66.4 kb/s
Count of elements                        : 3994
Stream size                              : 47.1 MiB (0%)
Title                                    : English-PGS
Language                                 : English
Default                                  : No
Forced                                   : No

Text #3
ID                                       : 7
Format                                   : PGS
Muxing mode                              : zlib
Codec ID                                 : S_HDMV/PGS
Codec ID/Info                            : Picture based subtitle format used on BDs/HD-DVDs
Duration                                 : 1 h 39 min
Bit rate                                 : 81.6 kb/s
Count of elements                        : 4798
Stream size                              : 58.3 MiB (0%)
Title                                    : English-SDH-PGS
Language                                 : English
Default                                  : No
Forced                                   : No

Text #4
ID                                       : 8
Format                                   : PGS
Muxing mode                              : zlib
Codec ID                                 : S_HDMV/PGS
Codec ID/Info                            : Picture based subtitle format used on BDs/HD-DVDs
Duration                                 : 1 h 39 min
Bit rate                                 : 46.6 kb/s
Count of elements                        : 3464
Stream size                              : 33.2 MiB (0%)
Title                                    : French-PGS
Language                                 : French
Default                                  : No
Forced                                   : No

Text #5
ID                                       : 9
Format                                   : PGS
Muxing mode                              : zlib
Codec ID                                 : S_HDMV/PGS
Codec ID/Info                            : Picture based subtitle format used on BDs/HD-DVDs
Duration                                 : 1 h 39 min
Bit rate                                 : 55.2 kb/s
Count of elements                        : 3423
Stream size                              : 39.3 MiB (0%)
Title                                    : Spanish-PGS
Language                                 : Spanish
Default                                  : No
Forced                                   : No

Menu
00:00:00.000                             : en:Chapter 1
00:04:44.325                             : en:Chapter 2
00:08:05.276                             : en:Chapter 3
00:15:19.209                             : en:Chapter 4
00:25:46.294                             : en:Chapter 5
00:34:27.023                             : en:Chapter 6
00:39:51.263                             : en:Chapter 7
00:43:11.088                             : en:Chapter 8
00:46:26.617                             : en:Chapter 9
00:49:09.529                             : en:Chapter 10
00:53:44.179                             : en:Chapter 11
00:59:37.657                             : en:Chapter 12
01:02:53.936                             : en:Chapter 13
01:11:56.645                             : en:Chapter 14
01:22:55.679                             : en:Chapter 15
01:30:58.327                             : en:Chapter 16


4K UHD蓝光版  
仓惶一夜 / 姊妹欲蒲团(港) / 女狼嗨到趴(台) / 晃动那具尸体 / 移动那具尸体 / 挪动尸体 / 摇动身体4kRough.Night.2017.2160p.BluRay.REMUX.HEVC.DTS-HD.MA.TrueHD.7.1.Atmos-FGT 4K UHD蓝光电影资源下载

仓惶一夜4k Rough.Night.2017.2160p.BluRay.REMUX.HEVC.DTS-HD.MA.TrueHD(4K UHD 蓝光破解版原盘 2160p  45.33GB)
游客,如果您要查看本帖隐藏内容请回复

仓惶一夜4k Rough.Night.2017.2160p.BluRay.REMUX.HEVC.DTS-HD.MA.TrueHD(4K UHD 蓝光破解版原盘 2160p  45.33GB)
游客,如果您要查看本帖隐藏内容请回复

仓惶一夜4k Rough.Night.2017.2160p.BluRay.REMUX.HEVC.DTS-HD.MA.TrueHD(4K UHD 蓝光破解版 REMUX 2160p  23.75GB)
游客,如果您要查看本帖隐藏内容请回复

仓惶一夜4k Rough.Night.2017.2160p.BluRay.REMUX.HEVC.DTS-HD.MA.TrueHD(4K UHD 蓝光破解版 REMUX 2160p  22.65GB)
游客,如果您要查看本帖隐藏内容请回复

0

主题

12

帖子

0

K币

Rank: 1

威望
0
积分
12
三字告白 发表于 2017-12-7 09:55:51 | 显示全部楼层
支持楼主,用户楼主,楼主英明呀!!!

0

主题

147

帖子

48

K币

Rank: 1

签到达人

威望
0
积分
162
sap 发表于 2017-12-7 10:33:35 | 显示全部楼层
啥也不说了,感谢楼主在hao4k分享4k视频内容哇!

0

主题

44

帖子

5

K币

Rank: 8Rank: 8

威望
0
积分
52
编号9257 发表于 2017-12-7 10:35:55 | 显示全部楼层
确实是难得4k好帖啊,顶先

0

主题

12

帖子

0

K币

Rank: 1

威望
0
积分
13
面对现实。 发表于 2017-12-7 10:45:05 | 显示全部楼层
hao4k更新4K电影好快啊,每天都更新!!牛逼...

0

主题

375

帖子

0

K币

Rank: 8Rank: 8

威望
0
积分
395
xxjj 发表于 2017-12-7 11:14:54 | 显示全部楼层
不错的影片,谢谢楼主分享。

0

主题

158

帖子

10

K币

Rank: 8Rank: 8

威望
0
积分
186
cdplz 发表于 2017-12-7 11:45:08 | 显示全部楼层
感谢分享新资源!

0

主题

3

帖子

0

K币

Rank: 1

威望
0
积分
3
bury、默默。 发表于 2017-12-7 12:17:51 | 显示全部楼层
求沙发

0

主题

44

帖子

10

K币

Rank: 1

威望
0
积分
55
Liping 发表于 2017-12-7 13:52:01 来自手机 | 显示全部楼层
能看看吗亲!我不知道怎样才能下载呀!

0

主题

127

帖子

4

K币

Rank: 1

威望
0
积分
199
mengruofei 发表于 2017-12-7 14:01:00 | 显示全部楼层
啥也不说了,感谢楼主在hao4k分享4k视频内容哇!
您需要登录后才可以回帖 登录 | 立即注册

本版积分规则

Copyright   ©2015-2016  hao4k  Powered by©Discuz!