猜你喜欢

[4k演示视频] 飞利浦Philips OLED 4K视频演示片

[复制链接]
查看: 529|回复: 37

123

主题

200

帖子

2646

K币

Rank: 9Rank: 9Rank: 9

威望
0
积分
398
lili 发表于 2017-12-7 17:19:01 | 显示全部楼层 |阅读模式
# \6 E" {* j1 }- x" C8 U9 x8 Z+ `5 q
飞利浦Philips OLED 4k视频演示片" e- y, R) N, N8 T: T4 U
211828tbcxcidtcx8hz8wz.jpg   r7 h, e( d& ?- _
! j' a' {' J+ s
211829hetwed30fttzrspt.jpg
0 _) N7 m( m3 k' z- T2 T7 j
* t$ ^. Q* s: O/ T7 i8 D+ o- ^ 211829eizmhn2ngnmn7h3z.jpg
9 k& o! ^6 C6 O: p3 d) h' \9 h. P% s! S' u3 t5 u6 ^! M* D
211829wlpenldn35e5p6d3.jpg
& Z+ S) @* I& J! S$ x% u% x7 H# s: F  m' q/ C1 A+ J
211829w3y3m8hsytd8ua3f.jpg ( W" a5 h4 |) g0 m6 k: q2 d. {" o
3 M1 a  y4 K0 N/ `4 t! s: j6 u  Y
211829qqpd11dgq3afz4dd.jpg
! O. r+ r- V7 X  e9 ^1 ?
8 M/ X6 z+ H* q) N/ O5 S3 i
OLED 4K视频信息:
0 x6 A& _; v( [+ _$ i) N6 A. H4 N: L0 C3 f8 y9 q$ t
Complete name          : G:OLEDPhilips_OLED_PQ_HEVC_60p_40Mbps_SDR_BlackEnhanced.mp4( b5 q6 o5 [: h- c& C0 {- I
Format                         : MPEG-4
5 \6 {3 n' r0 l: v& k8 qCodec ID                      : mp42 (isom/mp42)9 L( \* C6 V; n) z; K, `6 U
File size                         : 481 MiB  I2 _4 h" v# l. ?( v( H. ~3 t/ P0 U
Overall bit rate            : 38.8 Mbps
1 ?8 o0 V2 L5 T7 U1 a' GFormat                          : HEVC* X' x, g1 s: F4 N7 n) T
Bit rate                          : 38.6 Mbps7 }9 x/ k- Q' z. X& h
Width                            : 3 840 pixels5 `3 ^$ g/ I, `7 T. ?3 s7 w
Height                           : 2 160 pixels
! \) q2 I: H  \# ^7 gFrame rate                     : 60.000 fps
9 o& u* q& _4 A! SColor space                   : YUV* D# Y) j+ _8 {2 M
Chroma subsampling   : 4:2:0& `! p+ h4 {+ D3 c9 f
Bit depth                        : 10 bits. L$ n2 _" w0 I# ]' `5 Q0 ]
Stream size                    : 479 MiB (99%)2 _# ^3 E2 V2 V$ F0 O" G& W
3 W2 h4 _; G9 d
Audio9 g! Z# W1 V0 X1 H* H2 A
Format                          : AAC7 Q$ m% e4 {. H& y! T
Duration                       : 1mn 44s" p% g  }5 r# _5 H/ N7 ?+ s
Bit rate mode              : Variable, j  g2 j! B8 H0 t1 w& m' s8 \! G: u
Bit rate                          : 192 Kbps5 S% w& F; V, k5 k* f
Maximum bit rate       : 360 Kbps! i; F, G' ]$ s
Channel(s)                     : 2 channels0 |+ y1 l  v! U& h. t
Channel positions        : Front: L R
6 b! b% I4 v. d, y& M4 LSampling rate              : 48.0 KHz
+ b8 V/ ]7 b& s  L2 c; ]# MFrame rate                    : 46.875 fps (1024 spf)

. V8 T' D8 c/ A7 Y9 w7 hStream size                   : 2.35 MiB (0%)
飞利浦Philips OLED 4K视频演示片+ `1 [) T/ k6 b
回复链接即可下载:
3 H& E$ Z9 w2 B9 D- d- B2 k
游客,如果您要查看本帖隐藏内容请回复
( r7 v2 n) Q6 ~* m
8 F- K+ [* Q& a" |4 c5 k; C& z

0

主题

14

帖子

0

K币

Rank: 1

威望
0
积分
15
Clavicle 发表于 2017-12-7 17:21:14 | 显示全部楼层
前排顶,很好!

0

主题

88

帖子

24

K币

Rank: 1

威望
0
积分
122
农家的孩子 发表于 2017-12-7 18:34:01 | 显示全部楼层
啥也不说了,感谢楼主在hao4k分享4k视频内容哇!

0

主题

91

帖子

9

K币

Rank: 8Rank: 8

威望
0
积分
159
zzhan 发表于 2017-12-7 19:16:49 | 显示全部楼层
排顶,很好!

0

主题

4

帖子

0

K币

Rank: 1

威望
0
积分
4
grave 发表于 2017-12-7 21:02:58 | 显示全部楼层
传说中的沙发???哇卡卡

0

主题

245

帖子

144

K币

Rank: 2

签到达人

威望
0
积分
879
cityuser 发表于 2017-12-7 21:53:53 来自手机 | 显示全部楼层
支持hao4k,支持楼主大人发布4k资源!

0

主题

6

帖子

16

K币

Rank: 1

威望
0
积分
8
huangzhong 发表于 2017-12-7 22:13:01 | 显示全部楼层
啥也不说了,感谢楼主在hao4k分享4k视频内容哇!

0

主题

16

帖子

21

K币

Rank: 1

威望
0
积分
22
xu_qi1979 发表于 2017-12-7 22:19:27 | 显示全部楼层
回的人少,我来小顶一下。支持hao4k发展

0

主题

4

帖子

0

K币

Rank: 1

威望
0
积分
4
别恨我痴心 发表于 2017-12-7 23:37:10 | 显示全部楼层
楼主呀,,,您太有才了。。。

0

主题

9

帖子

0

K币

Rank: 1

威望
0
积分
10
不错 支持下
您需要登录后才可以回帖 登录 | 立即注册

本版积分规则

Copyright   ©2015-2016  hao4k  Powered by©Discuz!