查看 7147回复 197

[4k演示视频] 飞利浦Philips OLED 4K视频演示片

  [复制链接]
发表于 2017-12-7 17:19 | 显示全部楼层 |阅读模式

  A( D( E( \: T- [2 N飞利浦Philips OLED 4k视频演示片8 m/ z1 F3 a9 ~+ p
211828tbcxcidtcx8hz8wz.jpg 3 |# l) q2 p# i+ I3 d+ f. N8 K; t

' E0 Y; M. b5 d2 M& A 211829hetwed30fttzrspt.jpg % \! Z4 c) I$ F2 t- j3 y; }
2 h! M: W( @; i2 o5 {( d7 ~
211829eizmhn2ngnmn7h3z.jpg . e/ m6 r' ^# D/ U7 u

2 {9 }3 G6 S7 N/ S 211829wlpenldn35e5p6d3.jpg 3 h! Z2 x- b5 t, K5 V( v# |
5 G9 }) N5 N& ]2 K
211829w3y3m8hsytd8ua3f.jpg # u$ r1 ?' }  S* `: W0 K

8 _( ?: q3 [1 g 211829qqpd11dgq3afz4dd.jpg
& _4 G$ Q$ h4 P- g: N0 b# i, [, T
OLED 4K视频信息:
0 }# L2 X5 g: @6 o+ L( D1 b
" z' i) a( l: `3 k5 [& v- BComplete name          : G:OLEDPhilips_OLED_PQ_HEVC_60p_40Mbps_SDR_BlackEnhanced.mp4
' @9 ]/ G9 @  E  kFormat                         : MPEG-4
/ {, O- Y( H) o( k, ^, ~$ cCodec ID                      : mp42 (isom/mp42)7 O" r6 b# K3 m8 T
File size                         : 481 MiB
: K/ I8 v: n& a% ZOverall bit rate            : 38.8 Mbps
! l6 F3 {  K: o! |' y3 oFormat                          : HEVC
$ b. v9 c" w  }3 v7 S) yBit rate                          : 38.6 Mbps
* Y3 @2 B9 _9 @8 N; JWidth                            : 3 840 pixels
$ A) w+ [$ a& ?4 K2 y# ^1 eHeight                           : 2 160 pixels* u: C2 f. E0 `0 x  Q4 o& ]
Frame rate                     : 60.000 fps
! A- K2 f7 u' T9 L) |' @7 lColor space                   : YUV  `: k' K/ P8 X, J9 L
Chroma subsampling   : 4:2:0  f1 E8 ^" f" _, j$ v% _  U
Bit depth                        : 10 bits3 H5 L0 F5 q& O6 @' J
Stream size                    : 479 MiB (99%); `6 V, R4 {; M* g( a
8 K! f, j# b: ?! }# [( Z* Q
Audio
4 Z9 U: ?5 E# VFormat                          : AAC2 m' _8 V' A& a  G
Duration                       : 1mn 44s
! l; a5 e4 S1 S% u' K# v9 yBit rate mode              : Variable, `( r" Q- N$ Y) r! `, `, o) k) n- {8 [
Bit rate                          : 192 Kbps
$ ^0 |9 D9 J# Z5 gMaximum bit rate       : 360 Kbps, v) n2 g2 H% X/ p0 R
Channel(s)                     : 2 channels
  _4 \2 c' o& q+ _8 K& eChannel positions        : Front: L R$ O- B8 ~- C5 U* S$ d: I7 _, c4 g
Sampling rate              : 48.0 KHz, R1 H) I1 _0 _
Frame rate                    : 46.875 fps (1024 spf)

# i4 E! R- k# _2 E+ Z! @Stream size                   : 2.35 MiB (0%)
飞利浦Philips OLED 4K视频演示片2 [( W6 }9 e5 m) t; }7 z3 ~2 m
回复链接即可下载:
: o: u' N- M2 S" [
游客,如果您要查看本帖隐藏内容请回复
, m; n% `. f* C1 [$ l2 k

, x* R# G- u) l- S+ @
发表于 2017-12-7 17:21 | 显示全部楼层
前排顶,很好!
发表于 2017-12-7 18:34 | 显示全部楼层
啥也不说了,感谢楼主在hao4k分享4k视频内容哇!
发表于 2017-12-7 19:16 | 显示全部楼层
排顶,很好!
发表于 2017-12-7 21:02 | 显示全部楼层
发表于 2017-12-7 21:53 来自 移动版  | 显示全部楼层
支持hao4k,支持楼主大人发布4k资源!
发表于 2017-12-7 22:13 | 显示全部楼层
啥也不说了,感谢楼主在hao4k分享4k视频内容哇!
发表于 2017-12-7 22:19 | 显示全部楼层
回的人少,我来小顶一下。支持hao4k发展
发表于 2017-12-7 23:37 | 显示全部楼层
楼主呀,,,您太有才了。。。
发表于 2017-12-8 06:31 | 显示全部楼层
不错 支持下
发表于 2017-12-8 07:59 | 显示全部楼层
感谢楼主在hao4k分享4k视频内容
发表于 2017-12-8 08:00 | 显示全部楼层
啥也不说了,感谢楼主在hao4k分享4k视频内容哇!
发表于 2017-12-8 08:06 来自 移动版  | 显示全部楼层
不错 支持一个了
发表于 2017-12-8 08:17 | 显示全部楼层
很快很快很快回来了
发表于 2017-12-8 08:24 | 显示全部楼层
啥也不说了,感谢楼主在hao4k分享4k视频内容哇!
发表于 2017-12-8 13:30 | 显示全部楼层
太好啦!谢谢版主的无私分享!
发表于 2017-12-8 22:25 | 显示全部楼层
啥也不说了,感谢楼主在hao4k分享4k视频内容哇!
发表于 2017-12-9 00:16 | 显示全部楼层
感谢楼主在hao4k分享4k视频
您需要登录后才可以回帖 登录 | 立即注册

本版积分规则

关闭

站长通知上一条 /1 下一条

返回顶部 联系我们