查看 7867回复 205

[4k演示视频] 飞利浦Philips OLED 4K视频演示片

  [复制链接]
lili 发表于 2017-12-7 17:19 | 显示全部楼层 |阅读模式
飞利浦Philips OLED 4k视频演示片
7 ~9 r: U9 Q9 I+ D$ R 211828tbcxcidtcx8hz8wz.jpg
$ t! t; L0 o* {  U! U2 L' Q4 X4 @5 }
211829hetwed30fttzrspt.jpg # Z$ o7 t4 p. e( C5 l& t

* \' L* K- c9 |  T  L! c9 H 211829eizmhn2ngnmn7h3z.jpg
( k. v4 \, Z+ d1 `: Q
! j3 c% t+ W9 s; ` 211829wlpenldn35e5p6d3.jpg ( Y: h. p5 B% C! @& \

: B5 J: B8 u3 p; R 211829w3y3m8hsytd8ua3f.jpg
: R  M; Y( d; q  L# {0 T! P5 H
  G, x  ?# s, }5 E4 m& ~ 211829qqpd11dgq3afz4dd.jpg / G, C# F, w5 b+ L- u. n
2 a5 R, e: I( ]# L3 A( z% e; l
OLED 4K视频信息:% w* G" k3 K7 g4 ?
3 m& q2 ], d- _' i2 R; w
Complete name          : G:OLEDPhilips_OLED_PQ_HEVC_60p_40Mbps_SDR_BlackEnhanced.mp4  j/ V/ y/ V: f, ^6 h) d; W2 L
Format                         : MPEG-4
; s3 K0 P7 W) y) [Codec ID                      : mp42 (isom/mp42)$ ~* `5 V! @1 n! y7 ^
File size                         : 481 MiB
% ?6 U* [1 y3 W7 R  A; D9 h4 z, jOverall bit rate            : 38.8 Mbps
$ V1 d( p) o" B; ^9 ]Format                          : HEVC
% }6 J, N" d* w% h2 b: z/ kBit rate                          : 38.6 Mbps
. k- H! S* J8 w1 _Width                            : 3 840 pixels0 b, ~% M% {- Q! @3 ~4 B1 n, z
Height                           : 2 160 pixels
- z' h( v& r7 ]9 R+ ?Frame rate                     : 60.000 fps
0 G0 }: Y# c" E; \8 ZColor space                   : YUV
" G6 U* k6 U  ]$ nChroma subsampling   : 4:2:0
5 M2 _, Q: a1 J4 XBit depth                        : 10 bits
1 t6 s  o) g4 i0 ]% RStream size                    : 479 MiB (99%); _/ @. H2 K  K( q

% g* d3 K9 Y* {( f# N) X& M- ]# aAudio
: m- h4 L- i* ~- w" V' f. q+ wFormat                          : AAC
! f( T( L! p6 Q6 L9 R5 z% h3 ZDuration                       : 1mn 44s
' U2 Y6 O( V3 y" |Bit rate mode              : Variable
( }' N1 o9 n8 n+ m) a  uBit rate                          : 192 Kbps
# l7 G, o/ r2 X+ ^Maximum bit rate       : 360 Kbps
& \7 r/ R' U/ j% w! ^; G6 f( BChannel(s)                     : 2 channels
* O) X6 P( E! m  ^* E; OChannel positions        : Front: L R, m% g7 \* a& N/ K0 o4 i. P  U7 d+ n
Sampling rate              : 48.0 KHz0 S7 v5 E% ^; h7 V, g
Frame rate                    : 46.875 fps (1024 spf)

7 C5 [' B7 G* h6 GStream size                   : 2.35 MiB (0%)
( t. `, k8 `3 p, I+ \' v
飞利浦Philips OLED 4K视频演示片: y3 m* _; i* d* ]! m
飞利浦Philips OLED 4K视频演示片下载.txt (248 Bytes)
Clavicle 发表于 2017-12-7 17:21 | 显示全部楼层
前排顶,很好!
农家的孩子 发表于 2017-12-7 18:34 | 显示全部楼层
啥也不说了,感谢楼主在hao4k分享4k视频内容哇!
zzhan 发表于 2017-12-7 19:16 | 显示全部楼层
排顶,很好!
grave 发表于 2017-12-7 21:02 | 显示全部楼层
传说中的沙发???哇卡卡
cityuser 发表于 2017-12-7 21:53 来自 移动版  | 显示全部楼层
支持hao4k,支持楼主大人发布4k资源!
huangzhong 发表于 2017-12-7 22:13 | 显示全部楼层
啥也不说了,感谢楼主在hao4k分享4k视频内容哇!
xu_qi1979 发表于 2017-12-7 22:19 | 显示全部楼层
回的人少,我来小顶一下。支持hao4k发展
别恨我痴心 发表于 2017-12-7 23:37 | 显示全部楼层
楼主呀,,,您太有才了。。。
盈盈眉眼惜流年 发表于 2017-12-8 06:31 | 显示全部楼层
不错 支持下
石雲海涯 发表于 2017-12-8 07:59 | 显示全部楼层
感谢楼主在hao4k分享4k视频内容
健k4 发表于 2017-12-8 08:00 | 显示全部楼层
啥也不说了,感谢楼主在hao4k分享4k视频内容哇!
Yoke(羁绊) 发表于 2017-12-8 08:06 来自 移动版  | 显示全部楼层
不错 支持一个了
sdv123 发表于 2017-12-8 08:17 | 显示全部楼层
很快很快很快回来了
18175427 发表于 2017-12-8 08:24 | 显示全部楼层
啥也不说了,感谢楼主在hao4k分享4k视频内容哇!
lypamd 发表于 2017-12-8 22:25 | 显示全部楼层
啥也不说了,感谢楼主在hao4k分享4k视频内容哇!
zcj6283246 发表于 2017-12-9 00:16 | 显示全部楼层
感谢楼主在hao4k分享4k视频
811811 发表于 2017-12-9 17:57 | 显示全部楼层
6666kkkkkkk
您需要登录后才可以回帖 登录 | 立即注册

本版积分规则

返回顶部 联系我们