猜你喜欢

[4k模特美女] 2017上海维多利亚的秘密超模内衣秀

  [复制链接]
查看: 1373|回复: 148

123

主题

200

帖子

2646

K币

Rank: 9Rank: 9Rank: 9

威望
0
积分
398
lili 发表于 2017-12-7 17:48:25 | 显示全部楼层 |阅读模式
上次发过一次,说下载不了。满足广大用户需求再来一次。
) p: i# Y" V. d3 V* t4 a7 Y! Z1 J2017上海维多利亚的秘密超模内衣秀 全球美女超模 高码收藏版1080i/TS
! f) {  p) h* S; o4 A3 z& b 110321b487k827q728qc8p.jpg
2 L( S9 j* d& a
( F) }" a2 F6 P 110322a5k5yy582z5t5xy2.jpg   e2 ~: n1 W5 Y. h
* C7 w6 g1 L& X
110323atgenzrecchlsctk.jpg " Z4 r5 a: A6 C+ w8 G  g# x
+ U: a. M$ ~, k- ?3 m' Y
110323jd9wc02kqiyczwqd.jpg   _6 F- g' g' g9 l4 k* n" G3 w

  Y6 [/ ?# x* }% \$ N3 ^ 110323p9r694f241xfw69u.jpg
+ h: ~/ G! f) ^9 l
0 N6 h( l9 j7 G' u* g( f 110324pur6x6rm5oqhmo82.jpg ( r# ^* @4 Y9 i$ A5 a5 b; ]
3 [# ~% a( s6 B( [  e: ^
110325o29atwq5zi177aa1.jpg + t5 ^: b) t% [5 Z% K

2 O. _' Y* x; b& R7 Y 110325m9sca895b9898zz5.jpg , [% y5 V3 h6 Z; {
! }* f3 {' U" b, r" W
110326xrbjqqq74y7ia4qd.jpg
5 S- @! T5 E  _' W$ j3 C7 z/ s. X7 C: L# J. Z+ I2 x  S9 N1 h
110326k4y42jzvgn4g4428.jpg ' i1 M6 X! H/ K" ?- v
% M9 G! P# p% A. p
110326v9g7cblwz52867c0.jpg
: M- r" r3 h1 R1 k& ?4 @
4 `' r$ W/ ^+ i$ o 110326eatzg637htni6am6.jpg ' |1 L2 g; z0 V9 ?
, d. @7 t8 c* O5 o, n, W# N! l8 D
110327qfnhyhi449k94kfo.jpg
1 M* o% ^4 W. d. }- A: Q& o3 ]) S  R4 V6 K
110327uydspagz80lyzt30.jpg
6 g) w" C; ]4 x' [: y( t- G: u 110328bttg5gwzqjhxo299.jpg 5 B) K+ {9 M0 k$ J2 k4 o. D2 w
& N# t. B0 X! o
110328paswhkyzllpywmwx.jpg
5 Q& N: |- F3 P; d$ ?6 L. f4 P+ f& [, q$ F
110328l13roo381qozqqoy.jpg
* r  h6 c& B% s  k, ?+ s, P- n( _

; `6 {3 t' F" }: n: ~) f; I6 o- D 141506lpitt9i8ttxtjkix.jpg ( p- M+ Q. n+ G. W4 m, o) f; {
6 ~4 g) ^& ~0 f! T. A: y2 e( m7 O
210929d1vu51y1n00cnbug.jpg
6 o1 Z/ t1 b/ u7 X6 A/ ^' {: B2 k4 B5 S9 R: e  p5 ^) r6 }+ Z+ I
210941a54khkwqw9t9eu4b.jpg : T5 E0 d, U' Z) g/ t
+ r# H5 v  S3 o+ B2 C+ }
210948xkfg6gcrgfk38bou.jpg " `0 r; U# Q9 z
/ c5 N1 q6 s* I* z# P2 K' ^
210957dkzwmmle79pp9eqm.jpg # L; B0 q5 [$ y8 e

% W. ^" h" d2 ^, j5 s. b 211004ssjrqjwm9j9ttgdl.jpg

0 p7 _5 G8 D7 x2 j/ p  Q
1080i普通版视频参数(60fps DTS 5.1)
General
) O3 M7 z. ]$ P' eUnique ID : 198278693116789408771285385503491589211 (0x952B1655690FA7BEB0FEB95BFDD5845B)9 \" P- ?6 d/ q" g7 F: c! y
Complete name : The.Victoria.Secret.Fashion.Show.2017.1080i.HDTV.DTS-HD.MA5.1.H264-ALANiS.mkv
- o- Q  b3 g/ M: I+ ~Format : Matroska
6 ~7 m* a, Q+ M4 LFormat version : Version 4 / Version 2
; X7 f9 L  C/ I6 c6 ?7 x! @5 RFile size : 5.20 GiB+ ], ^7 T" @$ U: Q7 Q7 |
Duration : 42 min 29 s/ u+ R7 M* h5 J, u
Overall bit rate : 17.5 Mbps
4 R* w5 C) J9 i( m& F& SEncoded date : UTC 2017-11-29 04:50:41% X9 N# E. W1 T  m1 f
Writing application : mkvmerge v18.0.0 ('Apricity') 64-bit+ T+ a6 a" k2 \# K4 M1 q
Writing library : libebml v1.3.5 + libmatroska v1.4.8
5 O1 [, C6 B" z$ @: u
+ }( y$ m2 Y: M; i9 w& ?+ AVideo5 c8 g7 d! V: r2 U, ~
ID : 1
6 n; s+ K4 b8 y% B- o2 E* uFormat : AVC
8 a) {+ n9 [0 U- i9 WFormat/Info : Advanced Video Codec6 o8 L! u& J5 i! {' |8 K, A
Format profile : High 4:2:2@L4.19 Y$ q; m$ U  ~9 f$ f* ~
Format settings : CABAC / 2 Ref Frames+ z! j. y! O* \
Format settings, CABAC : Yes
% l. A$ q$ x, FFormat settings, RefFrames : 2 frames
" q, B) z" A4 M8 ]: b0 f" g! S! kCodec ID : V_MPEG4/ISO/AVC
/ l! i$ [4 o7 V! M$ VDuration : 42 min 29 s
7 @8 q" I- N4 A4 E4 vBit rate mode : Constant1 C4 Z' Y+ J% o% M' y3 u
Bit rate : 13.5 Mbps
* k8 K( d  [# x0 i# E. t6 BNominal bit rate : 15.2 Mbps
) d; s8 \' y, [( y3 e) I" p+ xWidth : 1920 pixels
& E" I; Z% p7 m! m& F6 G/ `8 OHeight : 1080 pixels
$ n2 Y; w+ k: N( Y# v8 {! iDisplay aspect ratio : 16:9
* B! g, C  W* P" T0 {& x# TFrame rate mode : Variable
# o4 Z7 ?& b2 m' D( R* L6 @Frame rate : 59.940 (60000/1001) FPS
7 N1 G% R; O" T& F9 ZOriginal frame rate : 29.970 (30000/1001) FPS
2 u7 Z" v  O- o6 D  c+ E, pColor space : YUV3 u3 r1 u0 W5 R! i+ o/ U
Chroma subsampling : 4:2:2, U/ {, |/ o. g) T8 v3 D. z
Bit depth : 8 bits
8 W& u' C4 ]# O. [6 RScan type : Interlaced
# y- Q1 J+ u8 e8 V- q3 pScan type, store method : Separated fields
, `1 M* \/ b& Q/ [! g8 S/ }Scan order : Top Field First
0 ^% l4 s  H1 F1 R. LBits/(Pixel*Frame) : 0.1091 e9 a# A8 I$ }0 R! D( B$ K7 w
Stream size : 4.00 GiB (77%)) z7 F" z: ]3 v2 W" c
Default : Yes. g. \; H( c: w( @3 ^9 J! s: T
Forced : No
, d0 T$ f; T& Q' `/ ]$ z6 M2 ~0 ^
5 Z0 B  a! X! o! o$ d& B" vAudio #1
  o1 E0 T1 n+ I; ?6 p: KID : 2, M( H0 F6 p. S+ T/ b5 o
Format : DTS
/ K, `/ \" M3 e8 ^# ]+ s+ rFormat/Info : Digital Theater Systems
% |% Z: A0 Z0 hFormat profile : MA / Core; k4 v# |: Q: S' g; E
Mode : 16( {5 d- \, K8 H9 |5 g" C. a
Format settings, Endianness : Big
3 {2 j6 |/ g7 n( e8 d" CCodec ID : A_DTS- f' }) Q( o5 d5 z1 X
Duration : 42 min 29 s
( J3 B* u) |. O7 V  }  pBit rate mode : Variable / Constant
2 S* f: x7 x8 @+ \% S, H/ B: Z- KBit rate : 3840 kbps / 1509 kbps
- r8 t3 G; A- b. I5 W2 z& pChannel(s) : 6 channels
) C0 T' R5 @% a! O4 c- dChannel positions : Front: L C R, Side: L R, LFE
2 l; r3 {: _7 X: ^: W$ G7 VSampling rate : 48.0 kHz
% d4 I# w1 X: S' `Frame rate : 93.750 FPS (512 SPF)6 Q( J$ @9 d  a/ H) s# `
Bit depth : 24 bits
# p. Y* P0 Z2 z# ?3 L9 [3 lCompression mode : Lossless / Lossy( W: v+ f4 g' q3 V9 C
Stream size : 1.12 GiB (22%)
/ v& p5 Z+ R, f$ t" b! {0 s1 Z) ALanguage : English0 n# U4 s+ ]6 r8 S& S" C( g
Default : Yes
6 a4 T6 l, }& tForced : No+ n( {( o' v" m. A
7 X# \9 P' N' t" U. L6 ]# {
Audio #2
/ J1 N  u1 L; WID : 3
% d6 |1 _7 T9 S* c2 a' J. gFormat : MPEG Audio
* I5 x! P1 E8 z5 }Format version : Version 1
* y9 o4 m) @0 J& j: R8 _Format profile : Layer 2
. ~6 e0 l9 k- j6 B3 nCodec ID : A_MPEG/L2( z1 ]6 i& ~# z! E* y6 ?3 g
Codec ID/Hint : MP2+ S; {' Q  ]! ]/ C/ n) C
Duration : 42 min 29 s
: D$ _& g/ p* O6 G+ sBit rate mode : Constant
8 {% k' O' K- UBit rate : 256 kbps# M. w0 u3 |$ V" W( e8 H
Channel(s) : 2 channels
) J5 v; f& I" j3 c# |Sampling rate : 48.0 kHz
+ j7 S6 O' ]/ Z% N- m2 e4 U% z; o1 AFrame rate : 41.667 FPS (1152 SPF)
4 P( L* `% f! e9 f! BCompression mode : Lossy
8 ~$ ^0 O8 ~* ]$ Y9 R4 W2 D) YStream size : 77.8 MiB (1%)' Y$ A1 Q: D7 _, O
Language : English' q: Z/ g: t( x* m
Default : No
" {: C# k, Y  |5 ]' z( }Forced : No
% p$ N4 u- F: F/ _0 X% ]* n
2017上海维多利亚的秘密超模内衣秀1080i普通版先睹为快(5.2GB)
回复即可下载连接:
游客,如果您要查看本帖隐藏内容请回复
5 T+ Z' u/ P% V& U  t/ |" n
8 h5 g7 U' M# v" u0 W$ x& Z% J
$ g9 W% u: L/ T1 h6 A9 ?

0

主题

1

帖子

0

K币

Rank: 1

威望
0
积分
1
注定沧桑 发表于 2017-12-7 18:12:32 | 显示全部楼层
报告!别开枪,我就是路过来看看的。。。

0

主题

1

帖子

0

K币

Rank: 1

威望
0
积分
1
一生足矣 发表于 2017-12-7 18:47:13 | 显示全部楼层
传说中的沙发???哇卡卡

0

主题

18

帖子

11

K币

Rank: 1

威望
0
积分
23
激情燃烧 发表于 2017-12-7 19:37:55 | 显示全部楼层
传说中的沙发???哇卡卡

0

主题

20

帖子

1

K币

Rank: 1

威望
0
积分
22
cqzzcn 发表于 2017-12-7 19:44:19 | 显示全部楼层
支持hao4k,支持楼主大人发布4k资源!

0

主题

43

帖子

4

K币

Rank: 1

威望
0
积分
52
无影雪莲 发表于 2017-12-7 19:58:04 | 显示全部楼层
啥也不说了,感谢楼主在hao4k分享4k视频内容哇!

0

主题

59

帖子

8

K币

Rank: 1

威望
0
积分
107
renleix 发表于 2017-12-7 20:41:25 | 显示全部楼层
支持楼主大人发布4k资源!

1

主题

396

帖子

82

K币

Rank: 2

威望
0
积分
504
绵阳伊缘圆 发表于 2017-12-7 21:18:25 | 显示全部楼层
支持hao4k,支持楼主大人发布4k资源!

0

主题

11

帖子

2

K币

Rank: 1

威望
0
积分
19
ericvsl 发表于 2017-12-7 21:22:14 | 显示全部楼层
偷偷过来支持一下~~~

0

主题

11

帖子

2

K币

Rank: 1

威望
0
积分
19
ericvsl 发表于 2017-12-7 21:22:48 | 显示全部楼层
偷偷过来支持一下~~~
您需要登录后才可以回帖 登录 | 立即注册

本版积分规则

Copyright   ©2015-2016  hao4k  Powered by©Discuz!