查看 39515回复 1109

[4k模特美女] 2017上海维多利亚的秘密超模内衣秀

  [复制链接]
lili 发表于 2017-12-7 17:48 | 显示全部楼层 |阅读模式
上次发过一次,说下载不了。满足广大用户需求再来一次。3 R1 O2 G8 U/ W/ _3 I4 W* R
2017上海维多利亚的秘密超模内衣秀 全球美女超模 高码收藏版1080i/TS, `1 R: `+ q( V+ F* l4 `+ j- n8 }
110321b487k827q728qc8p.jpg
* ?; f% g/ p4 w" X" r$ q
9 p( b- i9 {, _' C/ x1 Z4 W8 l 110322a5k5yy582z5t5xy2.jpg
) K9 W+ r+ {0 I9 W7 }: d$ R
) l1 U' r( R! s  |* G7 n! S 110323atgenzrecchlsctk.jpg
% F$ N% y9 n/ G' L- Z
+ M$ F% U9 ?$ n1 k 110323jd9wc02kqiyczwqd.jpg : F+ p0 n; n( x  P) h& W

5 w& ~/ o0 L+ ] 110323p9r694f241xfw69u.jpg
# M( o7 o9 ~8 M' d, j1 T7 f) p- Y7 `% _% }) w7 u
110324pur6x6rm5oqhmo82.jpg ; g. L9 }! Z! _& F
5 @$ I# F+ J8 t' c2 O+ S6 i
110325o29atwq5zi177aa1.jpg & Y" e" [3 i/ {- D# ?" A

+ G. V" c* m. w% {; R2 ^ 110325m9sca895b9898zz5.jpg $ }1 \8 Z2 D! N8 l% p& z

2 |9 J: }" i7 h' q4 l" r 110326xrbjqqq74y7ia4qd.jpg - P" f9 [8 B+ T  L
" D( L  Y( I, L3 G* o& ?
110326k4y42jzvgn4g4428.jpg
6 Y1 D$ T7 J* B7 f- c+ ]& T, X( x6 x" B: O3 h
110326v9g7cblwz52867c0.jpg
2 ^6 f) u, H: c: `1 F8 h3 Q! s) S" ?
110326eatzg637htni6am6.jpg $ P3 |! P  Z* J3 G. v9 G; f

' S. j' {9 F" @: z8 _+ x 110327qfnhyhi449k94kfo.jpg
2 q. U( l7 P0 |" f! ~/ z
4 ^; B$ U' Z7 t  o 110327uydspagz80lyzt30.jpg   C# {3 {. \5 ?1 q- C! a% d( P/ M
110328bttg5gwzqjhxo299.jpg   a( P/ m# l# W$ [9 `% A
( Y2 u7 h4 N$ e5 E# `  a3 _" v
110328paswhkyzllpywmwx.jpg
) N6 x6 j6 R- P9 S7 i1 A$ u3 W- c/ F/ C0 T; y6 O
110328l13roo381qozqqoy.jpg
* M6 O6 z( ^; n
9 m8 P9 ]2 x$ n- \; z
+ f2 d  [# r  k4 J 141506lpitt9i8ttxtjkix.jpg : Q6 {8 P# C: @) n
* r, D# e0 r) }6 e; L& u) H( J
210929d1vu51y1n00cnbug.jpg
) c3 Q2 ]- E: ?' S
4 O( [2 l- O9 ^ 210941a54khkwqw9t9eu4b.jpg
3 H! q0 T: z" z& r7 j3 y, w$ K1 Z6 T+ I$ g/ |
210948xkfg6gcrgfk38bou.jpg 5 s( j; Z" T) t1 H. D3 W$ _

" C$ X4 O6 L# j+ n: _ 210957dkzwmmle79pp9eqm.jpg ( @  X4 J* R. l
" m, j  R( F* p) L' n( m9 {# m5 I
211004ssjrqjwm9j9ttgdl.jpg

/ f" O8 j% d4 W# G4 \
1080i普通版视频参数(60fps DTS 5.1)
General; A& I  |2 p1 K: r3 D+ x6 c
Unique ID : 198278693116789408771285385503491589211 (0x952B1655690FA7BEB0FEB95BFDD5845B)6 u5 F; R( x+ A* K7 |" B/ [0 w
Complete name : The.Victoria.Secret.Fashion.Show.2017.1080i.HDTV.DTS-HD.MA5.1.H264-ALANiS.mkv
4 ?1 ~$ @& K$ K; VFormat : Matroska
8 B; T- a, m/ B. TFormat version : Version 4 / Version 27 l( o3 x5 M. f& h
File size : 5.20 GiB
, Z% y' u5 \3 X; b! W+ x# Y7 ~Duration : 42 min 29 s
; c0 K+ T$ W# \5 x) sOverall bit rate : 17.5 Mbps
' R2 Z: M# u/ N8 w; t8 X! T( T' TEncoded date : UTC 2017-11-29 04:50:41
' T3 j% P& V, tWriting application : mkvmerge v18.0.0 ('Apricity') 64-bit  U" |& Q! z" B
Writing library : libebml v1.3.5 + libmatroska v1.4.8
, Z! E$ ~4 S6 `0 w# y( |$ \% ~. Y( c: D
0 s- G  [; _  |Video
) Z8 i+ d* K' G: W0 H6 J2 S% p: g1 hID : 1
3 A$ P$ K$ X, J# G* }' YFormat : AVC3 m4 i$ ^; A* t9 l6 q! p9 l
Format/Info : Advanced Video Codec% g8 a: }0 c4 y/ p1 b) x& U/ c
Format profile : High 4:2:2@L4.1
) H" E  `9 F2 W0 h3 RFormat settings : CABAC / 2 Ref Frames
6 S- A$ w! S% j/ Q; V- d# ^6 v4 KFormat settings, CABAC : Yes
" `7 x* m( f& W% e( QFormat settings, RefFrames : 2 frames
% O' K7 @, V. B5 Q7 d; }. B3 e' HCodec ID : V_MPEG4/ISO/AVC# N$ J+ Y7 N3 g
Duration : 42 min 29 s
: X4 w- {5 G8 yBit rate mode : Constant
$ N- V% z5 }# F( C- ~/ Z) \Bit rate : 13.5 Mbps6 _: j5 g" l" O- G; a- r5 k
Nominal bit rate : 15.2 Mbps8 Y. d4 ~6 A' O3 X
Width : 1920 pixels
* {/ o$ U! u  R2 g; H; EHeight : 1080 pixels
: L& |3 F4 ~( W4 F$ M6 a2 V6 xDisplay aspect ratio : 16:9: u7 o+ K, e& A9 @3 Y
Frame rate mode : Variable
5 _- U3 \+ V0 O0 M8 QFrame rate : 59.940 (60000/1001) FPS( l  n, |( u! S
Original frame rate : 29.970 (30000/1001) FPS' [4 o' b% B  `: k8 O
Color space : YUV2 n* X1 s5 ^: P" f( p
Chroma subsampling : 4:2:2
4 f# K3 G& Q+ w: n. S! L8 ]1 kBit depth : 8 bits
' v: d( L0 q3 h2 r% u  d3 \Scan type : Interlaced  g4 f# U. y6 f
Scan type, store method : Separated fields
/ H( h( z; Q; b# M) P/ ^Scan order : Top Field First% Q% Z1 C3 ?3 D" e6 s4 D
Bits/(Pixel*Frame) : 0.109
0 n  o' Y$ t1 j) P; }, [, nStream size : 4.00 GiB (77%)! t+ {9 ]" y* M$ M- X+ g) m
Default : Yes7 ^2 U! Y0 w+ |" K, ~# f; M, ]* p
Forced : No5 D  l; M1 h% V8 t
4 k$ U0 R1 f8 V$ n0 E
Audio #1
4 n. c) j' h- v# uID : 20 Z; q! B* C. [
Format : DTS0 i% e, S$ X, Z5 X# ?5 @8 ?
Format/Info : Digital Theater Systems5 G6 n3 ~  L3 t" h9 y9 }
Format profile : MA / Core
8 c1 p# W  c- h! F8 _Mode : 16
) ~( f$ f) c1 T$ l& {Format settings, Endianness : Big% {- a4 ^; k/ C' W  O" H
Codec ID : A_DTS- |4 }" G. Q5 C& j, s  _7 c' i5 D
Duration : 42 min 29 s" _# ?6 O; L7 L: H  v8 d& c
Bit rate mode : Variable / Constant# J! `3 X% c/ X/ S/ Z: B4 M
Bit rate : 3840 kbps / 1509 kbps: k# t, `8 U1 A! v; C  w% q& t' i
Channel(s) : 6 channels
8 b& S3 b3 ]  T& t% nChannel positions : Front: L C R, Side: L R, LFE
3 ?; E) U6 S# I9 P3 FSampling rate : 48.0 kHz$ ]( E& L1 N  S9 s% B
Frame rate : 93.750 FPS (512 SPF)
  W8 z( s4 f& S; EBit depth : 24 bits
1 z! v' D' I! T+ a' X  hCompression mode : Lossless / Lossy
4 M+ S# O  s' {) K  mStream size : 1.12 GiB (22%)
/ T5 s& x% K* i# S' ]( LLanguage : English4 L4 o9 J3 z5 T: T8 x3 N% v
Default : Yes
% Y) E) B, U" O  N" j; p8 iForced : No
+ {% |# i$ ^. O* ?$ k, b
4 u; c+ ?. A" Y5 R! VAudio #2
. n' P* }& k& h" TID : 3+ m9 T" M+ X) l6 j% d: D# }
Format : MPEG Audio3 g0 ]. o+ R! @" \' Y) [$ x
Format version : Version 19 r" }' Y! i  G
Format profile : Layer 2
$ T: Z  w% o7 j2 e8 Q5 YCodec ID : A_MPEG/L2* n2 k3 L1 R7 n- a: B; L
Codec ID/Hint : MP20 U  m& j. @: q- G4 j7 ~
Duration : 42 min 29 s; d1 X# g  g- K
Bit rate mode : Constant! n( M; x% W' [' H& S% |& w; t
Bit rate : 256 kbps
$ h# L* L5 T  g& {& H/ n% eChannel(s) : 2 channels
1 P4 f5 {" }, D: s/ E. N' FSampling rate : 48.0 kHz5 X  k7 K  u6 ^6 b) ]) e
Frame rate : 41.667 FPS (1152 SPF)
# \4 i( ?. E7 ~Compression mode : Lossy  @3 W9 @% J3 b& D
Stream size : 77.8 MiB (1%)
2 F( P+ h/ y1 {, M2 o9 \( eLanguage : English- F2 J& g" U( Y8 s0 `
Default : No
/ ?$ x# [$ @! r2 [/ pForced : No
+ P" e2 _* l4 u, x
2017上海维多利亚的秘密超模内衣秀1080i普通版先睹为快(5.2GB)
下载连接:
2017上海维多利亚的秘密超模内衣秀1080i普通版先睹为快(5.2GB).txt (273 Bytes| 资源售价: 4 K币)

. L0 v8 a/ \8 s8 J3 T4 G! Y
" P! ^; x! ~. L" j" f8 p- p
" O+ u- o8 f' k, b+ v3 A$ y' K
kimzhao19 发表于 2018-9-4 19:52 | 显示全部楼层
用我的投影看了 效果会不错
kimzhao19 发表于 2018-9-4 19:50 | 显示全部楼层
感谢分享了 收藏一下
123lll 发表于 2018-8-29 19:31 | 显示全部楼层
支持Hao4k发展
jinxinzl 发表于 2018-8-27 16:56 | 显示全部楼层
2017上海维多利亚的秘密超模内衣秀 ,喜欢!
15266347908 发表于 2018-8-27 15:39 | 显示全部楼层
无奈,我还没有4K显示器。
Yueh465 发表于 2018-8-23 12:56 | 显示全部楼层
由衷感谢Hao4k平台提供4K资源,可以试试我家的私人影院了。
isscwli 发表于 2018-8-22 06:46 | 显示全部楼层
由衷感谢Hao4k平台提供4K资源,可以试试我家的私人影院了。
cosyhuajia 发表于 2018-8-20 00:47 | 显示全部楼层
感谢楼主分享 4K的太棒了
. E2 r! M% Y" Q7 h/ r, k
jywc456 发表于 2018-8-19 23:30 | 显示全部楼层
感谢楼主分享。
xuefangchao1 发表于 2018-8-19 20:17 | 显示全部楼层
看看效果,希望可以有良好的体验
滇中鹰 发表于 2018-8-18 21:37 | 显示全部楼层
支持Hao4k发展
jerryhu5000 发表于 2018-8-15 00:25 | 显示全部楼层
由衷感谢Hao4k平台提供4K资源,可以试试我家的私人影院了。
  n7 C9 x8 f* `6 k但是穿這樣怎麼睡呢????
neversnow 发表于 2018-8-12 16:28 | 显示全部楼层
支持Hao4k发展
小武哥 发表于 2018-8-11 21:32 | 显示全部楼层
希望我的手机能播放
t天行盗 发表于 2018-8-11 12:36 | 显示全部楼层
感谢分享,下饭视频啊 哈哈哈
PANYP 发表于 2018-8-10 17:12 | 显示全部楼层
由衷感谢Hao4k平台提供4K资源,可以试试我家的私人影院了。
莎木ii 发表于 2018-8-10 14:54 | 显示全部楼层
pmy8pmy8pmy8pmy8pmy8
一个人的江湖 发表于 2018-8-10 12:42 | 显示全部楼层
由衷感谢Hao4k平台提供4K资源,可以试试我家的私人影院了。
您需要登录后才可以回帖 登录 | 立即注册

本版积分规则

返回顶部 联系我们