查看 36543回复 1054

[4k模特美女] 2017上海维多利亚的秘密超模内衣秀

  [复制链接]
发表于 2017-12-7 17:48 | 显示全部楼层 |阅读模式
上次发过一次,说下载不了。满足广大用户需求再来一次。
* R& f3 j. k: R+ x' p/ I# ^2017上海维多利亚的秘密超模内衣秀 全球美女超模 高码收藏版1080i/TS, y9 G+ D# F- f) `' e0 S+ J
110321b487k827q728qc8p.jpg
& D$ G& k% Q# y1 |' Y* V  g6 p2 q- d
110322a5k5yy582z5t5xy2.jpg , Y) [7 t2 C2 E

( s9 V/ c8 X- w+ J2 S) u- I 110323atgenzrecchlsctk.jpg
/ l# L/ {  c3 M* a- v2 K( Z* s4 S& \8 I; V; m# K
110323jd9wc02kqiyczwqd.jpg ; R6 A; ^4 B/ p# R+ q" p9 G7 H: [

3 s3 O- z! n' x$ Y, _! G 110323p9r694f241xfw69u.jpg
5 A8 }0 v. G# w( S# W- h% }$ p1 n6 g
110324pur6x6rm5oqhmo82.jpg
8 n' S* b" B& g( h* {: w1 L1 n) {' y$ c, _! R2 H1 N
110325o29atwq5zi177aa1.jpg - i+ m( ]. F; J# u

* M% J' F* g  R 110325m9sca895b9898zz5.jpg 9 X- O' {. F; v

1 |" J5 I; v# w1 W* n# C 110326xrbjqqq74y7ia4qd.jpg
  k7 `4 y% U8 L" T! m
6 a+ n* K% |$ |9 ]+ J4 v 110326k4y42jzvgn4g4428.jpg ( U  p$ S+ p7 Z4 g/ v" i7 W" J
' i' Y6 P& ~! i( p5 \& N; L" |7 t
110326v9g7cblwz52867c0.jpg 6 I. k$ T2 E( [# h* U* M7 r

. f" P% D8 N2 ^# b) N8 L 110326eatzg637htni6am6.jpg # X0 a+ e7 g! |2 J+ e7 V# h

1 m2 @  O8 {8 P" ^' a7 v 110327qfnhyhi449k94kfo.jpg
6 k) v% p2 C" |; X/ z5 `
( p& B8 ~1 z8 x: ^# A$ `- [ 110327uydspagz80lyzt30.jpg 9 L5 j8 v, E5 p* B1 h
110328bttg5gwzqjhxo299.jpg
0 x5 P8 n, q( l* R
2 S  r6 r0 N  ~ 110328paswhkyzllpywmwx.jpg
7 d. _0 R- C2 [6 x9 @3 }7 ~4 u" h* [* E9 H  r0 @1 b$ A$ b
110328l13roo381qozqqoy.jpg
6 |% t0 j$ L3 @7 ?. Z, f4 r; W* g, S( v
! B0 I# I0 j; c; N+ t
141506lpitt9i8ttxtjkix.jpg
4 ~; x- n) r2 O7 X% E$ ~8 V4 p
; V3 W, W4 g" ]& W4 h. `
210929d1vu51y1n00cnbug.jpg & i  i! c  s5 a! a
& @. a( e# X0 \" B+ C' r0 V; j
210941a54khkwqw9t9eu4b.jpg 5 H7 @9 u& [  b
3 d9 a; z5 Z; x, B: S
210948xkfg6gcrgfk38bou.jpg
7 p6 N# w" e9 z5 r. u6 Q$ ]. `0 t/ n' h" J* I$ s
210957dkzwmmle79pp9eqm.jpg ( n9 T5 M2 V  J- U
4 ?6 W5 M! k7 e3 B! T' y# s
211004ssjrqjwm9j9ttgdl.jpg
. B9 y0 V/ M* Y/ b
1080i普通版视频参数(60fps DTS 5.1)
General
+ f- C. D1 b' _# l# TUnique ID : 198278693116789408771285385503491589211 (0x952B1655690FA7BEB0FEB95BFDD5845B)
( S) l& T) b7 }$ oComplete name : The.Victoria.Secret.Fashion.Show.2017.1080i.HDTV.DTS-HD.MA5.1.H264-ALANiS.mkv
% m9 F/ ]2 i, C( H  a& [/ GFormat : Matroska
9 i2 P/ Q5 U! T# O& xFormat version : Version 4 / Version 2
6 f% i: n0 n) cFile size : 5.20 GiB
- i* w7 X4 O+ k: v' YDuration : 42 min 29 s* O$ }$ O( e/ K- {5 a" }0 o
Overall bit rate : 17.5 Mbps
( o- D- d3 |, ^' m, i2 FEncoded date : UTC 2017-11-29 04:50:41
8 a% V, C. e# f  v" J" NWriting application : mkvmerge v18.0.0 ('Apricity') 64-bit) b4 ~9 R0 B3 M! r
Writing library : libebml v1.3.5 + libmatroska v1.4.8
: l4 \0 ?- w5 h& R
  [: k; B! o! UVideo
- f3 u3 E7 [3 Q+ ^8 z, DID : 1
( j2 @  \' m) ~' G0 EFormat : AVC% o. B- A9 j4 q0 p! }* Y- T7 J
Format/Info : Advanced Video Codec, L( a9 p  a) ?2 J  R, _6 s# `+ n
Format profile : High 4:2:2@L4.13 X6 E8 L* C  z3 k& X
Format settings : CABAC / 2 Ref Frames% m; ~9 z; }7 B, \6 i$ u
Format settings, CABAC : Yes
; y3 s5 q7 q) EFormat settings, RefFrames : 2 frames# e7 _6 x7 r+ i1 V* |. N8 X
Codec ID : V_MPEG4/ISO/AVC
3 Q9 R4 @! G) O3 |+ _. U$ rDuration : 42 min 29 s! [0 v" I6 R, {% i+ D( G" ^( n; e( D+ y( H
Bit rate mode : Constant4 C/ @9 l% f9 |( ]0 z2 t4 b
Bit rate : 13.5 Mbps. V) C& a) q1 T+ h/ b
Nominal bit rate : 15.2 Mbps
$ O# h& b  E! C- pWidth : 1920 pixels
7 {; J- y9 J6 SHeight : 1080 pixels
: V) {* V* y5 ]2 F% V- k; |Display aspect ratio : 16:9
3 B" A1 ]4 [' I3 \! M. ^5 T8 g% o0 BFrame rate mode : Variable6 t7 {) `& U9 v/ U9 j* G4 h
Frame rate : 59.940 (60000/1001) FPS
' b9 M: |; l" j, x9 ?; t$ wOriginal frame rate : 29.970 (30000/1001) FPS' t( x" t1 P' }
Color space : YUV8 r% g2 I6 ^- y$ b& z
Chroma subsampling : 4:2:2/ i7 I) i: ]0 k3 y$ z
Bit depth : 8 bits
9 c. ~' h9 ~+ {& _" wScan type : Interlaced
' w6 Y% w/ S' E) x* S' vScan type, store method : Separated fields
$ f, k. j; t  o$ e1 m! uScan order : Top Field First+ b5 e4 `  y4 Y0 M; t
Bits/(Pixel*Frame) : 0.109% u. i: Q; Z1 @2 Q9 G& R
Stream size : 4.00 GiB (77%)
7 d6 l% k9 d; h- k5 h+ ^Default : Yes- }) R" v1 F" f* X
Forced : No
# d+ i( G- I$ j- s/ z! g8 ^1 Q) x* F" x3 }% y' F# M  l
Audio #1
7 c+ w8 c+ t3 H+ q1 p' R1 `ID : 2, A" a4 n: s9 L3 x: A
Format : DTS* C5 Q  }, c1 M/ y, w" _' M
Format/Info : Digital Theater Systems
7 l# M8 W, F# q& R$ A! z4 b$ c* lFormat profile : MA / Core4 V- f0 L5 d) n! |2 t
Mode : 16
, h0 x, j8 D3 {; v/ fFormat settings, Endianness : Big
( R3 ~/ }7 W1 f, L9 cCodec ID : A_DTS
9 \; e+ R8 S# H+ o# N+ _Duration : 42 min 29 s7 H4 J! r9 h- g. N7 |) ~
Bit rate mode : Variable / Constant* P: G. z- }# e, j. n0 H
Bit rate : 3840 kbps / 1509 kbps
' j" X. P/ m- B9 _Channel(s) : 6 channels
8 j% z+ n" o# c2 dChannel positions : Front: L C R, Side: L R, LFE
1 C. r/ u) J2 K5 u0 |Sampling rate : 48.0 kHz" u- p" y  p7 I5 ~8 F# c5 r/ Z) F
Frame rate : 93.750 FPS (512 SPF)
2 z  j  y7 @1 L" ]+ v. tBit depth : 24 bits- A# E9 l5 ]3 B' S! Y% F3 c
Compression mode : Lossless / Lossy7 m) d5 x3 k* d, [; B
Stream size : 1.12 GiB (22%)- S4 `, x+ `2 o& u+ ~
Language : English% l$ B$ C5 ]8 v6 e, L+ n  w
Default : Yes
7 M+ H3 ^" n" J! R  I6 ?Forced : No- h* ^8 c1 n' Y/ v' Y, [
; ]& _/ ?6 p2 d  g
Audio #2
# u( s% A7 y# dID : 3
: U2 t, x6 ^( J( \Format : MPEG Audio! n  J. ~2 Q% r1 u% ~8 n2 F
Format version : Version 1* l% B5 p4 [: t9 d
Format profile : Layer 2
7 D( ]3 _' T/ c2 [* k/ ]Codec ID : A_MPEG/L2
7 c8 b! S2 {" |# e# O% UCodec ID/Hint : MP25 ]: v' E' t- u  P  n- W! }# c
Duration : 42 min 29 s
+ V! [4 h% [9 k  @9 ?3 }Bit rate mode : Constant2 U, ]4 Y2 Q2 ~8 D( Q
Bit rate : 256 kbps
3 h- f1 h  X% N3 h) Z/ h- \Channel(s) : 2 channels
/ F( y7 t8 N( @( z" ZSampling rate : 48.0 kHz
3 V$ L1 g6 k, }8 oFrame rate : 41.667 FPS (1152 SPF)
  s' ?. ?  O0 Z6 h+ UCompression mode : Lossy* Y; [+ @9 l: V5 {. F* ?2 s% j9 ?
Stream size : 77.8 MiB (1%)
. L$ w, i. W' W+ \% A' e* {Language : English; L$ e0 X7 b; B$ F7 t' p# I7 [) `: s
Default : No
: p( Y; z, \+ q4 BForced : No

/ h) q; u, \: ]0 @/ G
2017上海维多利亚的秘密超模内衣秀1080i普通版先睹为快(5.2GB)
回复即可下载连接:
游客,如果您要查看本帖隐藏内容请回复
9 P8 o6 Z, V1 ^$ F1 `6 V8 t: E+ y

) d6 L+ \( s; l2 w0 z7 q0 |/ ?, n; f
发表于 2017-12-7 18:12 | 显示全部楼层
报告!别开枪,我就是路过来看看的。。。
发表于 2017-12-7 18:47 | 显示全部楼层
发表于 2017-12-7 19:37 | 显示全部楼层
传说中的沙发???哇卡卡
发表于 2017-12-7 19:44 | 显示全部楼层
支持hao4k,支持楼主大人发布4k资源!
发表于 2017-12-7 19:58 | 显示全部楼层
啥也不说了,感谢楼主在hao4k分享4k视频内容哇!
发表于 2017-12-7 20:41 | 显示全部楼层
支持楼主大人发布4k资源!
发表于 2017-12-7 21:18 | 显示全部楼层
支持hao4k,支持楼主大人发布4k资源!
发表于 2017-12-7 21:22 | 显示全部楼层
偷偷过来支持一下~~~
发表于 2017-12-7 21:22 | 显示全部楼层
偷偷过来支持一下~~~
发表于 2017-12-7 21:52 来自 移动版  | 显示全部楼层
啥也不说了,感谢楼主在hao4k分享哇!
发表于 2017-12-7 22:08 | 显示全部楼层
啥也不说了,感谢楼主在hao4k分享4k视频内容哇!
发表于 2017-12-8 02:51 来自 移动版  | 显示全部楼层
不错 支持一个了
发表于 2017-12-8 08:39 | 显示全部楼层
前排,哇咔咔
发表于 2017-12-8 10:03 | 显示全部楼层
支持hao4k,支持楼主大人发布4k资源!
发表于 2017-12-8 10:12 | 显示全部楼层
啥也不说了,感谢楼主在hao4k分享4k视频内容哇!
发表于 2017-12-8 11:06 | 显示全部楼层
感谢楼主分享。
发表于 2017-12-8 11:28 | 显示全部楼层
佩服佩服!
您需要登录后才可以回帖 登录 | 立即注册

本版积分规则

关闭

站长通知上一条 /1 下一条

返回顶部 联系我们