发表于 2017-12-14 10:21 | 显示全部楼层 |阅读模式

片  名:神战:权力之眼 (2016) [下载地址在帖子底部]

  • 年  代:2016  
  • 国  家:美国 
  • 类  别:动作 冒险 奇幻 
  • 字  幕:英文原版
  • 上映日期:2016-02-26
  • 文件格式:mkv   
  • 视频效果:4K(3840x2160)    
  • 资源大小:52.63GB
  • 片  长:127分钟
  • 导  演:亚历克斯·普罗亚斯
  • 豆瓣链接:https://movie.douban.com/subject/26662345/
  • 主  演:尼古拉·科斯特-瓦尔道 / 布伦顿·思韦茨 / 杰拉德·巴特勒 / 查德维克·博斯曼 / 艾洛蒂·袁 / 考特尼·伊顿 / 卢夫斯·塞维尔 / 杰弗里·拉什 / 布莱恩·布朗 / 瑞切尔·布莱克 / 艾玛·布斯 / 戈兰·D·克鲁特 / 阿比·丽 / 布鲁斯·斯宾斯 / 罗宾·奈文

剧情简介

 故事发生在繁荣昌盛的尼罗河畔,在天神荷鲁斯(尼古拉·科斯特-瓦尔道 Nikolaj Coster-Waldau 饰)的和平统治之下,百姓们安居乐业,生活在一片祥和之中。然而好景不长,邪恶的黑暗之神赛特(杰拉德·巴特勒 Gerard Butler 饰)利用阴谋诡计夺走了荷鲁斯的王座和双眼,将他驱逐囚禁,赛特生性残暴而好战,很快,整个国家陷入了混乱之中。
  贝克(布兰顿·思怀兹 Brenton Thwaites 饰)只是一介平凡的人类窃贼,却在意外之中成为了拯救人类的唯一希望。为了对抗强大的赛特,他千里迢迢找到了荷鲁斯,向他寻求帮助。就这样,一人一神的奇怪组合成立了。为了重新获得力量,荷鲁斯必须夺回他的眼睛,以此为目标,一行人踏上了旅途。
神战:权力之眼4kliulanpian.jpg
埃及神战(港) / 荷鲁斯之眼:王者争霸(台) / 神战·权力之眼 / 埃及众神 / 埃及之神 / 埃及诸神/ 神战:权力之眼4k Gods of Egypt 2016 2160p BluRay REMUX HEVC DTS-X 7.1-FGT  4K UHD蓝光原盘电影资源说明

第123部 4K UHD 蓝光原盘破解版,含完整的 BDMV 文件夹以及数据,AACS 2.0 协议已被完整破解。
[-] Hide MediaInfo

Video
ID                                       : 1
Format                                   : HEVC
Format/Info                              : High Efficiency Video Coding
Format profile                           : Main 10@L5.1@High
Codec ID                                 : V_MPEGH/ISO/HEVC
Duration                                 : 2 h 7 min
Bit rate                                 : 53.0 Mb/s
Width                                    : 3 840 pixels
Height                                   : 2 160 pixels
Display aspect ratio                     : 16:9
Frame rate mode                          : Constant
Frame rate                               : 23.976 (24000/1001) FPS
Color space                              : YUV
Chroma subsampling                       : 4:2:0 (Type 2)
Bit depth                                : 10 bits
Bits/(Pixel*Frame)                       : 0.266
Stream size                              : 47.0 GiB (89%)
Title                                    : Gods.of.Egypt.2016.2160p.BluRay.REMUX.HEVC.DTS-X.7.1-FGT
Writing library                          : ATEME Titan KFE 3.7.3 (4.7.3.1003)
Default                                  : Yes
Forced                                   : No
Color range                              : Limited
Color primaries                          : BT.2020
Transfer characteristics                 : PQ
Matrix coefficients                      : BT.2020 non-constant
Mastering display color primaries        : R: x=0.680000 y=0.320000, G: x=0.265000 y=0.690000, B: x=0.150000 y=0.060000, White point: x=0.312700 y=0.329000
Mastering display luminance              : min: 0.0050 cd/m2, max: 4000.0000 cd/m2

Audio #1
ID                                       : 2
Format                                   : DTS
Format/Info                              : Digital Theater Systems
Format profile                           : X / MA / Core
Codec ID                                 : A_DTS
Duration                                 : 2 h 7 min
Bit rate mode                            : Variable / Variable / Constant
Bit rate                                 : 4 735 kb/s / 4 735 kb/s / 1 509 kb/s
Channel(s)                               : Object Based / 8 channels / 6 channels
Channel positions                        : Object Based / Front: L C R, Side: L R, Back: L R, LFE / Front: L C R, Side: L R, LFE
Sampling rate                            :  / 48.0 kHz / 48.0 kHz
Frame rate                               : 93.750 FPS (512 SPF)
Bit depth                                :  / 24 bits / 24 bits
Compression mode                         :  / Lossless / Lossy
Stream size                              : 4.20 GiB (8%)
Title                                    : Gods.of.Egypt.2016.2160p.BluRay.REMUX.HEVC.DTS-X.7.1-FGT
Language                                 : English
Default                                  : Yes
Forced                                   : No

Audio #2
ID                                       : 3
Format                                   : DTS
Format/Info                              : Digital Theater Systems
Codec ID                                 : A_DTS
Duration                                 : 2 h 7 min
Bit rate mode                            : Constant
Bit rate                                 : 755 kb/s
Channel(s)                               : 6 channels
Channel positions                        : Front: L C R, Side: L R, LFE
Sampling rate                            : 48.0 kHz
Frame rate                               : 93.750 FPS (512 SPF)
Bit depth                                : 24 bits
Compression mode                         : Lossy
Stream size                              : 686 MiB (1%)
Title                                    : Gods.of.Egypt.2016.2160p.BluRay.REMUX.HEVC.DTS-X.7.1-FGT
Language                                 : Spanish
Default                                  : No
Forced                                   : No

Audio #3
ID                                       : 4
Format                                   : DTS
Format/Info                              : Digital Theater Systems
Codec ID                                 : A_DTS
Duration                                 : 2 h 7 min
Bit rate mode                            : Constant
Bit rate                                 : 755 kb/s
Channel(s)                               : 2 channels
Channel positions                        : Front: L R
Sampling rate                            : 48.0 kHz
Frame rate                               : 93.750 FPS (512 SPF)
Bit depth                                : 24 bits
Compression mode                         : Lossy
Stream size                              : 686 MiB (1%)
Title                                    : Gods.of.Egypt.2016.2160p.BluRay.REMUX.HEVC.DTS-X.7.1-FGT
Language                                 : English
Default                                  : No
Forced                                   : No

Text #1
ID                                       : 5
Format                                   : PGS
Muxing mode                              : zlib
Codec ID                                 : S_HDMV/PGS
Codec ID/Info                            : Picture based subtitle format used on BDs/HD-DVDs
Duration                                 : 1 h 55 min
Bit rate                                 : 27.3 kb/s
Count of elements                        : 2446
Stream size                              : 22.5 MiB (0%)
Title                                    : English-PGS
Language                                 : English
Default                                  : Yes
Forced                                   : No

Text #2
ID                                       : 6
Format                                   : PGS
Muxing mode                              : zlib
Codec ID                                 : S_HDMV/PGS
Codec ID/Info                            : Picture based subtitle format used on BDs/HD-DVDs
Duration                                 : 1 h 55 min
Bit rate                                 : 30.9 kb/s
Count of elements                        : 2974
Stream size                              : 25.5 MiB (0%)
Title                                    : English-SDH-PGS
Language                                 : English
Default                                  : No
Forced                                   : No

Text #3
ID                                       : 7
Format                                   : PGS
Muxing mode                              : zlib
Codec ID                                 : S_HDMV/PGS
Codec ID/Info                            : Picture based subtitle format used on BDs/HD-DVDs
Duration                                 : 1 h 55 min
Bit rate                                 : 27.2 kb/s
Count of elements                        : 2566
Stream size                              : 22.5 MiB (0%)
Title                                    : Spanish-PGS
Language                                 : Spanish
Default                                  : No
Forced                                   : No

Text #4
ID                                       : 8
Format                                   : PGS
Muxing mode                              : zlib
Codec ID                                 : S_HDMV/PGS
Codec ID/Info                            : Picture based subtitle format used on BDs/HD-DVDs
Duration                                 : 1 h 55 min
Bit rate                                 : 27.3 kb/s
Count of elements                        : 2446
Stream size                              : 22.5 MiB (0%)
Title                                    : English-PGS
Language                                 : English
Default                                  : No
Forced                                   : No

Text #5
ID                                       : 9
Format                                   : PGS
Muxing mode                              : zlib
Codec ID                                 : S_HDMV/PGS
Codec ID/Info                            : Picture based subtitle format used on BDs/HD-DVDs
Duration                                 : 1 h 55 min
Bit rate                                 : 30.9 kb/s
Count of elements                        : 2974
Stream size                              : 25.5 MiB (0%)
Title                                    : English-PGS
Language                                 : English
Default                                  : No
Forced                                   : No

Text #6
ID                                       : 10
Format                                   : PGS
Muxing mode                              : zlib
Codec ID                                 : S_HDMV/PGS
Codec ID/Info                            : Picture based subtitle format used on BDs/HD-DVDs
Duration                                 : 1 h 55 min
Bit rate                                 : 27.2 kb/s
Count of elements                        : 2566
Stream size                              : 22.5 MiB (0%)
Title                                    : Spanish-PGS
Language                                 : Spanish
Default                                  : No
Forced                                   : No

Menu
00:00:00.000                             : en:Chapter 1
00:07:08.010                             : en:Chapter 2
00:18:07.544                             : en:Chapter 3
00:23:47.259                             : en:Chapter 4
00:30:11.810                             : en:Chapter 5
00:39:16.520                             : en:Chapter 6
00:46:30.621                             : en:Chapter 7
00:54:46.074                             : en:Chapter 8
01:01:14.128                             : en:Chapter 9
01:09:29.039                             : en:Chapter 10
01:18:03.345                             : en:Chapter 11
01:28:18.251                             : en:Chapter 12
01:36:12.057                             : en:Chapter 13
01:39:14.657                             : en:Chapter 14
01:46:58.328                             : en:Chapter 15
01:52:11.015                             : en:Chapter 16

埃及神战(港) / 荷鲁斯之眼:王者争霸(台) / 神战·权力之眼 / 埃及众神 / 埃及之神 / 埃及诸神/ 神战:权力之眼4k Gods of Egypt 2016 2160p BluRay REMUX HEVC DTS-X 7.1-FGT  4K UHD蓝光原盘电影资源下载
神战:权力之眼4k Gods.of.Egypt.2016.2160p.BluRay.REMUX.HEVC.DTS-X.7.1-FGT (4K UHD 蓝光破解版 2160p 54.59GB
游客,如果您要查看本帖隐藏内容请回复

神战:权力之眼4k Gods.of.Egypt.2016.2160p.BluRay.HEVC.DTS-X.7.1-TERMiNAL(4K UHD 蓝光破解版 2160p 56.24GB
游客,如果您要查看本帖隐藏内容请回复


发表于 2017-12-14 10:26 | 显示全部楼层
谢谢分享、、、
发表于 2017-12-14 10:38 | 显示全部楼层
发表于 2017-12-14 10:46 | 显示全部楼层
真是太好了
发表于 2017-12-14 11:37 | 显示全部楼层
发表于 2017-12-14 11:50 来自 移动版  | 显示全部楼层
顶起,强烈支持楼主
发表于 2017-12-14 12:06 | 显示全部楼层
确实是难得4k好帖啊,顶先啊!
发表于 2017-12-14 12:11 | 显示全部楼层
thank you for sharing
发表于 2017-12-14 12:41 | 显示全部楼层
666666666666666666666666666
发表于 2017-12-14 12:45 | 显示全部楼层
关键屎交钱了还不一定能下载到啊。
发表于 2017-12-14 12:46 来自 移动版  | 显示全部楼层
传说中的沙发???哇卡卡
发表于 2017-12-14 12:52 | 显示全部楼层
相当不错的电影。
发表于 2017-12-14 13:11 | 显示全部楼层
谢谢分享啥也不说了,感谢楼主在hao4k分享4k视频内容哇!.强烈支持楼主
发表于 2017-12-14 13:21 | 显示全部楼层
支持hao4k,支持楼主大人发布4k资源!
发表于 2017-12-14 13:32 | 显示全部楼层
感谢分享!!
发表于 2017-12-14 13:36 | 显示全部楼层
么有分,谁能送我点 K币啊::>_<::
发表于 2017-12-14 15:08 | 显示全部楼层
啥也不说了,感谢楼主在hao4k分享4k视频内容哇!
发表于 2017-12-14 15:12 | 显示全部楼层
感谢楼主分享!
您需要登录后才可以回帖 登录 | 立即注册

本版积分规则

关闭

站长通知上一条 /1 下一条

返回顶部 联系我们