发表于 2017-12-14 18:04 | 显示全部楼层 |阅读模式

片  名:速度与激情6 4K [下载地址在帖子底部]

  • 年  代:2013  
  • 国  家:美国 
  • 类  别:动作 犯罪 惊悚 
  • 字  幕:英文原版
  • 上映日期:2013-05-24
  • 文件格式:mkv   
  • 视频效果:4K(3840x2160)    
  • 文件大小:46.43GB
  • 片  长:130分钟
  • 导  演:林诣彬
  • 豆瓣链接:https://movie.douban.com/subject/6537500/
  • 主  演:范·迪塞尔 / 保罗·沃克 / 道恩·强森 / 乔丹娜·布鲁斯特 / 米歇尔·罗德里格兹 / 泰瑞斯·吉布森 / 姜成镐 / 盖尔·加朵 / 卢达克里斯 / 卢克·伊万斯 / 埃尔莎·帕塔奇 / 吉娜·卡拉诺 / 克拉拉·佩吉特 / 金·柯尔德 / 乔·塔斯利姆

剧情简介

俄罗斯莫斯科闹市中央,执行押送任务的军方部队遭到一伙训练有素的匪徒袭击,大战过后的现场惨不忍睹,重要的卫星元件遭到劫持。国际刑警霍布斯(道恩·强森 Dwayne Johnson 饰)查明,包括此案在内的一系列案件均系前特种部队军人欧文·肖(卢克·伊万斯 Luke Evans 饰)所为。为了将这群训练有素、老练凶狠的匪徒绳之于法,他辗转找到隐居世外桃源的多米尼克·托雷多(范·迪塞尔 Vin Diesel 饰)助拳。霍布斯开出的条件令人难以拒绝,他不仅可以将托雷多和布莱恩(保罗·沃克 Paul Walker 饰)一伙从前的犯罪记录一笔勾销,此外欧文一伙中竟然还有本该死去的拉蒂(米歇尔·罗德里格兹 Michelle Rodriguez 饰)。
  前所未有的危险战斗,为了安定平凡的生活,这群亡命之徒再上战场……
速度与激情6 4k liulanpian.jpg

狂野时速6(港) / 玩命关头6(台) /速度与激情6 4k Fast and Furious 6 2013 EXTENDED 2160p BluRay REMUX HEVC DTS-HR 7.1-FGT4K UHD蓝光原盘电影资源说明


第一百二十七部 4K UHD 蓝光原盘破解版,含完整的 BDMV 文件夹以及数据,AACS 2.0 协议已被完整破解。
[-] Hide MediaInfo

Video
ID                                       : 1
Format                                   : HEVC
Format/Info                              : High Efficiency Video Coding
Format profile                           : Main 10@L5.1@High
Codec ID                                 : V_MPEGH/ISO/HEVC
Duration                                 : 2 h 11 min
Bit rate                                 : 43.0 Mb/s
Width                                    : 3 840 pixels
Height                                   : 2 160 pixels
Display aspect ratio                     : 16:9
Frame rate mode                          : Constant
Frame rate                               : 23.976 (23976/1000) FPS
Original frame rate                      : 23.976 (24000/1001) FPS
Color space                              : YUV
Chroma subsampling                       : 4:2:0 (Type 2)
Bit depth                                : 10 bits
Bits/(Pixel*Frame)                       : 0.216
Stream size                              : 39.3 GiB (85%)
Title                                    : Fast.and.Furious.6.2013.EXTENDED.2160p.BluRay.REMUX.HEVC.DTS-HR.7.1-FGT
Writing library                          : ATEME Titan File 3.7.8 (4.7.8.0)
Default                                  : Yes
Forced                                   : No
Color range                              : Limited
Color primaries                          : BT.2020
Transfer characteristics                 : PQ
Matrix coefficients                      : BT.2020 non-constant
Mastering display color primaries        : R: x=0.680000 y=0.320000, G: x=0.265000 y=0.690000, B: x=0.150000 y=0.060000, White point: x=0.312700 y=0.329000
Mastering display luminance              : min: 0.0050 cd/m2, max: 1000.0000 cd/m2
Maximum Content Light Level              : 1000 cd/m2
Maximum Frame-Average Light Level        : 252 cd/m2

Audio #1
ID                                       : 2
Format                                   : DTS
Format/Info                              : Digital Theater Systems
Format profile                           : HRA / Core
Codec ID                                 : A_DTS
Duration                                 : 2 h 10 min
Bit rate mode                            : Constant
Bit rate                                 : 3 456 kb/s / 1 509 kb/s
Channel(s)                               : 8 channels / 6 channels
Channel positions                        : Front: L C R, Side: L R, Back: L R, LFE / Front: L C R, Side: L R, LFE
Sampling rate                            : 48.0 kHz
Frame rate                               : 93.750 FPS (512 SPF)
Bit depth                                : 24 bits
Compression mode                         : Lossy
Stream size                              : 3.15 GiB (7%)
Title                                    : Fast.and.Furious.6.2013.EXTENDED.2160p.BluRay.REMUX.HEVC.DTS-HR.7.1-FGT
Language                                 : English
Default                                  : Yes
Forced                                   : No

Audio #2
ID                                       : 3
Format                                   : DTS
Format/Info                              : Digital Theater Systems
Codec ID                                 : A_DTS
Duration                                 : 2 h 10 min
Bit rate mode                            : Constant
Bit rate                                 : 255 kb/s
Channel(s)                               : 2 channels
Channel positions                        : Front: L R
Sampling rate                            : 48.0 kHz
Frame rate                               : 93.750 FPS (512 SPF)
Bit depth                                : 24 bits
Compression mode                         : Lossy
Stream size                              : 239 MiB (1%)
Title                                    : Fast.and.Furious.6.2013.EXTENDED.2160p.BluRay.REMUX.HEVC.DTS-HR.7.1-FGT
Language                                 : English
Default                                  : No
Forced                                   : No

Audio #3
ID                                       : 4
Format                                   : DTS
Format/Info                              : Digital Theater Systems
Codec ID                                 : A_DTS
Duration                                 : 2 h 11 min
Bit rate mode                            : Constant
Bit rate                                 : 768 kb/s
Channel(s)                               : 6 channels
Channel positions                        : Front: L C R, Side: L R, LFE
Sampling rate                            : 48.0 kHz
Frame rate                               : 93.750 FPS (512 SPF)
Bit depth                                : 24 bits
Compression mode                         : Lossy
Stream size                              : 720 MiB (2%)
Title                                    : Fast.and.Furious.6.2013.EXTENDED.2160p.BluRay.REMUX.HEVC.DTS-HR.7.1-FGT
Language                                 : English
Default                                  : No
Forced                                   : No

Audio #4
ID                                       : 5
Format                                   : DTS
Format/Info                              : Digital Theater Systems
Codec ID                                 : A_DTS
Duration                                 : 2 h 10 min
Bit rate mode                            : Constant
Bit rate                                 : 768 kb/s
Channel(s)                               : 6 channels
Channel positions                        : Front: L C R, Side: L R, LFE
Sampling rate                            : 48.0 kHz
Frame rate                               : 93.750 FPS (512 SPF)
Bit depth                                : 24 bits
Compression mode                         : Lossy
Stream size                              : 717 MiB (2%)
Title                                    : Fast.and.Furious.6.2013.EXTENDED.2160p.BluRay.REMUX.HEVC.DTS-HR.7.1-FGT
Language                                 : Spanish
Default                                  : No
Forced                                   : No

Audio #5
ID                                       : 6
Format                                   : DTS
Format/Info                              : Digital Theater Systems
Codec ID                                 : A_DTS
Duration                                 : 2 h 11 min
Bit rate mode                            : Constant
Bit rate                                 : 768 kb/s
Channel(s)                               : 6 channels
Channel positions                        : Front: L C R, Side: L R, LFE
Sampling rate                            : 48.0 kHz
Frame rate                               : 93.750 FPS (512 SPF)
Bit depth                                : 24 bits
Compression mode                         : Lossy
Stream size                              : 720 MiB (2%)
Title                                    : Fast.and.Furious.6.2013.EXTENDED.2160p.BluRay.REMUX.HEVC.DTS-HR.7.1-FGT
Language                                 : Spanish
Default                                  : No
Forced                                   : No

Audio #6
ID                                       : 7
Format                                   : DTS
Format/Info                              : Digital Theater Systems
Codec ID                                 : A_DTS
Duration                                 : 2 h 11 min
Bit rate mode                            : Constant
Bit rate                                 : 768 kb/s
Channel(s)                               : 6 channels
Channel positions                        : Front: L C R, Side: L R, LFE
Sampling rate                            : 48.0 kHz
Frame rate                               : 93.750 FPS (512 SPF)
Bit depth                                : 24 bits
Compression mode                         : Lossy
Stream size                              : 720 MiB (2%)
Title                                    : Fast.and.Furious.6.2013.EXTENDED.2160p.BluRay.REMUX.HEVC.DTS-HR.7.1-FGT
Language                                 : French
Default                                  : No
Forced                                   : No

Audio #7
ID                                       : 8
Format                                   : DTS
Format/Info                              : Digital Theater Systems
Codec ID                                 : A_DTS
Duration                                 : 2 h 11 min
Bit rate mode                            : Constant
Bit rate                                 : 768 kb/s
Channel(s)                               : 6 channels
Channel positions                        : Front: L C R, Side: L R, LFE
Sampling rate                            : 48.0 kHz
Frame rate                               : 93.750 FPS (512 SPF)
Bit depth                                : 24 bits
Compression mode                         : Lossy
Stream size                              : 720 MiB (2%)
Title                                    : Fast.and.Furious.6.2013.EXTENDED.2160p.BluRay.REMUX.HEVC.DTS-HR.7.1-FGT
Language                                 : French
Default                                  : No
Forced                                   : No

Audio #8
ID                                       : 9
Format                                   : AC-3
Format/Info                              : Audio Coding 3
Codec ID                                 : A_AC3
Duration                                 : 2 h 11 min
Bit rate mode                            : Constant
Bit rate                                 : 192 kb/s
Channel(s)                               : 2 channels
Channel positions                        : Front: L R
Sampling rate                            : 48.0 kHz
Frame rate                               : 31.250 FPS (1536 SPF)
Bit depth                                : 16 bits
Compression mode                         : Lossy
Stream size                              : 180 MiB (0%)
Title                                    : Fast.and.Furious.6.2013.EXTENDED.2160p.BluRay.REMUX.HEVC.DTS-HR.7.1-FGT
Language                                 : English
Service kind                             : Complete Main
Default                                  : No
Forced                                   : No

Text #1
ID                                       : 10
Format                                   : PGS
Muxing mode                              : zlib
Codec ID                                 : S_HDMV/PGS
Codec ID/Info                            : Picture based subtitle format used on BDs/HD-DVDs
Duration                                 : 2 h 3 min
Bit rate                                 : 30.9 kb/s
Count of elements                        : 2940
Stream size                              : 27.4 MiB (0%)
Title                                    : English-PGS
Language                                 : English
Default                                  : Yes
Forced                                   : No

Text #2
ID                                       : 11
Format                                   : PGS
Muxing mode                              : zlib
Codec ID                                 : S_HDMV/PGS
Codec ID/Info                            : Picture based subtitle format used on BDs/HD-DVDs
Duration                                 : 2 h 2 min
Bit rate                                 : 25.4 kb/s
Count of elements                        : 2490
Stream size                              : 22.3 MiB (0%)
Title                                    : Spanish-PGS
Language                                 : Spanish
Default                                  : No
Forced                                   : No

Text #3
ID                                       : 12
Format                                   : PGS
Muxing mode                              : zlib
Codec ID                                 : S_HDMV/PGS
Codec ID/Info                            : Picture based subtitle format used on BDs/HD-DVDs
Duration                                 : 2 h 2 min
Bit rate                                 : 26.8 kb/s
Count of elements                        : 2512
Stream size                              : 23.6 MiB (0%)
Title                                    : French-PGS
Language                                 : French
Default                                  : No
Forced                                   : No

Text #4
ID                                       : 13
Format                                   : PGS
Muxing mode                              : zlib
Codec ID                                 : S_HDMV/PGS
Codec ID/Info                            : Picture based subtitle format used on BDs/HD-DVDs
Duration                                 : 2 h 2 min
Bit rate                                 : 740 b/s
Count of elements                        : 96
Stream size                              : 661 KiB (0%)
Title                                    : Spanish-FORCED-PGS
Language                                 : Spanish
Default                                  : No
Forced                                   : No

Text #5
ID                                       : 14
Format                                   : PGS
Muxing mode                              : zlib
Codec ID                                 : S_HDMV/PGS
Codec ID/Info                            : Picture based subtitle format used on BDs/HD-DVDs
Duration                                 : 2 h 2 min
Bit rate                                 : 1 067 b/s
Count of elements                        : 120
Stream size                              : 954 KiB (0%)
Title                                    : French-FORCED-PGS
Language                                 : French
Default                                  : No
Forced                                   : No

Menu
00:00:00.000                             : en:Chapter 1
00:04:21.010                             : en:Chapter 2
00:10:19.118                             : en:Chapter 3
00:15:35.267                             : en:Chapter 4
00:19:18.574                             : en:Chapter 5
00:24:32.721                             : en:Chapter 6
00:30:23.404                             : en:Chapter 7
00:36:28.477                             : en:Chapter 8
00:44:01.305                             : en:Chapter 9
00:50:50.255                             : en:Chapter 10
00:56:54.327                             : en:Chapter 11
01:04:54.056                             : en:Chapter 12
01:10:14.293                             : en:Chapter 13
01:19:13.456                             : en:Chapter 14
01:25:41.177                             : en:Chapter 15
01:34:53.771                             : en:Chapter 16
01:41:48.560                             : en:Chapter 17
01:48:31.838                             : en:Chapter 18
01:57:48.811                             : en:Chapter 19
02:03:04.418                             : en:Chapter 20

狂野时速6(港) / 玩命关头6(台) /速度与激情6 4kFast.and Furious 6 2013 EXTENDED 2160p BluRay REMUX HEVC DTS-HR 7.1-FGT4K UHD蓝光原盘电影资源下载


速度与激情6 4k Fast.and.Furious.6.2013.EXTENDED.2160p.BluRay.REMUX.HEVC.DTS-HR.7.1-FGT (4K UHD 蓝光破解版 2160p 46.43GB
游客,如果您要查看本帖隐藏内容请回复


速度与激情6 4k Fast.and.Furious.6.2013.EXTENDED.2160p.BluRay.HEVC.DTS-HR.7.1-TERMiNAL(4K UHD 蓝光破解版 2160p55.21GB
游客,如果您要查看本帖隐藏内容请回复

评分

参与人数 1金钱 +1 收起 理由
953032650 + 1 很给力!

查看全部评分

发表于 2017-12-14 18:43 | 显示全部楼层
谢谢分享。
发表于 2017-12-14 18:49 | 显示全部楼层
谢谢网站提供的内容
发表于 2017-12-14 19:05 | 显示全部楼层
支持hao4k,支持楼主大人发布4k资源!
发表于 2017-12-14 19:23 | 显示全部楼层
啥也不说了,感谢楼主在hao4k分享4k视频内容哇!
发表于 2017-12-14 19:29 | 显示全部楼层

支持hao4k,支持楼主大人发布4k资源!
发表于 2017-12-14 19:48 | 显示全部楼层
太好了,太好了。
发表于 2017-12-14 19:57 | 显示全部楼层
支持hao4k,支持楼主大人发布4k资源!
发表于 2017-12-14 20:12 | 显示全部楼层
珍惜生命、珍惜hao4k网站,果断回帖。
发表于 2017-12-14 20:34 | 显示全部楼层
希望电视上面可以看吧
您需要登录后才可以回帖 登录 | 立即注册

本版积分规则

返回顶部 联系我们