发表于 2017-12-18 13:00 | 显示全部楼层 |阅读模式

/ {1 Y: K, d& K  PIMAX 映前秀 4K画质 2014 (高码率10bit)[2160P/MKV/407MB]6 n, k. _# r, e# h0 K% r

6 G9 }. {5 j& U* F

www.hao4k.com

www.hao4k.com

# |" I5 h. d6 f3 ?3 j
, z5 O  z3 R% ]1 G- V

www.hao4k.com

www.hao4k.com
% y! R6 e' c  p, H( T2 @5 ?

. N& i; k3 x3 l1 b' g' W

www.hao4k.com

www.hao4k.com
, n# E8 o5 i2 m5 A1 N- ?" r
+ M" G: V: e3 i$ W* N

www.hao4k.com

www.hao4k.com

% N+ n4 L' j7 x, d" ]! l
$ s5 h0 R+ ~! X5 x( e
2 N  r: ?0 d: s

www.hao4k.com

www.hao4k.com

8 @. {9 b% |+ c3 [- C
1 b: t: v! X' N2 j6 r* v% e1 }& C
General # 1 7 }* S" ^) A  J. Y1 R
Unique ID : 195157117066491931367296159606153158625(0x92D1E4C07867BA27A2B8E3962CD01FE1)) m8 O/ \9 ~0 [3 f# w% j9 ^5 Y* V
Complete name : IMAX PreShow.mkv
8 x3 }0 e4 u8 x2 w  [2 PFormat : Matroska
7 p  m! ~% w, n9 L9 DFormat version : Version 4 / Version 2 7 N5 g) n8 V. K% s- y
File size : 407 MiB 1 G- n: T3 g7 V0 s
Duration : 45 s 1 ms
; X& B6 f3 y+ ~1 rOverall bit rate mode : Variable
% c& {* `- u0 `- f" QOverall bit rate : 75.9 Mbps
/ s# N( I2 _# Z7 [9 sMovie name : Test Fox raitings; C( ]  @( N% y$ t8 W" \
Encoded date : UTC 2014-12-30 12:07:48& P% a) U! D: h: ^2 c, J7 ^
Writing application : mkvmerge v7.4.0 ('Circles') 64bit built on Dec 12 2014 12:19:563 }+ H3 U+ D0 e5 z% l+ q4 \- g3 a$ K
Writing library : libebml v1.3.0 + libmatroska v1.4.1
2 ]  K; v- }! ]! y- O) [; q+ G; o2 y) Z( C+ E9 v
Video # 1
& n2 ^- d+ Y( ~4 ^ID : 1 0 ]. Z. v8 e& s
Format : AVC
' c# r! U! W* m, w) _: z) jFormat/Info : Advanced Video Codec
, m! _; V/ _3 R7 m6 s. |Format profile : High 10@L5.1 4 Y& N+ I6 E1 K
Format settings, CABAC : Yes
6 d9 D  E- S2 G: bFormat settings, ReFrames : 12 frames % w% j7 z1 [. n0 Q+ x  o2 r
Codec ID : V_MPEG4/ISO/AVC   ?5 G3 @$ j6 ^
Duration : 45 s 0 ms; @1 r. ~6 L. M3 P- V
Bit rate : 65.1 Mbps- c' `% |3 K7 }8 J$ m4 C
Width : 3996 pixels
* P) P% s9 p9 Y: EHeight : 2160 pixels
2 m3 F3 S! J0 v/ ~8 ]- ZDisplay aspect ratio : 1.85:1
5 l' T/ v- ~( c) n2 S! ~7 tFrame rate mode : Constant 3 O7 Y; P) \3 v0 X; E
Frame rate : 24.000 FPS
" m6 p% B6 W; I' ~Color space : YUV
1 `6 d9 p+ I0 G' ~/ qChroma subsampling : 4:2:0 1 C* [$ S/ V& ^- Y
Bit depth : 10 bits
# E2 j9 K5 u' W+ j8 H' O2 Z3 i, r5 vScan type : Progressive
# e, q. x6 o( y& x7 N5 JBits/(Pixel*Frame) : 0.314
, D9 u+ ~3 B1 [Stream size : 349 MiB (86%)9 y5 Z0 d. N. u6 s6 R1 O4 f/ ^
Title : DCPrip, h264, 10-bit, 420 css, pc range
7 v% d- d& }& a# u% O5 S( h7 X0 [Writing library : x264 core 142 r2431+42 c69a006 tMod [10-bit@ALL X86_64]
! P# m5 u" g9 T6 Q) X; uEncoding settings : cabac=1 / ref=12 / deblock=1:-3:-2 / analyse=0x3:0x133 / me=tesa / subme=11 / psy=1 /  fade_compensate=0.00 /  psy_rd=0.70:0.10 / mixed_ref=1 / me_range=48 / chroma_me=1 / trellis=2 / 8x8dct=1 / cqm=0 / deadzone=21,11 / fast_pskip=0 / chroma
( _0 x! H) k4 a3 m' \  ^Default : Yes ! n1 ^' j4 H& H5 E0 o, p6 s
Forced : No
& p" z  N1 t+ g5 b( x- S* h4 EColor range : Full+ O) `. y8 ?: x+ _# m( R& K
Color primaries : BT.709  M) y6 }8 T) d" Y
Transfer characteristics : BT.709  m7 {7 M* ?8 s; D% p
Matrix coefficients : BT.709& {/ w6 Q. Y6 y+ `8 F' z
3 D* m! k% O% a* {/ ?' ^0 @6 M3 O" g
Audio # 1 ) y! D8 k+ w# p7 P- ^! @: T0 X( d" w8 X9 n& h
ID : 2
& X, }8 O0 F/ b! V* PFormat : FLAC
2 Y, {  i3 T. U# A8 xFormat/Info : Free Lossless Audio Codec$ {' @- Q. B& X! Y) s# }1 O$ e
Codec ID : A_FLAC/ M( k+ F/ r' B' G  E
Duration : 45 s 1 ms
( Q( _5 e: }5 b) I5 ], c( N5 hBit rate mode : Variable
& g* l8 X. K7 N  ?. O: a/ T7 FBit rate : 3658 Kbps
( v2 S2 b) q9 A' I" NChannel(s) : 6 channels * p$ v! {# j( m; q
Sampling rate : 48.0 KHz
7 H4 z( ?$ _, [( DFrame rate : 11.733 FPS (4091 spf) 6 m( \" v4 ?4 Z* @) s, w1 U0 y; i
Bit depth : 24 bits
$ k& k9 b1 k7 CStream size : 19.6 MiB (5%): t1 {7 G( `3 w5 m7 L" x1 x
Title : FLAC. W  b  j: Y$ h5 `+ W
Writing Iibrary : IibFLAC 1.2.1 (UTC 2007-09-17)
6 n  |2 p) q/ R3 d# z4 BLanguage : Russian
) [  ~3 d. b: M: [7 }% PDefault : Yes
- t8 p- V" J3 P( L& j( aForced : No
$ N% @( l- O5 w8 Z; Q: X- D5 ]3 x: @1 u
Audio # 2, n' j4 C" Y3 X( Y
ID : 3" K5 f6 Q7 Q; }7 J
Format : FLAC
' g) c  l7 p! I* c  s8 }" ZFormat/Info : Free Lossless Audio Codec8 t" ]: d0 b' f5 U% w
Codec ID : A_FLAC
$ o- |4 _! S3 x9 D) H- w; CDuration : 45 s 1 ms- O0 F% d' a" N5 s$ k
Bit rate mode : Variable
+ a2 V& F" c! d9 M6 A9 N$ xBit rate : 3575 Kbps" j! _$ t* e& m4 a2 s$ C5 C" w
Channel(s) : 6 channels
( l9 U& D# s0 m) P7 ~8 r# mSampling rate : 48.0 KHz ! x. {+ s% d+ a
Frame rate : 11.733 FPS (4091 spf) : f. K6 A% k5 r0 b; v: Q
Bit depth : 24 bits ) y! C- B7 B& M# X
Stream size : 19.2 MiB (5%)- E/ H1 X, u+ c, ?  B5 i! [
Title : FLAC
- }4 \  G0 b$ Q" l6 RWriting Iibrary : IibFLAC 1.2.1 (UTC 2007-09-17) & Z# A$ N9 l! f, q0 ?' O
Language : English
3 i9 m4 ^1 ~4 bDefault : No
( K- `& H/ e6 o% OForced : No$ C- K9 A. j6 v& X' f8 g

( ]3 X1 r* F8 iAudio # 3, {( T1 w. ~+ [. F7 X+ @1 y1 L9 P. M
ID : 4
6 b6 ~/ N, I, wFormat : FLAC3 v7 v3 D. K8 _" l6 R7 G) Y
Format/Info : Free Lossless Audio Codec
: o4 [) [, Z- ?0 |2 v' }Codec ID : A_FLAC
" g6 L5 a9 z+ b$ C8 g* ?Duration : 45 s 1 ms
3 U/ a$ ?4 F' A& Q- x$ d. fBit rate mode : Variable
2 c$ j% Y  H( d; U3 j0 @+ SBit rate : 3641 Kbps! u- m1 k( `# H; r) n& J
Channel(s) : 6 channels
- N4 }1 f/ n+ o: V1 KSampling rate : 48.0 KHz   m7 E0 F1 S2 \- [% V8 I5 c
Frame rate : 11.733 FPS (4091 spf)
& U5 m8 ^/ P$ ^- H2 u% k3 T( W2 w; qBit depth : 24 bits ( F! K8 m) [5 W6 t! g  X  K
Stream size : 19.5 MiB (5%)
* G* O( R7 i5 {/ y/ z& A" GTitle : FLAC) F4 g2 c9 u( [& v  z2 i, d
Writing Iibrary : IibFLAC 1.2.1 (UTC 2007-09-17) ) j" h8 S6 u1 r; |- F  q8 h5 H
Language : French! m+ X, p. T  g3 W. |5 V& b0 V
Default : No 6 n2 U! X* ^5 Q
Forced : No
" C: |8 _$ Q& O3 ?0 q; J$ P$ pBonus Video(1998 x 1080/10 bits/MKV/267MB)

' w8 d: r& K: P3 b/ _$ N

www.hao4k.com

www.hao4k.com

& {- J( i" y9 K# J
. Z, H* i6 ^2 M% x$ g  n( O0 I

www.hao4k.com

www.hao4k.com
7 k' s  A6 m$ y* g: ?" H7 L

5 C  W/ P1 y5 N+ {/ z

www.hao4k.com

www.hao4k.com
' ?; M5 F. t) @9 r  H
* r! u8 T3 J) O( m0 p: n, ?8 {! }

www.hao4k.com

www.hao4k.com

; M7 b$ T% |2 g2 C' m$ H" U( p! Z' G5 j; s3 z

www.hao4k.com

www.hao4k.com

+ Y% {8 m# z& @; Q' r* [+ l
IMAX 映前秀 2014 (高码率10bit)[2160P/MKV/407MB]
(俄语版/英文版/法语版)
. X; f4 W. ^' @7 b
) H! f, w+ S- a; a
IMAX 映前秀 4K画质 2014 (高码率10bit)[2160P/MKV/407MB]回复即可下载:
6 `$ g5 A) G$ T
游客,如果您要查看本帖隐藏内容请回复

% R# T. E  }& a# O! W$ s  h* `  f; W7 S; O6 `6 |
发表于 2017-12-18 13:12 | 显示全部楼层
4k视频片源我来了,谢谢提供~~
发表于 2017-12-18 13:23 | 显示全部楼层
头像被屏蔽
发表于 2017-12-18 13:26 | 显示全部楼层
提示: 作者被禁止或删除 内容自动屏蔽
发表于 2017-12-18 13:37 | 显示全部楼层
啥也不说了,感谢楼主在hao4k分享4k视频内容哇!
发表于 2017-12-18 13:43 来自 移动版  | 显示全部楼层
报告!别开枪,我就是路过来看看的。。。
发表于 2017-12-18 13:57 | 显示全部楼层
比特精灵也下不动,什么情况
发表于 2017-12-18 13:57 | 显示全部楼层
感谢提供
发表于 2017-12-18 14:09 | 显示全部楼层
求沙发
发表于 2017-12-18 14:18 | 显示全部楼层
啥也不说了,感谢楼主在hao4k分享4k视频内容哇!
发表于 2017-12-18 14:27 | 显示全部楼层
谢谢分享、、、、、
发表于 2017-12-18 14:28 | 显示全部楼层
啥也不说了,感谢楼主在hao4k分享4k视频内容哇!
发表于 2017-12-18 14:34 | 显示全部楼层
谢谢楼主分享
发表于 2017-12-18 16:13 | 显示全部楼层
谢谢分享。
发表于 2017-12-18 16:25 | 显示全部楼层
IMAX 映前秀 2014
发表于 2017-12-18 16:42 | 显示全部楼层
谢谢楼主的分享
发表于 2017-12-18 16:48 | 显示全部楼层
啥也不说了,感谢楼主在hao4k分享4k视频内容哇!
发表于 2017-12-18 16:48 | 显示全部楼层
谢谢楼主分享
您需要登录后才可以回帖 登录 | 立即注册

本版积分规则

关闭

站长通知上一条 /1 下一条

返回顶部 联系我们