猜你喜欢

[4k其他视频] IMAX 映前秀 4K画质 2014 (高码率10bit)[2160P/MKV/407MB]

  [复制链接]
查看: 3326|回复: 253

399

主题

543

帖子

2604

K币

Rank: 9Rank: 9Rank: 9

威望
998
积分
21151
lili 发表于 2017-12-18 13:00:27 | 显示全部楼层 |阅读模式
8 b/ k. h' I5 {& u& [4 z( M- H
IMAX 映前秀 4K画质 2014 (高码率10bit)[2160P/MKV/407MB]
" g  V" q2 R1 m! \0 \( p8 k' ^( P( U4 @5 S* T

www.hao4k.com

www.hao4k.com
' J4 r9 G7 Y# W( I  Q/ G$ X
% a: k" k- W" ]4 Z# V) U2 i

www.hao4k.com

www.hao4k.com
3 E7 v+ J  N; U5 j& b! b1 q
/ x$ Y6 q( w* n

www.hao4k.com

www.hao4k.com
: D5 _$ Z7 T$ j% H. o, x

% `5 k1 D" P7 N( b6 \( m) D/ C

www.hao4k.com

www.hao4k.com

1 H* m; V$ s. e0 l7 P1 C5 M. R/ f) d0 ^2 Y  R4 g
1 [" D! _# v4 h* ^4 w; X3 m! P

www.hao4k.com

www.hao4k.com
# Q4 [( j0 p! u8 C3 T; K, c( c" M
* X: h; q4 }, q% Q  k* M8 y
General # 1 ! k) q; y" B! s& W5 L, a( S
Unique ID : 195157117066491931367296159606153158625(0x92D1E4C07867BA27A2B8E3962CD01FE1)
' ~% D- c7 i! [: Y5 VComplete name : IMAX PreShow.mkv9 R: Y, \$ `! J, {
Format : Matroska
; Z# F8 h/ g  P5 m. ~* RFormat version : Version 4 / Version 2
4 i/ \1 }+ k! z% b+ F3 g$ R& Z5 D+ hFile size : 407 MiB ! s9 o( E" T7 b+ M) e8 O6 T
Duration : 45 s 1 ms
: L# z* G: Y# Z' f( [Overall bit rate mode : Variable
+ q- z5 m2 N. M1 x. \Overall bit rate : 75.9 Mbps
1 y* c# \7 ?! g, w; f& r  E* O7 n5 JMovie name : Test Fox raitings" j1 e+ E1 z( P
Encoded date : UTC 2014-12-30 12:07:48
/ k0 P5 I# S$ B  `* b% Q) XWriting application : mkvmerge v7.4.0 ('Circles') 64bit built on Dec 12 2014 12:19:56
5 R* b6 Y! x- |* ~Writing library : libebml v1.3.0 + libmatroska v1.4.1$ V$ r) H; U0 T, L" v

2 c( O% {' P9 KVideo # 1 0 R2 k# s2 D, K0 m
ID : 1
, F# l2 Q( I: k/ V/ v' j1 v3 GFormat : AVC
7 a% x% U+ P! a" s3 H; B0 XFormat/Info : Advanced Video Codec ) n0 e+ W* Q; P" a
Format profile : High 10@L5.1
1 p# f1 }0 a6 d' w- vFormat settings, CABAC : Yes 0 b  U' F- t. u" s
Format settings, ReFrames : 12 frames / c: P; I7 U, H" h7 X
Codec ID : V_MPEG4/ISO/AVC ' y( Y4 d; i; G5 T
Duration : 45 s 0 ms
2 U7 c" F' A0 e. C* L, e! }Bit rate : 65.1 Mbps
6 ^2 u6 D8 N8 q) B8 V- X! BWidth : 3996 pixels
/ y0 e& `; _, r1 f8 r4 c6 N" nHeight : 2160 pixels
$ L# x% `( g% C6 A  l' W9 m; N: f& mDisplay aspect ratio : 1.85:13 U! b1 H0 w5 e& d  ]. d; J9 z
Frame rate mode : Constant
" w( m& R) O5 {2 N* }! bFrame rate : 24.000 FPS
$ A# L! ]. t- F! A9 |% _7 `Color space : YUV
3 _6 n7 \8 L: G5 a, \Chroma subsampling : 4:2:0 + u, c# D0 t7 |1 z1 c
Bit depth : 10 bits
! j; C# A$ S# S2 y$ JScan type : Progressive 6 l2 j9 E) @+ Q8 O8 s
Bits/(Pixel*Frame) : 0.3142 ^+ L+ `5 J9 l7 a3 k' _, L
Stream size : 349 MiB (86%)
( {. a3 `. \& @5 M( }Title : DCPrip, h264, 10-bit, 420 css, pc range
: x3 @! O' ~6 h4 y, \5 [  JWriting library : x264 core 142 r2431+42 c69a006 tMod [10-bit@ALL X86_64]
: j5 B6 g# y, ]% _+ g8 }: E2 H5 g. \Encoding settings : cabac=1 / ref=12 / deblock=1:-3:-2 / analyse=0x3:0x133 / me=tesa / subme=11 / psy=1 /  fade_compensate=0.00 /  psy_rd=0.70:0.10 / mixed_ref=1 / me_range=48 / chroma_me=1 / trellis=2 / 8x8dct=1 / cqm=0 / deadzone=21,11 / fast_pskip=0 / chroma9 e: J" G' l! w1 k  r# G0 Y3 K
Default : Yes
" _0 A  ?3 ?9 o) r/ u' }. zForced : No
  e$ G1 u7 _8 h" v! d7 [! [# M) uColor range : Full
4 j# W  w8 u* z) i# IColor primaries : BT.709
# b. ^" W2 L4 n$ aTransfer characteristics : BT.709
, f, m5 [) X+ W0 CMatrix coefficients : BT.7094 p1 [8 j) R' e1 z2 c6 `

3 _0 ~+ X; U6 y& v  H0 KAudio # 1
9 p9 ^: r3 D  }0 C( kID : 2# c" R3 T% D4 _* W8 ]2 Q
Format : FLAC4 S/ K3 t1 ], O9 J3 j9 r
Format/Info : Free Lossless Audio Codec" i4 G7 F4 U1 g. Y( s
Codec ID : A_FLAC
7 d! P7 o; R6 yDuration : 45 s 1 ms
/ G3 F6 S+ b- \% x2 \8 G( }Bit rate mode : Variable ' L* p* Y) L, @6 S
Bit rate : 3658 Kbps* _+ g( b4 L  s5 @3 {/ T
Channel(s) : 6 channels 2 X- y% H- D! [: f) |8 x% L
Sampling rate : 48.0 KHz
5 F- R! [, S. c% }9 o: bFrame rate : 11.733 FPS (4091 spf) 6 C$ N3 G5 \  w+ k; l
Bit depth : 24 bits
, I2 i7 z% r7 a0 g9 z9 mStream size : 19.6 MiB (5%)
5 @6 Y8 [1 D. e6 H4 h+ B; RTitle : FLAC
# {% g( Q3 d7 {  V6 G+ C% }. |, ^0 [Writing Iibrary : IibFLAC 1.2.1 (UTC 2007-09-17)
! N; l/ ~1 L6 y" @* QLanguage : Russian5 L% b/ `% s) P1 V
Default : Yes / x' ^. V2 I. J6 [5 g) G6 |) U
Forced : No8 y0 Q2 L! @2 g7 x3 z

* ~, l9 D/ Q! B" XAudio # 2
' z0 f3 ?; N7 _% p+ pID : 3
7 K$ u, f# e8 t4 |7 dFormat : FLAC
3 N, F: V: Q) N0 X! P" {# `Format/Info : Free Lossless Audio Codec
, X# v8 e, g# |8 H5 dCodec ID : A_FLAC% B; J7 p, x8 x2 G1 q* J3 i* j
Duration : 45 s 1 ms
7 z# a0 X$ ?: j2 uBit rate mode : Variable
5 A, Q$ C! r6 s* V; GBit rate : 3575 Kbps
( ]2 ?, p( [! B& j* xChannel(s) : 6 channels
  d; Q( [9 k1 H8 l0 Q) T  RSampling rate : 48.0 KHz
8 a+ P& h6 G( _- Q8 D- }3 x3 s# yFrame rate : 11.733 FPS (4091 spf)
: D+ e4 A; r: X+ ?3 cBit depth : 24 bits
' ], s) w7 F: Z9 G  NStream size : 19.2 MiB (5%)1 q3 i! Z8 q2 o
Title : FLAC$ y# p$ v3 D& n6 N% Z
Writing Iibrary : IibFLAC 1.2.1 (UTC 2007-09-17)
8 c' Y& N* e& R% B0 zLanguage : English3 C! ~3 Y  X% U7 F; C4 c
Default : No
/ J, q) ^7 S% B! E9 H8 rForced : No
7 u3 i$ j- L1 H  d8 n2 t. D! `/ d% o6 P4 R5 z" {. \
Audio # 3
& S4 R6 _! @3 b- TID : 49 t* u8 v% `9 C9 v+ S' `' k. l
Format : FLAC
5 x" ?4 _& O; E8 t/ lFormat/Info : Free Lossless Audio Codec
5 q6 ?4 t5 P' p3 O4 [' X2 e, j  ^; a8 xCodec ID : A_FLAC& x9 o* G5 A" E
Duration : 45 s 1 ms
1 @0 g! J$ R6 W* |$ _4 g! J# Y( W$ |Bit rate mode : Variable & b  q. Z: C, x% V
Bit rate : 3641 Kbps
. c+ F7 r0 u% e3 X5 ^- w+ CChannel(s) : 6 channels
% S: i) ~) S9 @1 ESampling rate : 48.0 KHz
2 ]; {$ B+ R! A2 _( a0 W% jFrame rate : 11.733 FPS (4091 spf)
+ t4 ?6 l5 C+ U* Y9 ~5 p. dBit depth : 24 bits 0 H. \9 S6 i9 B4 l1 k
Stream size : 19.5 MiB (5%)/ r- L* @% R" e4 U
Title : FLAC' W* n) k1 P3 C2 z0 n
Writing Iibrary : IibFLAC 1.2.1 (UTC 2007-09-17)
, e; K# B5 `# j$ P' LLanguage : French
' ?2 O8 g$ w; g6 f5 L3 l9 \3 a; CDefault : No
6 X1 d- g1 R  K( UForced : No
7 b6 n" U* }& }+ j& K; ZBonus Video(1998 x 1080/10 bits/MKV/267MB)
4 W# T) f/ A. z) z: h# M/ I& u

www.hao4k.com

www.hao4k.com

0 O& V5 \! W' P6 v1 u+ X9 X$ B0 X% W7 U/ g% g$ D0 l+ i7 {5 _

www.hao4k.com

www.hao4k.com

3 U- a3 ^9 o* _8 r/ D  ?' L/ ?3 D3 e) q. F2 m

www.hao4k.com

www.hao4k.com

" I9 {8 h! i7 z
: C: N* C1 j" w

www.hao4k.com

www.hao4k.com

4 r% D; z: ]8 m2 O0 I% n  l2 m$ ]  B* q( ^' a! S2 B

www.hao4k.com

www.hao4k.com
8 U, O0 ]) o. Y
IMAX 映前秀 2014 (高码率10bit)[2160P/MKV/407MB]
(俄语版/英文版/法语版)

( V4 ^  i4 Z1 p# ~( W' Y6 c2 ?" m0 e! l# c; l
IMAX 映前秀 4K画质 2014 (高码率10bit)[2160P/MKV/407MB]回复即可下载:
. ]6 L2 A3 ~1 K0 j4 s
游客,如果您要查看本帖隐藏内容请回复

2 b1 y3 i! D" g% u, i+ x$ V6 N& L0 C" R# T& n5 s% G

0

主题

9

帖子

0

K币

Rank: 1

威望
0
积分
10
盲目疯狂 发表于 2017-12-18 13:12:39 | 显示全部楼层
4k视频片源我来了,谢谢提供~~

0

主题

21

帖子

47

K币

Rank: 1

威望
0
积分
64
450971500 发表于 2017-12-18 13:23:29 | 显示全部楼层
非常感谢楼主分享啊

1

主题

421

帖子

5

K币

威望
0
积分
506
kwwsd 发表于 2017-12-18 13:26:55 | 显示全部楼层
提示: 作者被禁止或删除 内容自动屏蔽

0

主题

266

帖子

109

K币

Rank: 1

威望
0
积分
280
sap 发表于 2017-12-18 13:37:40 | 显示全部楼层
啥也不说了,感谢楼主在hao4k分享4k视频内容哇!

0

主题

16

帖子

0

K币

Rank: 1

威望
0
积分
16
徒手敬岁月 发表于 2017-12-18 13:43:06 来自手机 | 显示全部楼层
报告!别开枪,我就是路过来看看的。。。

0

主题

21

帖子

47

K币

Rank: 1

威望
0
积分
64
450971500 发表于 2017-12-18 13:57:50 | 显示全部楼层
比特精灵也下不动,什么情况

0

主题

7

帖子

4

K币

Rank: 1

威望
0
积分
15
dcm8679 发表于 2017-12-18 13:57:55 | 显示全部楼层
感谢提供

0

主题

11

帖子

0

K币

Rank: 1

威望
0
积分
14
夜夜梦中见 发表于 2017-12-18 14:09:35 | 显示全部楼层
求沙发

0

主题

51

帖子

284

K币

Rank: 1

签到达人

威望
0
积分
156
suren 发表于 2017-12-18 14:18:47 | 显示全部楼层
啥也不说了,感谢楼主在hao4k分享4k视频内容哇!
您需要登录后才可以回帖 登录 | 立即注册

本版积分规则

Copyright   ©2015-2016  hao4k  Powered by©Discuz!