发表于 2017-12-18 13:00 | 显示全部楼层 |阅读模式
& c) a2 I( |) K
IMAX 映前秀 4K画质 2014 (高码率10bit)[2160P/MKV/407MB]- y7 t) `# K- L. _

3 H7 U( x7 ?4 D) C

www.hao4k.com

www.hao4k.com
' ?  q* y' v4 o5 s% p7 {

; s! Y5 {9 o& K5 m; ]9 _

www.hao4k.com

www.hao4k.com
, r0 N1 ^$ H; w, V3 s( P, \
* P$ ^  S& ?$ k* M2 I1 F/ P/ p

www.hao4k.com

www.hao4k.com

4 c5 [8 u, U# z5 X/ J' V
8 p/ E* ~2 ?; D% E: H8 d, S4 e

www.hao4k.com

www.hao4k.com
- o% q  Q( m6 ~* O$ H. l1 g5 |
8 x6 A3 V8 |' }, \
8 n* o4 @! T. S: C

www.hao4k.com

www.hao4k.com
- t- Z; c6 o7 j4 O8 ]

5 l& r- S8 K, ?- y1 d
General # 1 : W" p, K  k$ S. O5 J
Unique ID : 195157117066491931367296159606153158625(0x92D1E4C07867BA27A2B8E3962CD01FE1)
* _! q  S) y! j- q1 e3 G( ^Complete name : IMAX PreShow.mkv, F. y3 ~0 c' q/ j& Y7 E
Format : Matroska
( N) Z  P3 R( BFormat version : Version 4 / Version 2 / A, k- ]7 l; a: s7 \
File size : 407 MiB
8 U- s+ s/ o5 uDuration : 45 s 1 ms
% h! T7 L6 Y4 p$ b0 f4 C3 pOverall bit rate mode : Variable1 ~" u; B, u0 x6 r7 L- S3 Q# t7 _" i
Overall bit rate : 75.9 Mbps 6 K6 P9 n7 \$ G: O
Movie name : Test Fox raitings
1 S9 o7 G9 a  Q' K& ]# x& a  TEncoded date : UTC 2014-12-30 12:07:48
( ]4 t! T% _/ C' K! n: EWriting application : mkvmerge v7.4.0 ('Circles') 64bit built on Dec 12 2014 12:19:56
) y/ s+ N/ j' [) G7 Y; C/ ZWriting library : libebml v1.3.0 + libmatroska v1.4.1
. W2 s/ h7 h* J* [. p2 T6 k: j' e- L/ w2 D' A
Video # 1 $ j. P# E* `. l
ID : 1
# m6 T0 }* o" ^* q% `% QFormat : AVC
* D, r% w  T" F) ^1 C3 OFormat/Info : Advanced Video Codec
, B9 V( s0 B5 V& ~: p# c) |$ y8 cFormat profile : High 10@L5.1
/ A  v6 P: Y6 {7 ?0 ?Format settings, CABAC : Yes 4 T7 K& e& z5 k5 Z* h/ B# p$ e2 y
Format settings, ReFrames : 12 frames
: i+ N+ l: ]! |( G, Q4 Q# @Codec ID : V_MPEG4/ISO/AVC
2 y2 Y/ b# G" S2 x; y' W5 S5 S  fDuration : 45 s 0 ms' v+ m0 J& P) F' ?5 Q
Bit rate : 65.1 Mbps' h1 a1 u( L9 i! |* H! n! V0 V
Width : 3996 pixels
$ k1 ~- ^% J5 L2 b! ^Height : 2160 pixels
7 j: N$ }2 F. Z" |3 yDisplay aspect ratio : 1.85:1
" s* m2 c4 C" z2 l3 h0 tFrame rate mode : Constant / D+ j5 C0 d5 Y! a
Frame rate : 24.000 FPS& C" q! N% ~) \: U+ G; v' N
Color space : YUV
  N& r/ q, r7 m( F# bChroma subsampling : 4:2:0
" D& |' n+ ^* ^2 H4 P# g! ]Bit depth : 10 bits " W0 j$ M5 `& z! ^3 @0 i' h+ q' }: n
Scan type : Progressive
, A) y- z) z* ]3 l3 eBits/(Pixel*Frame) : 0.314. Y4 t3 k9 t5 p6 S' Y
Stream size : 349 MiB (86%)
3 t* f0 a+ F1 o: y4 _* jTitle : DCPrip, h264, 10-bit, 420 css, pc range8 l3 Y7 f6 L, P' l/ Q- \6 y1 l
Writing library : x264 core 142 r2431+42 c69a006 tMod [10-bit@ALL X86_64]
( f' ], w" K( @% l8 yEncoding settings : cabac=1 / ref=12 / deblock=1:-3:-2 / analyse=0x3:0x133 / me=tesa / subme=11 / psy=1 /  fade_compensate=0.00 /  psy_rd=0.70:0.10 / mixed_ref=1 / me_range=48 / chroma_me=1 / trellis=2 / 8x8dct=1 / cqm=0 / deadzone=21,11 / fast_pskip=0 / chroma
) W& ^& H8 c( y/ G) zDefault : Yes
7 X! {$ a6 o! L, m  TForced : No   q' N4 I# ?) _$ x7 I( L5 ^
Color range : Full
1 }! w0 F) w: \) p/ O' r; z; oColor primaries : BT.709
' M- b/ e  Y/ `: [Transfer characteristics : BT.7093 h' F9 Y# o* i. o  B: C* c
Matrix coefficients : BT.709# g! m5 I! X: R) m+ {- O4 e- H. `
" H0 E: S* z6 h9 V; K2 ^$ c
Audio # 1 # X$ e% y) y! O7 W6 ]; w
ID : 2
* @* f& }; X! _- n2 g2 hFormat : FLAC
8 [- K! ^8 g! m, d8 pFormat/Info : Free Lossless Audio Codec
4 c0 x$ C7 N& w3 QCodec ID : A_FLAC3 A( X. g1 o% M5 k& T: c0 J$ }' _
Duration : 45 s 1 ms
) s( Q* ]! t# B) N8 [* ZBit rate mode : Variable
  K$ M. R4 u0 m2 QBit rate : 3658 Kbps$ h" T& F  {/ A. C1 s* U
Channel(s) : 6 channels
. e4 Q1 e, I$ b* v3 s: t0 cSampling rate : 48.0 KHz   H. x  K) Q# J$ y, G9 c9 w0 U
Frame rate : 11.733 FPS (4091 spf) % W: |+ f2 y! i3 \0 u0 i  [6 ]
Bit depth : 24 bits
! [, m5 L2 C# S) x* LStream size : 19.6 MiB (5%)
& c- e8 L1 j% P9 v  P+ h# B4 C2 MTitle : FLAC
( l* X% m+ {+ vWriting Iibrary : IibFLAC 1.2.1 (UTC 2007-09-17) ' G4 |6 F0 _/ V+ m. O; |/ N- ?
Language : Russian" u' {& c) H% p! ~& a) E
Default : Yes
- H; ?3 x) J/ |! _Forced : No8 H2 C' y9 e2 T8 }. E1 C5 O  ?

" D, ~, l. ?2 y# U$ ^3 ]! bAudio # 21 X7 g1 D' L1 g: ~1 `9 f
ID : 3
+ T- d, \8 ]6 ?& I. r9 X- VFormat : FLAC
: }3 `- |- _- }Format/Info : Free Lossless Audio Codec5 q! u; r! R! y7 _/ W
Codec ID : A_FLAC  R7 a5 w. C4 ?7 n1 N9 Z' U: C
Duration : 45 s 1 ms- n1 b) O9 l8 b
Bit rate mode : Variable 8 p$ {, S% A" s6 S
Bit rate : 3575 Kbps/ o, X$ s0 b, e  p: ]# m
Channel(s) : 6 channels 8 R2 G  `& R- x/ @! r/ B
Sampling rate : 48.0 KHz
" ~0 P( f1 ~9 zFrame rate : 11.733 FPS (4091 spf)
' p! Z/ B7 ]4 W% a" {( rBit depth : 24 bits
3 D9 y6 I4 E/ r) P' J% `8 ]Stream size : 19.2 MiB (5%); \+ t3 y- I! r" H) a: E! s
Title : FLAC' N4 w# i. v! E- r6 n2 L
Writing Iibrary : IibFLAC 1.2.1 (UTC 2007-09-17)
$ T( O. ~4 k# v) v4 M+ tLanguage : English1 E, g8 V: O3 h/ q' V
Default : No
1 {( ^8 }( B) M3 DForced : No3 [7 x! N# A; ~, u3 X8 o# u  t
" D6 }) }0 a- {" b' S0 h
Audio # 3
! m% O- e0 s+ ~4 u6 CID : 4
. _5 B3 m; ]! G2 K7 p$ CFormat : FLAC
* `( V4 W$ l. W: h8 m2 `6 I0 yFormat/Info : Free Lossless Audio Codec
# q" A( Y5 m4 U+ A4 q* k2 i+ \Codec ID : A_FLAC8 L; w2 g1 Q/ Q
Duration : 45 s 1 ms4 a8 A, Y. \: ~$ a6 ^  j# o
Bit rate mode : Variable
9 \) {: q* d) r5 gBit rate : 3641 Kbps
9 s8 j6 G) D* q" t/ q/ b8 l( Y5 h; \Channel(s) : 6 channels 1 d6 k) @5 ]4 Y# k* \+ b( O
Sampling rate : 48.0 KHz ) \2 t  M3 S8 {2 F2 B. r) Q
Frame rate : 11.733 FPS (4091 spf) : }( S8 [. d6 T
Bit depth : 24 bits
5 c% c) D3 D8 ]- G- P& kStream size : 19.5 MiB (5%)
: K* Y0 O; Q% C. }' z; kTitle : FLAC. l, N3 g. y% P  ~
Writing Iibrary : IibFLAC 1.2.1 (UTC 2007-09-17) ' z# m  i+ o+ U
Language : French
4 I( A; T( T9 GDefault : No
7 m& B- N1 p0 P- Q6 U* w! v/ oForced : No
: l* L0 [& \0 X/ r8 ~, cBonus Video(1998 x 1080/10 bits/MKV/267MB)

3 ?( l7 B, F. q, W  f1 T

www.hao4k.com

www.hao4k.com

! v$ n" C1 e& C
+ E% Z" Q& @/ p, t" q) z

www.hao4k.com

www.hao4k.com

# z5 @. e3 \' N! L- L' m' U
% M4 z1 a/ P% E( ^: A+ O

www.hao4k.com

www.hao4k.com
. G( x/ o. V5 K. H: z3 z' ?  w

* H4 l! i) \4 N5 F8 ~' t

www.hao4k.com

www.hao4k.com
1 K3 E7 _# |- t" B. u( _

7 J. L' P/ ]" Q- W6 `2 B4 G, A+ a7 n

www.hao4k.com

www.hao4k.com

6 S6 a- T. N/ `1 Z; J. _
IMAX 映前秀 2014 (高码率10bit)[2160P/MKV/407MB]
(俄语版/英文版/法语版)
4 Q' \" T# s9 |' q/ k7 v- D
+ A/ f! z+ d+ O( d. Y8 Y% A: g9 ^
IMAX 映前秀 4K画质 2014 (高码率10bit)[2160P/MKV/407MB]回复即可下载:
2 ^0 {8 \" d" o) L% _
游客,如果您要查看本帖隐藏内容请回复

/ C( q0 U' d4 T: I
' m; A8 ]9 Y. `
发表于 2017-12-18 13:12 | 显示全部楼层
4k视频片源我来了,谢谢提供~~
发表于 2017-12-18 13:23 | 显示全部楼层
非常感谢楼主分享啊
头像被屏蔽
发表于 2017-12-18 13:26 | 显示全部楼层
提示: 作者被禁止或删除 内容自动屏蔽
发表于 2017-12-18 13:37 | 显示全部楼层
啥也不说了,感谢楼主在hao4k分享4k视频内容哇!
发表于 2017-12-18 13:43 来自手机 | 显示全部楼层
报告!别开枪,我就是路过来看看的。。。
发表于 2017-12-18 13:57 | 显示全部楼层
比特精灵也下不动,什么情况
发表于 2017-12-18 13:57 | 显示全部楼层
感谢提供
发表于 2017-12-18 14:09 | 显示全部楼层
求沙发
发表于 2017-12-18 14:18 | 显示全部楼层
啥也不说了,感谢楼主在hao4k分享4k视频内容哇!
您需要登录后才可以回帖 登录 | 立即注册

本版积分规则

返回顶部 联系我们