lili 发表于 2017-12-18 13:00 | 显示全部楼层 |阅读模式
IMAX 映前秀 4K画质 2014 (高码率10bit)[2160P/MKV/407MB]" N7 _# D3 B6 y5 t( F
- u6 i6 @3 O7 F9 f/ H

www.hao4k.com

www.hao4k.com

- z# \$ s& [5 h7 }  C% Y
# {! W6 L" q. ^

www.hao4k.com

www.hao4k.com

, {8 m& ?4 h7 ]: M/ b7 W; i, M) Q9 t$ i# H, M1 s# w7 O6 o

www.hao4k.com

www.hao4k.com

, p- t0 h' H2 g8 x- E3 x9 e" C4 s( K, ^2 S3 B1 |9 X; j, a3 S$ p

www.hao4k.com

www.hao4k.com

. f- J" J$ R) s9 d: T7 N7 A' I/ V: L

* G9 B3 E2 l4 S

www.hao4k.com

www.hao4k.com

0 [. M0 F! y! [2 v" L
; V2 ?, `& _. G' f, c' j1 e
General # 1
% h, G5 m4 {' h! a, c# vUnique ID : 195157117066491931367296159606153158625(0x92D1E4C07867BA27A2B8E3962CD01FE1)
+ x% L/ @  t6 k8 [Complete name : IMAX PreShow.mkv
  ?2 r! ^+ P9 H/ mFormat : Matroska
8 i. V$ f. Y: RFormat version : Version 4 / Version 2
3 X$ ], l% Q8 J' K7 kFile size : 407 MiB
. F# b9 u0 H8 t  q8 m* j8 }Duration : 45 s 1 ms, M9 l; I' ]9 Z5 \  I- L# C
Overall bit rate mode : Variable
, L) z+ T2 |7 c  V- nOverall bit rate : 75.9 Mbps
' n8 Y& E: n* f, h0 S1 [# H9 sMovie name : Test Fox raitings
0 H* a3 J" p7 D. M1 ]Encoded date : UTC 2014-12-30 12:07:48- y# _5 Y: D* r5 L) F. S2 p# j: H% z  o
Writing application : mkvmerge v7.4.0 ('Circles') 64bit built on Dec 12 2014 12:19:56' U$ m/ k' e/ V- r$ o
Writing library : libebml v1.3.0 + libmatroska v1.4.1& L' c8 M' |2 y- U0 {
- k/ t3 _: i3 E+ n
Video # 1
* r/ s& }- v2 y* WID : 1
8 A7 R$ e; z- T0 c# u! nFormat : AVC
& \/ L3 V1 Z8 f, g; ]$ hFormat/Info : Advanced Video Codec
% q: \( u; j: t5 I7 U! FFormat profile : High 10@L5.1
1 `' ]1 |; P+ R) B& \7 _) v8 eFormat settings, CABAC : Yes
# _- y* j+ i3 c' O  ~; PFormat settings, ReFrames : 12 frames   {1 E! M7 {" h$ U5 X/ I4 Z3 H
Codec ID : V_MPEG4/ISO/AVC
9 ?+ [8 r% [4 F+ F. lDuration : 45 s 0 ms) ]7 e2 p) _2 u. i" F6 |. w
Bit rate : 65.1 Mbps& X: D+ }$ I+ Q8 Y  v' k/ o
Width : 3996 pixels ) b+ S- \7 n2 C$ h9 i. U
Height : 2160 pixels 3 Q+ K4 H8 H( l* L& l! b/ i
Display aspect ratio : 1.85:1! [& {9 c1 N* x$ \0 U% w% k
Frame rate mode : Constant
9 d( l: `) ]! ]6 D- j' ZFrame rate : 24.000 FPS0 N+ g: H; P2 w! i; A
Color space : YUV + N! g: K, J  N' E0 Z/ J0 m
Chroma subsampling : 4:2:0
' }( {# L2 n; j, v% [1 |% Z5 _Bit depth : 10 bits 0 j; m7 b5 r4 s% @$ y+ C. T
Scan type : Progressive
* _) j% ]: Z% lBits/(Pixel*Frame) : 0.314
" ^, d. |6 y) M) c- j$ ~* |Stream size : 349 MiB (86%)$ o7 W9 k- m6 F1 b
Title : DCPrip, h264, 10-bit, 420 css, pc range* W' {. k' I8 y* _/ Z* X6 _
Writing library : x264 core 142 r2431+42 c69a006 tMod [10-bit@ALL X86_64]
( K. e4 Q) C' U0 vEncoding settings : cabac=1 / ref=12 / deblock=1:-3:-2 / analyse=0x3:0x133 / me=tesa / subme=11 / psy=1 /  fade_compensate=0.00 /  psy_rd=0.70:0.10 / mixed_ref=1 / me_range=48 / chroma_me=1 / trellis=2 / 8x8dct=1 / cqm=0 / deadzone=21,11 / fast_pskip=0 / chroma' T7 b! e( q2 a
Default : Yes ! D9 {: j. z/ ?3 v0 H5 W, u
Forced : No : `$ {& e6 N9 g% k0 _: e
Color range : Full
, J/ m/ X/ p6 d2 b' hColor primaries : BT.709, y" ~, z) m7 u3 m
Transfer characteristics : BT.709
5 b1 J4 q6 d) {* i7 l. n: y* lMatrix coefficients : BT.709
# t2 T) [( e, Q$ H, K
' s4 U8 I/ T# R- U% h8 aAudio # 1 / N3 m; s2 t6 H9 g2 B; ^$ A: m
ID : 2
/ {* o7 a: m$ H. n5 P' FFormat : FLAC
/ [+ Q0 M. h) z4 }& N: [% `$ Q; dFormat/Info : Free Lossless Audio Codec
. H; K2 `" O+ s; kCodec ID : A_FLAC
, C, V; z4 m/ n  ~Duration : 45 s 1 ms
# J- C3 Q9 q; n7 H+ S3 ABit rate mode : Variable * U- [; k' p" }" C4 F  J
Bit rate : 3658 Kbps
- s, S& r. F) M3 a* CChannel(s) : 6 channels
3 H9 X2 v' P, dSampling rate : 48.0 KHz
. j" c' l+ \; ^2 c# e. R4 g3 eFrame rate : 11.733 FPS (4091 spf)   H# u5 p! ]* n, h, |- i" i
Bit depth : 24 bits
* o( w& _7 r1 O0 s. S! j+ P) hStream size : 19.6 MiB (5%)+ B: o( ^2 q3 ^7 F8 O4 x
Title : FLAC$ l( A! n8 g- Z/ Z
Writing Iibrary : IibFLAC 1.2.1 (UTC 2007-09-17)
; B7 P% X4 V( G2 ULanguage : Russian. K8 c. g- q: e9 Z
Default : Yes
) i8 `( q2 ~4 F- {: o, bForced : No
' c* Q; \8 l* A3 J1 x$ O
6 ^: f  x0 X- _" p4 YAudio # 22 Y6 _& ~0 u; H3 A" x
ID : 32 z6 u0 \  g9 J9 p3 [+ ^
Format : FLAC# n/ K5 r# Z7 a" A- Q# ]6 C' W
Format/Info : Free Lossless Audio Codec
: v. @9 S# p* y" z( E+ i' fCodec ID : A_FLAC, C4 H9 O0 l# E' X
Duration : 45 s 1 ms# N. V+ g5 [# l" H  k4 P* p
Bit rate mode : Variable 9 L* c' I4 r0 G: i+ y' K! }) ]! w
Bit rate : 3575 Kbps
0 V* w, c) N! ~; L$ i# OChannel(s) : 6 channels
. P" a, ?% y+ B, y  MSampling rate : 48.0 KHz
6 q" s6 g7 B/ g8 w/ W. q4 w3 EFrame rate : 11.733 FPS (4091 spf)
. V7 A( G! M& s+ ?% t& V2 \% F; cBit depth : 24 bits % b# B, o/ Q% e" L7 k
Stream size : 19.2 MiB (5%)
2 B7 _* L( k8 q; N( uTitle : FLAC; l; I9 W1 f1 @, s7 U
Writing Iibrary : IibFLAC 1.2.1 (UTC 2007-09-17) 6 C7 G4 q0 _7 f" F8 p
Language : English" J+ a  h2 }7 j! n% B' H) g
Default : No
9 p. D# D- Z) A% @Forced : No% @8 {  C8 F, m; {

& o# }( d8 s) w- ?8 lAudio # 3
3 }4 G0 X% G' h% Z6 G% WID : 4
  x+ m: \% A& w" R! h) JFormat : FLAC* X4 n3 f0 d+ n3 |0 r6 l( \3 O% A  z; h
Format/Info : Free Lossless Audio Codec6 S' u" c* L/ l0 h; u
Codec ID : A_FLAC
4 f% `: y+ u: R6 h; Y" LDuration : 45 s 1 ms3 z1 H3 C+ D. e
Bit rate mode : Variable
7 t( u. S1 T( P9 OBit rate : 3641 Kbps2 P) N5 q, n) k' C
Channel(s) : 6 channels 7 u0 r+ F  E7 a  r0 \$ r; p
Sampling rate : 48.0 KHz
1 n2 W5 C( f) ~2 nFrame rate : 11.733 FPS (4091 spf)
3 d4 d$ i+ x2 ?2 \$ f" j% uBit depth : 24 bits 8 g: v2 h  @# A
Stream size : 19.5 MiB (5%)
# t+ b9 Q, y: X/ [0 RTitle : FLAC! U3 i- B: ~4 a! ?
Writing Iibrary : IibFLAC 1.2.1 (UTC 2007-09-17)
. J  n5 u1 \( [$ o- hLanguage : French
+ l$ l; g. W1 q& o+ {& F$ k, DDefault : No
5 |- J4 R4 b6 A4 NForced : No1 p* V# n7 ?2 D/ b' O3 F# q9 O
Bonus Video(1998 x 1080/10 bits/MKV/267MB)

0 |) r" c4 i& \2 y/ [$ D

www.hao4k.com

www.hao4k.com
. p4 W4 N) Y# m1 C5 L

% l. Y' v* H$ |1 o4 t

www.hao4k.com

www.hao4k.com
8 n& s% c/ ?/ o( N! d6 L1 W

# `# @& R! r" Q+ y7 b- W

www.hao4k.com

www.hao4k.com

$ R- \/ J1 J9 m# D6 T+ F1 d* x
3 I# d* B/ ]# k

www.hao4k.com

www.hao4k.com

' p' @% f+ i9 c8 b5 \1 d* [+ S8 `$ ^8 V$ ]) m

www.hao4k.com

www.hao4k.com

; ^8 L4 K+ ]1 g+ u! f; j/ \7 M
IMAX 映前秀 2014 (高码率10bit)[2160P/MKV/407MB]
(俄语版/英文版/法语版)
! L9 Q- {- B4 {0 \% \

. c5 ?( E; u' [1 J8 t5 R, ?IMAX 映前秀 4K画质 2014 (高码率10bit)[2160P/MKV/407MB]回复即可下载:2 ~# `0 i# m) ~  W# R# Q
游客,如果您要查看本帖隐藏内容请回复
1 U" D; Z* P: K6 C3 Q4 i# ?

& H3 N& _8 \+ l3 x; t
JF老鬼 发表于 2018-10-21 20:24 | 显示全部楼层
看起来不错。。
as785218439 发表于 2018-10-16 19:18 | 显示全部楼层
支持Hao4k发展
jjhjjhjjh 发表于 2018-10-16 12:46 | 显示全部楼层
终于找到了
pon621 发表于 2018-10-16 11:44 | 显示全部楼层
; N  N" `- v/ s, ]
支持一下hao4k!
beaka 发表于 2018-10-15 16:03 | 显示全部楼层
支持Hao4k发展
vid1994 发表于 2018-10-15 15:27 | 显示全部楼层
哈哈哈哈哈哈哈哈哈哈哈哈哈
naexive 发表于 2018-10-14 19:01 | 显示全部楼层
感谢分享,画面看起来真的很不错
yanpeng666666 发表于 2018-10-14 16:50 | 显示全部楼层
由衷感谢Hao4k平台提供4K资源,可以试试我家的私人影院了。
skey32323 发表于 2018-10-13 21:18 | 显示全部楼层
这个4K资源很不错哦,我喜欢。赶紧试试我家4K电视
nbzyin 发表于 2018-10-13 20:15 | 显示全部楼层
支持Hao4k发展
walterwong 发表于 2018-10-13 19:19 来自 移动版  | 显示全部楼层
We're just arrived in Shanghai, this SIM card would be unavailable from now on. When we get home, I will send email to you guys. Love you all.
' c( Z& C3 s/ {8 l1 z# jWinnie & Walter
memyself 发表于 2018-10-13 09:24 | 显示全部楼层
谢谢分享,试试看imac5K能否正常播放
chj001 发表于 2018-10-12 22:57 | 显示全部楼层
支持Hao4k发展
wan312 发表于 2018-10-10 00:44 | 显示全部楼层
质地非常不错
hsir 发表于 2018-10-9 20:52 | 显示全部楼层
感谢分享,早就想下一个IMAX测试视频了
leopold927 发表于 2018-10-9 11:38 | 显示全部楼层
由衷感谢Hao4k平台提供4K资源,可以试试我家的私人影院了。
lefeixx 发表于 2018-10-7 11:40 | 显示全部楼层
不错不错!谢谢楼主的分享
您需要登录后才可以回帖 登录 | 立即注册

本版积分规则

返回顶部 联系我们