发表于 2017-12-26 22:23 | 显示全部楼层 |阅读模式

片  名:星际特工:千星之城 4k [下载地址在帖子底部]

  • 年  代:2017  
  • 国  家:美国 
  • 类  别:动作 科幻 冒险 
  • 字  幕:英文原版
  • 上映日期:2017-08-25
  • 文件格式:mkv   
  • 视频效果:4K(3840x2160)    
  • 文件大小:60.53GB
  • 片  长:137分钟
  • 导  演:吕克·贝松
  • 豆瓣链接:https://movie.douban.com/subject/11502973/
  • 主  演:戴恩·德哈恩 / 卡拉·迪瓦伊 / 克里夫·欧文 / 蕾哈娜 / 伊桑·霍克 / 赫比·汉考克 / 吴亦凡 / 萨姆·斯普卢尔 / 阿兰·夏巴 / 鲁特格尔·哈尔 / 泽维尔·吉亚诺利 / 约翰·古德曼 / 山姆·道格拉斯

剧情简介

 人类和众多外星种族共同生活在一个名为千星之城阿尔法的繁华星际大都市,数百年来,千星之城阿尔法成为各族群和平共处的美妙天堂,它繁荣昌盛。韦勒瑞恩(戴恩·德哈恩 Dane DeHaan 饰)和洛瑞琳(卡拉·迪瓦伊 Cara Delevingne 饰)被选择成为阿尔法的守护者,他们俩是警卫部的执行人员,被任命去拦截一种稀有物品的交易。这种稀有物品与一个本该在数十年前就消失的稀有族群存在神秘的关联。然后他们来到了巨大的千星之城阿尔法城,这时他们的指挥官Arun Filitt(克里夫·欧文饰)在指挥中心遭到绑架,这对搭档开始意识到手中物品的不寻常价值。二人追寻凶手,发现自己身陷一场正在发酵的星际事件中……
星际特工:千星之城 4kliulanpian.jpg
瓦莱里安与一千颗行星的城市 / 星际特工瓦雷诺:千星之城(台) / 瓦莱里安与千星之城 / 星际特工:千星之城 4k Valerian and the City of.a Thousand Planets 2017 2160p BluRay HEVC TrueHD 7.1 Atmos-TASTED  4K UHD蓝光原盘电影资源说明

第一百六十八部 4K UHD 蓝光原盘破解版,含完整的 BDMV 文件夹以及数据,AACS 2.0 协议已被完整破解
DISC INFO:

Disc Title: Valerian.and.the.City.of.a.Thousand.Planets.2017.2160p.BluRay.HEVC.TrueHD.7.1.Atmos-TASTED
Disc Size: 64,999,748,960 bytes
Protection: AACS2
BD-Java: No
Extras: Ultra HD
BDInfo: 0.5.8.7 (compatible layout created by DVDFab 10.0.7.3)

PLAYLIST REPORT:

Name: 00003.MPLS
Length: 2:17:24.653 (h:m:s.ms)
Size: 63,951,740,928 bytes
Total Bitrate: 62.05 Mbps

VIDEO:

Codec Bitrate Description
—– ——- ———–
MPEG-H HEVC Video 49986 kbps 2160p / 23.976 fps / 16:9 / Main 10 Profile 5.1 High / 4:2:0 / 10 bits / HDR / BT.2020 /

AUDIO:

Codec Language Bitrate Description
—– ——– ——- ———–
Dolby Atmos/TrueHD Audio German 3751 kbps 7.1-Atmos / 48 kHz / 3751 kbps / 16-bit (AC3 Core: 5.1-EX / 48 kHz / 640 kbps)
Dolby Atmos/TrueHD Audio English 3738 kbps 7.1-Atmos / 48 kHz / 3738 kbps / 16-bit (AC3 Core: 5.1-EX / 48 kHz / 640 kbps)

SUBTITLES:

Codec Language Bitrate Description
—– ——– ——- ———–
Presentation Graphics German 23.961 kbps
Presentation Graphics English 29.165 kbps
Presentation Graphics German 0.098 kbps
Presentation Graphics English 0.057 kbps

Video
ID                                       : 1
Format                                   : HEVC
Format/Info                              : High Efficiency Video Coding
Format profile                           : Main 10@L5.1@High
Codec ID                                 : V_MPEGH/ISO/HEVC
Duration                                 : 2 h 17 min
Bit rate                                 : 49.6 Mb/s
Width                                    : 3 840 pixels
Height                                   : 2 160 pixels
Display aspect ratio                     : 16:9
Frame rate mode                          : Constant
Frame rate                               : 23.976 (24000/1001) FPS
Color space                              : YUV
Chroma subsampling                       : 4:2:0 (Type 2)
Bit depth                                : 10 bits
Bits/(Pixel*Frame)                       : 0.249
Stream size                              : 47.6 GiB (81%)
Title                                    : Valerian.and.the.City.of.a.Thousand.Planets.2017.2160p.BluRay.REMUX.HEVC.DTS-HD.MA.TrueHD.7.1.Atmos-FGT
Writing library                          : ATEME Titan File 3.8.8 (4.8.8.0)        
Default                                  : Yes
Forced                                   : No
Color range                              : Limited
Color primaries                          : BT.2020
Transfer characteristics                 : PQ
Matrix coefficients                      : BT.2020 non-constant
Mastering display color primaries        : Display P3
Mastering display luminance              : min: 0.0050 cd/m2, max: 4000 cd/m2

Audio #1
ID                                       : 2
Format                                   : TrueHD
Format profile                           : TrueHD+Atmos / TrueHD
Codec ID                                 : A_TRUEHD
Duration                                 : 2 h 17 min
Bit rate mode                            : Variable
Bit rate                                 : 3 098 kb/s
Maximum bit rate                         : 4 347 kb/s
Channel(s)                               : Object Based / 8 channels
Channel positions                        : Object Based / Front: L C R, Side: L R, Back: L R, LFE
Sampling rate                            :  / 48.0 kHz
Frame rate                               : 1 200.000 FPS (40 SPF)
Compression mode                         : Lossless
Stream size                              : 2.97 GiB (5%)
Title                                    : Valerian.and.the.City.of.a.Thousand.Planets.2017.2160p.BluRay.REMUX.HEVC.DTS-HD.MA.TrueHD.7.1.Atmos-FGT
Language                                 : English
Default                                  : Yes
Forced                                   : No

Audio #2
ID                                       : 3
Format                                   : DTS
Format/Info                              : Digital Theater Systems
Format profile                           : MA / Core
Codec ID                                 : A_DTS
Duration                                 : 2 h 17 min
Bit rate mode                            : Variable / Constant
Bit rate                                 : 3 642 kb/s / 1 509 kb/s
Channel(s)                               : 8 channels / 6 channels
Channel positions                        : Front: L C R, Side: L R, Back: L R, LFE / Front: L C R, Side: L R, LFE
Sampling rate                            : 48.0 kHz
Frame rate                               : 93.750 FPS (512 SPF)
Bit depth                                : 24 bits
Compression mode                         : Lossless / Lossy
Stream size                              : 3.50 GiB (6%)
Title                                    : Valerian.and.the.City.of.a.Thousand.Planets.2017.2160p.BluRay.REMUX.HEVC.DTS-HD.MA.TrueHD.7.1.Atmos-FGT
Language                                 : English
Default                                  : No
Forced                                   : No

Audio #3
ID                                       : 4
Format                                   : AC-3
Format/Info                              : Audio Coding 3
Codec ID                                 : A_AC3
Duration                                 : 2 h 17 min
Bit rate mode                            : Constant
Bit rate                                 : 640 kb/s
Channel(s)                               : 6 channels
Channel positions                        : Front: L C R, Side: L R, LFE
Sampling rate                            : 48.0 kHz
Frame rate                               : 31.250 FPS (1536 SPF)
Bit depth                                : 16 bits
Compression mode                         : Lossy
Stream size                              : 629 MiB (1%)
Title                                    : Valerian.and.the.City.of.a.Thousand.Planets.2017.2160p.BluRay.REMUX.HEVC.DTS-HD.MA.TrueHD.7.1.Atmos-FGT
Language                                 : English
Service kind                             : Complete Main
Default                                  : No
Forced                                   : No

Audio #4
ID                                       : 5
Format                                   : TrueHD
Format profile                           : TrueHD+Atmos / TrueHD
Codec ID                                 : A_TRUEHD
Duration                                 : 2 h 17 min
Bit rate mode                            : Variable
Bit rate                                 : 3 111 kb/s
Maximum bit rate                         : 4 320 kb/s
Channel(s)                               : Object Based / 8 channels
Channel positions                        : Object Based / Front: L C R, Side: L R, Back: L R, LFE
Sampling rate                            :  / 48.0 kHz
Frame rate                               : 1 200.000 FPS (40 SPF)
Compression mode                         : Lossless
Stream size                              : 2.99 GiB (5%)
Title                                    : Valerian.and.the.City.of.a.Thousand.Planets.2017.2160p.BluRay.REMUX.HEVC.DTS-HD.MA.TrueHD.7.1.Atmos-FGT
Language                                 : German
Default                                  : No
Forced                                   : No

Audio #5
ID                                       : 6
Format                                   : AC-3
Format/Info                              : Audio Coding 3
Codec ID                                 : A_AC3
Duration                                 : 2 h 17 min
Bit rate mode                            : Constant
Bit rate                                 : 640 kb/s
Channel(s)                               : 6 channels
Channel positions                        : Front: L C R, Side: L R, LFE
Sampling rate                            : 48.0 kHz
Frame rate                               : 31.250 FPS (1536 SPF)
Bit depth                                : 16 bits
Compression mode                         : Lossy
Stream size                              : 629 MiB (1%)
Title                                    : Valerian.and.the.City.of.a.Thousand.Planets.2017.2160p.BluRay.REMUX.HEVC.DTS-HD.MA.TrueHD.7.1.Atmos-FGT
Language                                 : German
Service kind                             : Complete Main
Default                                  : No
Forced                                   : No

Text #1
ID                                       : 7
Format                                   : PGS
Muxing mode                              : zlib
Codec ID                                 : S_HDMV/PGS
Codec ID/Info                            : Picture based subtitle format used on BDs/HD-DVDs
Duration                                 : 2 h 8 min
Bit rate                                 : 31.1 kb/s
Count of elements                        : 4170
Stream size                              : 28.7 MiB (0%)
Title                                    : English-PGS
Language                                 : English
Default                                  : Yes
Forced                                   : No

Text #2
ID                                       : 8
Format                                   : PGS
Muxing mode                              : zlib
Codec ID                                 : S_HDMV/PGS
Codec ID/Info                            : Picture based subtitle format used on BDs/HD-DVDs
Duration                                 : 3 min 43 s
Bit rate                                 : 2 105 b/s
Count of elements                        : 10
Stream size                              : 57.4 KiB (0%)
Title                                    : English-FORCED-PGS
Language                                 : English
Default                                  : No
Forced                                   : No

Text #3
ID                                       : 9
Format                                   : PGS
Muxing mode                              : zlib
Codec ID                                 : S_HDMV/PGS
Codec ID/Info                            : Picture based subtitle format used on BDs/HD-DVDs
Duration                                 : 2 h 12 min
Bit rate                                 : 24.8 kb/s
Count of elements                        : 2988
Stream size                              : 23.5 MiB (0%)
Title                                    : German-PGS
Language                                 : German
Default                                  : No
Forced                                   : No

Text #4
ID                                       : 10
Format                                   : PGS
Muxing mode                              : zlib
Codec ID                                 : S_HDMV/PGS
Codec ID/Info                            : Picture based subtitle format used on BDs/HD-DVDs
Duration                                 : 2 h 11 min
Bit rate                                 : 102 b/s
Count of elements                        : 14
Stream size                              : 99.0 KiB (0%)
Title                                    : German-FORCED-PGS
Language                                 : German
Default                                  : No
Forced                                   : No

Menu
00:00:00.000                             : en:Chapter 1
00:11:12.213                             : en:Chapter 2
00:20:10.500                             : en:Chapter 3
00:30:38.336                             : en:Chapter 4
00:41:21.562                             : en:Chapter 5
00:51:37.344                             : en:Chapter 6
01:01:54.919                             : en:Chapter 7
01:10:50.996                             : en:Chapter 8
01:20:27.489                             : en:Chapter 9
01:34:23.741                             : en:Chapter 10
01:44:35.102                             : en:Chapter 11
01:57:01.723                             : en:Chapter 12
02:06:18.195                             : en:Chapter 13

瓦莱里安与一千颗行星的城市 / 星际特工瓦雷诺:千星之城(台) / 瓦莱里安与千星之城 / 星际特工:千星之城 4k Valerian and the City of.a Thousand Planets 2017 2160p BluRay HEVC TrueHD 7.1 Atmos-TASTED  4K UHD蓝光原盘电影下载

星际特工:千星之城 4k Valerian and the City of.a Thousand Planets 2017 2160p BluRay HEVC TrueHD 7.1 Atmos-TASTED   (4K UHD 蓝光原盘破解版 2160p   60.53GB)
游客,如果您要查看本帖隐藏内容请回复
星际特工:千星之城 4k  Valerian.and.the.City.of.a.Thousand.Planets.2017.2160p.BluRay.REMUX.HEVC.DTS-HD.MA.TrueHD.7.1.Atmos-FGT (4K UHD 蓝光原盘破解版 2160p   58.41GB)
游客,如果您要查看本帖隐藏内容请回复


发表于 2017-12-26 22:42 | 显示全部楼层
前排顶,很好!
发表于 2017-12-26 23:00 | 显示全部楼层
多谢楼主分享
发表于 2017-12-26 23:05 | 显示全部楼层
好,好,好,!!
发表于 2017-12-26 23:09 | 显示全部楼层

多谢楼主分享
发表于 2017-12-26 23:33 | 显示全部楼层
多谢楼主分享
发表于 2017-12-26 23:36 | 显示全部楼层
啥也不说了,感谢楼主在hao4k分享4k视频内容哇!
发表于 2017-12-26 23:43 | 显示全部楼层
多谢楼主分享
发表于 2017-12-26 23:44 | 显示全部楼层
啥也不说了,感谢楼主在hao4k分享4k视频内容哇!
发表于 2017-12-26 23:50 | 显示全部楼层
好电影,值得下载。
您需要登录后才可以回帖 登录 | 立即注册

本版积分规则

返回顶部 联系我们