lili 发表于 2017-12-29 08:50 | 显示全部楼层 |阅读模式

片  名:边境杀手4k [下载地址在帖子底部]

  • 导  演:丹尼斯·维伦纽瓦
  • 年  代:2015    
  • 国  家:美国   
  • 电影分类:冒险   惊悚   剧情   
  • 电影格式:MKV|REMUX   
  • 分 辨 率: 4K(3840x2160)    
  • 画质标准: 
  • 音质编码: 
  • 电影声道:
  • 电影语言:英文原版     
  • 资源大小:55.44GB
  • 中文字幕:https://www.hao4k.com/thread-29185-1-1.html

剧情简介

在美国与墨西哥的边界有一块灰色地带,那里是毒贩和杀手们的天堂,他们在此交易火并,完全视法律为无物。凯特(艾米莉·布朗特 Emily Blunt 饰)是联邦调查局的探员,心里怀揣着惩奸除恶的正义理想,她来到此地,加入了联邦政府特种部队,成为了马特(乔什·布洛林 Josh Brolin 饰)的部下。
  亚历桑德罗(本尼西奥·德尔·托罗 Benicio Del Toro 饰)是曾经卧底在毒枭身边的前任特工,马特找到了他,希望经验丰富的他能够成为行动小组的战略顾问,然而亲历过地狱的亚历桑德罗完全不按常理出牌,他的所作所为时常刺激着凯特脆弱而又敏感的神经。随着调查的深入,死亡的气息笼罩着行动组内的每一个人,一次又一次与死神擦肩而过,凯特的三观开始发生动摇。
边境杀手4kliulanpian.jpg
毒裁者(港) / 怒火边界(台) / 西卡里奥/边境杀手4k Sicario.2015.2160p.BluRay.REMUX.HEVC.DTS-HD.MA.TrueHD.7.1.Atmos-FGT  4K UHD蓝光原盘电影资源说明
第177部 4K UHD 蓝光原盘破解版,含完整的 BDMV 文件夹以及数据,AACS 2.0 协议已被完整破解。

DISC INFO:

Disc Title:     Sicario.2015.2160p.BluRay.HEVC.TrueHD.7.1.Atmos-TASTED
Disc Size:      61,178,531,497 bytes
Protection:     AACS2
BD-Java:        Yes
Extras:         Ultra HD
BDInfo:         0.5.8.7 (compatible layout created by DVDFab 10.0.7.6)

PLAYLIST REPORT:

Name:                   00000.MPLS  
Length:                 2:01:20.231 (h:m:s.ms)
Size:                   60,077,875,200 bytes
Total Bitrate:          66.02 Mbps

(*) Indicates included stream hidden by this playlist.

VIDEO:

Codec                   Bitrate             Description     
-----                   -------             -----------     
MPEG-H HEVC Video       56487 kbps          2160p / 23.976 fps / 16:9 / Main 10 Profile 5.1 High / 4:2:0 / 10 bits / HDR / BT.2020 /

AUDIO:

Codec                           Language        Bitrate         Description     
-----                           --------        -------         -----------     
Dolby Atmos/TrueHD Audio        English         4724 kbps       7.1-Atmos / 48 kHz / 4724 kbps / 24-bit (AC3 Core: 5.1-EX / 48 kHz / 640 kbps)
Dolby Digital Audio             Spanish         640 kbps        5.1 / 48 kHz / 640 kbps

SUBTITLES:

Codec                           Language        Bitrate         Description     
-----                           --------        -------         -----------     
Presentation Graphics           English         21.491 kbps                     
Presentation Graphics           English         27.581 kbps                     
Presentation Graphics           Spanish         20.635 kbps                     
* Presentation Graphics         Spanish         20.635 kbps                     
* Presentation Graphics         English         21.491 kbps                     
* Presentation Graphics         English         27.581 kbps               
Video
ID                                       : 1
Format                                   : HEVC
Format/Info                              : High Efficiency Video Coding
Format profile                           : Main 10@L5.1@High
Codec ID                                 : V_MPEGH/ISO/HEVC
Duration                                 : 2 h 1 min
Bit rate                                 : 56.5 Mb/s
Width                                    : 3 840 pixels
Height                                   : 2 160 pixels
Display aspect ratio                     : 16:9
Frame rate mode                          : Constant
Frame rate                               : 23.976 (24000/1001) FPS
Color space                              : YUV
Chroma subsampling                       : 4:2:0 (Type 2)
Bit depth                                : 10 bits
Bits/(Pixel*Frame)                       : 0.284
Stream size                              : 47.9 GiB (86%)
Title                                    : Sicario.2015.2160p.BluRay.REMUX.HEVC.DTS-HD.MA.TrueHD.7.1.Atmos-FGT
Writing library                          : ATEME Titan KFE 3.7.3 (4.7.3.1003)
Default                                  : Yes
Forced                                   : No
Color range                              : Limited
Color primaries                          : BT.2020
Transfer characteristics                 : PQ
Matrix coefficients                      : BT.2020 non-constant
Mastering display color primaries        : Display P3
Mastering display luminance              : min: 0.0050 cd/m2, max: 4000 cd/m2

Audio #1
ID                                       : 2
Format                                   : TrueHD
Format profile                           : TrueHD+Atmos / TrueHD
Codec ID                                 : A_TRUEHD
Duration                                 : 2 h 1 min
Bit rate mode                            : Variable
Bit rate                                 : 4 084 kb/s
Maximum bit rate                         : 9 354 kb/s
Channel(s)                               : Object Based / 8 channels
Channel positions                        : Object Based / Front: L C R, Side: L R, Back: L R, LFE
Sampling rate                            :  / 48.0 kHz
Frame rate                               : 1 200.000 FPS (40 SPF)
Compression mode                         : Lossless
Delay relative to video                  : 32 ms
Stream size                              : 3.46 GiB (6%)
Title                                    : Sicario.2015.2160p.BluRay.REMUX.HEVC.DTS-HD.MA.TrueHD.7.1.Atmos-FGT
Language                                 : English
Default                                  : Yes
Forced                                   : No

Audio #2
ID                                       : 3
Format                                   : DTS
Format/Info                              : Digital Theater Systems
Format profile                           : MA / Core
Codec ID                                 : A_DTS
Duration                                 : 2 h 1 min
Bit rate mode                            : Variable / Constant
Bit rate                                 : 3 471 kb/s / 1 509 kb/s
Channel(s)                               : 8 channels / 6 channels
Channel positions                        : Front: L C R, Side: L R, Back: L R, LFE / Front: L C R, Side: L R, LFE
Sampling rate                            : 48.0 kHz
Frame rate                               : 93.750 FPS (512 SPF)
Bit depth                                : 24 bits
Compression mode                         : Lossless / Lossy
Stream size                              : 2.94 GiB (5%)
Title                                    : Sicario.2015.2160p.BluRay.REMUX.HEVC.DTS-HD.MA.TrueHD.7.1.Atmos-FGT
Language                                 : English
Default                                  : No
Forced                                   : No

Audio #3
ID                                       : 4
Format                                   : AC-3
Format/Info                              : Audio Coding 3
Codec ID                                 : A_AC3
Duration                                 : 2 h 1 min
Bit rate mode                            : Constant
Bit rate                                 : 640 kb/s
Channel(s)                               : 6 channels
Channel positions                        : Front: L C R, Side: L R, LFE
Sampling rate                            : 48.0 kHz
Frame rate                               : 31.250 FPS (1536 SPF)
Bit depth                                : 16 bits
Compression mode                         : Lossy
Delay relative to video                  : 31 ms
Stream size                              : 555 MiB (1%)
Title                                    : Sicario.2015.2160p.BluRay.REMUX.HEVC.DTS-HD.MA.TrueHD.7.1.Atmos-FGT
Language                                 : English
Service kind                             : Complete Main
Default                                  : No
Forced                                   : No

Audio #4
ID                                       : 5
Format                                   : AC-3
Format/Info                              : Audio Coding 3
Codec ID                                 : A_AC3
Duration                                 : 2 h 1 min
Bit rate mode                            : Constant
Bit rate                                 : 640 kb/s
Channel(s)                               : 6 channels
Channel positions                        : Front: L C R, Side: L R, LFE
Sampling rate                            : 48.0 kHz
Frame rate                               : 31.250 FPS (1536 SPF)
Bit depth                                : 16 bits
Compression mode                         : Lossy
Stream size                              : 555 MiB (1%)
Title                                    : Sicario.2015.2160p.BluRay.REMUX.HEVC.DTS-HD.MA.TrueHD.7.1.Atmos-FGT
Language                                 : Spanish
Service kind                             : Complete Main
Default                                  : No
Forced                                   : No

Text #1
ID                                       : 6
Format                                   : PGS
Muxing mode                              : zlib
Codec ID                                 : S_HDMV/PGS
Codec ID/Info                            : Picture based subtitle format used on BDs/HD-DVDs
Duration                                 : 1 h 50 min
Bit rate                                 : 23.6 kb/s
Count of elements                        : 1878
Stream size                              : 18.7 MiB (0%)
Title                                    : English-PGS
Language                                 : English
Default                                  : Yes
Forced                                   : No

Text #2
ID                                       : 7
Format                                   : PGS
Muxing mode                              : zlib
Codec ID                                 : S_HDMV/PGS
Codec ID/Info                            : Picture based subtitle format used on BDs/HD-DVDs
Duration                                 : 1 h 53 min
Bit rate                                 : 29.4 kb/s
Count of elements                        : 2490
Stream size                              : 23.9 MiB (0%)
Title                                    : English-SDH-PGS
Language                                 : English
Default                                  : No
Forced                                   : No

Text #3
ID                                       : 8
Format                                   : PGS
Muxing mode                              : zlib
Codec ID                                 : S_HDMV/PGS
Codec ID/Info                            : Picture based subtitle format used on BDs/HD-DVDs
Duration                                 : 1 h 52 min
Bit rate                                 : 22.3 kb/s
Count of elements                        : 1858
Stream size                              : 17.9 MiB (0%)
Title                                    : Spanish-PGS
Language                                 : Spanish
Default                                  : No
Forced                                   : No

Menu
00:00:00.000                             : en:Chapter 1
00:07:13.349                             : en:Chapter 2
00:12:54.106                             : en:Chapter 3
00:20:03.368                             : en:Chapter 4
00:25:23.813                             : en:Chapter 5
00:32:10.595                             : en:Chapter 6
00:39:23.819                             : en:Chapter 7
00:46:14.313                             : en:Chapter 8
00:53:23.575                             : en:Chapter 9
01:01:39.320                             : en:Chapter 10
01:10:48.118                             : en:Chapter 11
01:18:01.885                             : en:Chapter 12
01:30:58.369                             : en:Chapter 13
01:36:56.769                             : en:Chapter 14
01:47:41.037                             : en:Chapter 15
01:54:11.803                             : en:Chapter 16

毒裁者(港) / 怒火边界(台) / 西卡里奥/边境杀手4k Sicario.2015.2160p.BluRay.REMUX.HEVC.DTS-HD.MA.TrueHD.7.1.Atmos-FGT  4K UHD蓝光原盘电影资源下载

边境杀手4k Sicario.2015.2160p.BluRay.HEVC.TrueHD.7.1.Atmos-TASTED (4K UHD 蓝光原盘破解版 2160p  57.23GB)
游客,如果您要查看本帖隐藏内容请回复

边境杀手4k Sicario.2015.2160p.BluRay.REMUX.HEVC.DTS-HD.MA.TrueHD.7.1.Atmos-FGT  (4K UHD 蓝光原盘破解版 2160p  55.44GB)
游客,如果您要查看本帖隐藏内容请回复


边境杀手合辑:
https://www.hao4k.com/zt/bjss.html

评分

参与人数 1贡献值 +1 收起 理由
zmj282479863 + 1 很给力!

查看全部评分

45shen45 发表于 2018-10-20 22:39 | 显示全部楼层
顶 谢谢资源  
1821445528 发表于 2018-10-20 15:30 | 显示全部楼层
感谢楼主分享
archer 发表于 2018-10-20 07:37 | 显示全部楼层
支持
allenweng 发表于 2018-10-20 00:40 | 显示全部楼层
这个东西好,还有字幕。
koreyoshi6688 发表于 2018-10-19 21:21 | 显示全部楼层
下不动啊!!!!!!!!
koreyoshi6688 发表于 2018-10-19 20:22 | 显示全部楼层
...............
wzq825 发表于 2018-10-19 19:44 | 显示全部楼层
感谢楼主辛苦分享
岡坂日川 发表于 2018-10-18 19:23 | 显示全部楼层
这片子还有点年月了啊
allenrachel 发表于 2018-10-16 20:32 | 显示全部楼层
感谢楼主的分享!!!!!!
zyrock0 发表于 2018-10-16 12:37 | 显示全部楼层
感谢楼主的分享
dzdstudio 发表于 2018-10-16 07:43 | 显示全部楼层
很好的片子,感谢分享!
latinorock 发表于 2018-10-15 18:00 | 显示全部楼层
感谢分享···
haharen 发表于 2018-10-15 10:37 | 显示全部楼层

好片,感谢分享。
mcy 发表于 2018-10-14 16:52 | 显示全部楼层
真是太好了
xj001 发表于 2018-10-14 10:04 | 显示全部楼层
好片,感谢分享。
新手未入门 发表于 2018-10-13 23:57 | 显示全部楼层
好片,感谢分享。
peterpjx 发表于 2018-10-12 20:54 | 显示全部楼层
谢谢楼主!
您需要登录后才可以回帖 登录 | 立即注册

本版积分规则

返回顶部 联系我们