猜你喜欢

谍影重重4k The.Bourne.Identity.2002.2160p.BluRay.HEVC.DTS-X.7.1-OMFUG 4K版下载[第一百九十部破解4K UHD蓝光原盘电影]

  [复制链接]
查看: 4011|回复: 124

399

主题

543

帖子

2604

K币

Rank: 9Rank: 9Rank: 9

威望
998
积分
21151
lili 发表于 2018-1-4 10:31:40 | 显示全部楼层 |阅读模式

片  名:谍影重重4k [下载地址在帖子底部]

  • 年  代:00年代  
  • 国  家:美国
  • 类  别:动作 惊悚 悬疑 
  • 字  幕:英文原版
  • 上映日期:2002-06-14
  • 文件格式:mkv   
  • 视频效果:4K(3840x2160)    
  • 文件大小:54.67GB
  • 片  长:119分钟
  • 导  演:道格·里曼
  • 豆瓣链接:https://movie.douban.com/subject/1304102/
  • 主  演:马特·达蒙 / 弗朗卡·波滕特 / 克里斯·库珀 / 克里夫·欧文 / 朱丽娅·斯蒂尔斯 / 布莱恩·考克斯 / 阿德沃尔·阿吉纽依-艾格拜吉 / 加布里埃尔·曼 / 沃尔顿·戈金斯 / 约什·汉密尔顿 / Orso Maria Guerrini

剧情简介

 杰森·伯恩(马特·达蒙 饰)在意大利被人从海上救起,他失去了记忆,除了臀部的瑞士银行帐号之外,他完全没有办法证明自己的身份。
  杰森从瑞士银行找到了大量的现金,六本护照,一把枪,同时他发现自己格斗、枪械、和语言等方面的能力,他开始追查自己的身份,并且把陌生女子玛丽(弗兰卡·泼坦特 饰)也卷了进来。两人从瑞士到巴黎,一路上受到神秘杀手组织的追杀,危机重重。
  杰森能否化险为夷,找到自己的真实身份?他是否有勇气面对真相?
谍影重重4k 浏览片.jpg
叛谍追击(港) / 神鬼认证(台) / 伯恩的身份/ 谍影重重4k The.Bourne.Identity.2002.2160p.BluRay.HEVC.DTS-X.7.1-OMFUG 4K UHD蓝光原盘电影资源信息

第一百九十部 4K UHD 蓝光原盘破解版,含完整的 BDMV 文件夹以及数据,AACS 2.0 协议已被完整破解。
DISC INFO:

Disc Title:     The.Bourne.Identity.2002.2160p.BluRay.HEVC.DTS-X.7.1-OMFUG
Disc Size:      58,685,669,548 bytes
Protection:     AACS2
BD-Java:        Yes

Extras:         Ultra HD
BDInfo:         0.5.8.7 (compatible layout created by DVDFab 10.0.7.6)

PLAYLIST REPORT:

Name:                   00968.MPLS  
Length:                 1:58:27.099 (h:m:s.ms)
Size:                   57,233,842,176 bytes
Total Bitrate:          64.42 Mbps

VIDEO:

Codec                   Bitrate             Description     
-----                   -------             -----------     
MPEG-H HEVC Video       51893 kbps          2160p / 23.976 fps / 16:9 / Main 10 Profile 5.1 High / 4:2:0 / 10 bits / HDR / BT.2020 /

AUDIO:

Codec                           Language        Bitrate         Description     
-----                           --------        -------         -----------     
DTS:X/DTS-HD Master Audio       English         4458 kbps       7.1-X / 48 kHz / 4458 kbps / 24-bit (DTS Core: 5.1 / 48 kHz / 1509 kbps / 24-bit)
DTS Audio                       English         256 kbps        2.0 / 48 kHz / 256 kbps / 24-bit
DTS Audio                       French          768 kbps        5.1 / 48 kHz / 768 kbps / 24-bit
DTS Audio                       Spanish         768 kbps        5.1 / 48 kHz / 768 kbps / 24-bit
DTS Audio                       Portuguese      768 kbps        5.1 / 48 kHz / 768 kbps / 24-bit
DTS Audio                       Czech           768 kbps        5.1 / 48 kHz / 768 kbps / 24-bit
DTS Audio                       Polish          768 kbps        5.1 / 48 kHz / 768 kbps / 24-bit
Dolby Digital Audio             English         192 kbps        2.0 / 48 kHz / 192 kbps / Dolby Surround

SUBTITLES:

Codec                           Language        Bitrate         Description     
-----                           --------        -------         -----------     
Presentation Graphics           English         27.229 kbps                     
Presentation Graphics           French          23.761 kbps                     
Presentation Graphics           Dutch           23.67 kbps                     
Presentation Graphics           Danish          23.455 kbps                     
Presentation Graphics           Finnish         20.433 kbps                     
Presentation Graphics           Norwegian       22.171 kbps                     
Presentation Graphics           Swedish         21.784 kbps                     
Presentation Graphics           Spanish         24.674 kbps                     
Presentation Graphics           Portuguese      25.092 kbps                     
Presentation Graphics           Czech           21.212 kbps                     
Presentation Graphics           Polish          22.87 kbps                     
Presentation Graphics           Greek           25.886 kbps                     
Presentation Graphics           English         1.476 kbps                     
Presentation Graphics           French          1.206 kbps                     
Presentation Graphics           Spanish         1.525 kbps                     
Presentation Graphics           Portuguese      1.461 kbps                     
Presentation Graphics           Czech           1.535 kbps                     
Presentation Graphics           English         59.612 kbps                     
Presentation Graphics           French          57.501 kbps
REMUX


Video
ID                                       : 1
Format                                   : HEVC
Format/Info                              : High Efficiency Video Coding
Format profile                           : Main 10@L5.1@High
Codec ID                                 : V_MPEGH/ISO/HEVC
Duration                                 : 1 h 58 min
Bit rate                                 : 51.9 Mb/s
Width                                    : 3 840 pixels
Height                                   : 2 160 pixels
Display aspect ratio                     : 16:9
Frame rate mode                          : Constant
Frame rate                               : 23.976 (24000/1001) FPS
Color space                              : YUV
Chroma subsampling                       : 4:2:0 (Type 2)
Bit depth                                : 10 bits
Bits/(Pixel*Frame)                       : 0.261
Stream size                              : 42.9 GiB (85%)
Title                                    : The.Bourne.Identity.2002.2160p.BluRay.REMUX.HEVC.DTS-X.7.1-FGT
Default                                  : Yes
Forced                                   : No
Color range                              : Limited
Color primaries                          : BT.2020
Transfer characteristics                 : PQ
Matrix coefficients                      : BT.2020 non-constant
Mastering display color primaries        : Display P3
Mastering display luminance              : min: 0.0000 cd/m2, max: 1000 cd/m2
Maximum Content Light Level              : 1000 cd/m2
Maximum Frame-Average Light Level        : 73 cd/m2

Audio #1
ID                                       : 2
Format                                   : DTS
Format/Info                              : Digital Theater Systems
Format profile                           : X / MA / Core
Codec ID                                 : A_DTS
Duration                                 : 1 h 58 min
Bit rate mode                            : Variable / Variable / Constant
Bit rate                                 : 4 458 kb/s / 4 458 kb/s / 1 509 kb/s
Channel(s)                               : Object Based / 8 channels / 6 channels
Channel positions                        : Object Based / Front: L C R, Side: L R, Back: L R, LFE / Front: L C R, Side: L R, LFE
Sampling rate                            :  / 48.0 kHz / 48.0 kHz
Frame rate                               : 93.750 FPS (512 SPF)
Bit depth                                :  / 24 bits / 24 bits
Compression mode                         :  / Lossless / Lossy
Stream size                              : 3.69 GiB (7%)
Title                                    : The.Bourne.Identity.2002.2160p.BluRay.REMUX.HEVC.DTS-X.7.1-FGT
Language                                 : English
Default                                  : Yes
Forced                                   : No

Audio #2
ID                                       : 3
Format                                   : DTS
Format/Info                              : Digital Theater Systems
Codec ID                                 : A_DTS
Duration                                 : 1 h 58 min
Bit rate mode                            : Constant
Bit rate                                 : 255 kb/s
Channel(s)                               : 2 channels
Channel positions                        : Front: L R
Sampling rate                            : 48.0 kHz
Frame rate                               : 93.750 FPS (512 SPF)
Bit depth                                : 24 bits
Compression mode                         : Lossy
Stream size                              : 216 MiB (0%)
Title                                    : The.Bourne.Identity.2002.2160p.BluRay.REMUX.HEVC.DTS-X.7.1-FGT
Language                                 : English
Default                                  : No
Forced                                   : No

Audio #3
ID                                       : 4
Format                                   : DTS
Format/Info                              : Digital Theater Systems
Codec ID                                 : A_DTS
Duration                                 : 1 h 58 min
Bit rate mode                            : Constant
Bit rate                                 : 768 kb/s
Channel(s)                               : 6 channels
Channel positions                        : Front: L C R, Side: L R, LFE
Sampling rate                            : 48.0 kHz
Frame rate                               : 93.750 FPS (512 SPF)
Bit depth                                : 24 bits
Compression mode                         : Lossy
Stream size                              : 651 MiB (1%)
Title                                    : The.Bourne.Identity.2002.2160p.BluRay.REMUX.HEVC.DTS-X.7.1-FGT
Language                                 : French
Default                                  : No
Forced                                   : No

Audio #4
ID                                       : 5
Format                                   : DTS
Format/Info                              : Digital Theater Systems
Codec ID                                 : A_DTS
Duration                                 : 1 h 58 min
Bit rate mode                            : Constant
Bit rate                                 : 768 kb/s
Channel(s)                               : 6 channels
Channel positions                        : Front: L C R, Side: L R, LFE
Sampling rate                            : 48.0 kHz
Frame rate                               : 93.750 FPS (512 SPF)
Bit depth                                : 24 bits
Compression mode                         : Lossy
Stream size                              : 651 MiB (1%)
Title                                    : The.Bourne.Identity.2002.2160p.BluRay.REMUX.HEVC.DTS-X.7.1-FGT
Language                                 : Spanish
Default                                  : No
Forced                                   : No

Audio #5
ID                                       : 6
Format                                   : DTS
Format/Info                              : Digital Theater Systems
Codec ID                                 : A_DTS
Duration                                 : 1 h 58 min
Bit rate mode                            : Constant
Bit rate                                 : 768 kb/s
Channel(s)                               : 6 channels
Channel positions                        : Front: L C R, Side: L R, LFE
Sampling rate                            : 48.0 kHz
Frame rate                               : 93.750 FPS (512 SPF)
Bit depth                                : 24 bits
Compression mode                         : Lossy
Stream size                              : 651 MiB (1%)
Title                                    : The.Bourne.Identity.2002.2160p.BluRay.REMUX.HEVC.DTS-X.7.1-FGT
Language                                 : Portuguese
Default                                  : No
Forced                                   : No

Audio #6
ID                                       : 7
Format                                   : DTS
Format/Info                              : Digital Theater Systems
Codec ID                                 : A_DTS
Duration                                 : 1 h 58 min
Bit rate mode                            : Constant
Bit rate                                 : 768 kb/s
Channel(s)                               : 6 channels
Channel positions                        : Front: L C R, Side: L R, LFE
Sampling rate                            : 48.0 kHz
Frame rate                               : 93.750 FPS (512 SPF)
Bit depth                                : 24 bits
Compression mode                         : Lossy
Stream size                              : 651 MiB (1%)
Title                                    : The.Bourne.Identity.2002.2160p.BluRay.REMUX.HEVC.DTS-X.7.1-FGT
Language                                 : Czech
Default                                  : No
Forced                                   : No

Audio #7
ID                                       : 8
Format                                   : DTS
Format/Info                              : Digital Theater Systems
Codec ID                                 : A_DTS
Duration                                 : 1 h 58 min
Bit rate mode                            : Constant
Bit rate                                 : 768 kb/s
Channel(s)                               : 6 channels
Channel positions                        : Front: L C R, Side: L R, LFE
Sampling rate                            : 48.0 kHz
Frame rate                               : 93.750 FPS (512 SPF)
Bit depth                                : 24 bits
Compression mode                         : Lossy
Stream size                              : 651 MiB (1%)
Title                                    : The.Bourne.Identity.2002.2160p.BluRay.REMUX.HEVC.DTS-X.7.1-FGT
Language                                 : Polish
Default                                  : No
Forced                                   : No

Audio #8
ID                                       : 9
Format                                   : AC-3
Format/Info                              : Audio Coding 3
Codec ID                                 : A_AC3
Duration                                 : 1 h 58 min
Bit rate mode                            : Constant
Bit rate                                 : 192 kb/s
Channel(s)                               : 2 channels
Channel positions                        : Front: L R
Sampling rate                            : 48.0 kHz
Frame rate                               : 31.250 FPS (1536 SPF)
Bit depth                                : 16 bits
Compression mode                         : Lossy
Delay relative to video                  : 24 ms
Stream size                              : 163 MiB (0%)
Title                                    : The.Bourne.Identity.2002.2160p.BluRay.REMUX.HEVC.DTS-X.7.1-FGT
Language                                 : English
Service kind                             : Complete Main
Default                                  : No
Forced                                   : No

Text #1
ID                                       : 10
Format                                   : PGS
Muxing mode                              : zlib
Codec ID                                 : S_HDMV/PGS
Codec ID/Info                            : Picture based subtitle format used on BDs/HD-DVDs
Duration                                 : 1 h 51 min
Bit rate                                 : 29.0 kb/s
Count of elements                        : 2194
Stream size                              : 23.1 MiB (0%)
Title                                    : English-PGS
Language                                 : English
Default                                  : Yes
Forced                                   : No

Text #2
ID                                       : 11
Format                                   : PGS
Muxing mode                              : zlib
Codec ID                                 : S_HDMV/PGS
Codec ID/Info                            : Picture based subtitle format used on BDs/HD-DVDs
Duration                                 : 1 h 57 min
Bit rate                                 : 23.9 kb/s
Count of elements                        : 1936
Stream size                              : 20.1 MiB (0%)
Title                                    : French-PGS
Language                                 : French
Default                                  : No
Forced                                   : No

Text #3
ID                                       : 12
Format                                   : PGS
Muxing mode                              : zlib
Codec ID                                 : S_HDMV/PGS
Codec ID/Info                            : Picture based subtitle format used on BDs/HD-DVDs
Duration                                 : 1 h 57 min
Bit rate                                 : 23.8 kb/s
Count of elements                        : 1980
Stream size                              : 20.1 MiB (0%)
Title                                    : Dutch-PGS
Language                                 : Dutch
Default                                  : No
Forced                                   : No

Text #4
ID                                       : 13
Format                                   : PGS
Muxing mode                              : zlib
Codec ID                                 : S_HDMV/PGS
Codec ID/Info                            : Picture based subtitle format used on BDs/HD-DVDs
Duration                                 : 1 h 57 min
Bit rate                                 : 23.6 kb/s
Count of elements                        : 2006
Stream size                              : 19.9 MiB (0%)
Title                                    : Danish-PGS
Language                                 : Danish
Default                                  : No
Forced                                   : No

Text #5
ID                                       : 14
Format                                   : PGS
Muxing mode                              : zlib
Codec ID                                 : S_HDMV/PGS
Codec ID/Info                            : Picture based subtitle format used on BDs/HD-DVDs
Duration                                 : 1 h 57 min
Bit rate                                 : 20.6 kb/s
Count of elements                        : 2000
Stream size                              : 17.3 MiB (0%)
Title                                    : Finnish-PGS
Language                                 : Finnish
Default                                  : No
Forced                                   : No

Text #6
ID                                       : 15
Format                                   : PGS
Muxing mode                              : zlib
Codec ID                                 : S_HDMV/PGS
Codec ID/Info                            : Picture based subtitle format used on BDs/HD-DVDs
Duration                                 : 1 h 57 min
Bit rate                                 : 22.3 kb/s
Count of elements                        : 2000
Stream size                              : 18.8 MiB (0%)
Title                                    : Norwegian-PGS
Language                                 : Norwegian
Default                                  : No
Forced                                   : No

Text #7
ID                                       : 16
Format                                   : PGS
Muxing mode                              : zlib
Codec ID                                 : S_HDMV/PGS
Codec ID/Info                            : Picture based subtitle format used on BDs/HD-DVDs
Duration                                 : 1 h 57 min
Bit rate                                 : 21.9 kb/s
Count of elements                        : 2006
Stream size                              : 18.5 MiB (0%)
Title                                    : Swedish-PGS
Language                                 : Swedish
Default                                  : No
Forced                                   : No

Text #8
ID                                       : 17
Format                                   : PGS
Muxing mode                              : zlib
Codec ID                                 : S_HDMV/PGS
Codec ID/Info                            : Picture based subtitle format used on BDs/HD-DVDs
Duration                                 : 1 h 50 min
Bit rate                                 : 26.4 kb/s
Count of elements                        : 2002
Stream size                              : 20.9 MiB (0%)
Title                                    : Spanish-PGS
Language                                 : Spanish
Default                                  : No
Forced                                   : No

Text #9
ID                                       : 18
Format                                   : PGS
Muxing mode                              : zlib
Codec ID                                 : S_HDMV/PGS
Codec ID/Info                            : Picture based subtitle format used on BDs/HD-DVDs
Duration                                 : 1 h 57 min
Bit rate                                 : 25.3 kb/s
Count of elements                        : 2035
Stream size                              : 21.3 MiB (0%)
Title                                    : Portuguese-PGS
Language                                 : Portuguese
Default                                  : No
Forced                                   : No

Text #10
ID                                       : 19
Format                                   : PGS
Muxing mode                              : zlib
Codec ID                                 : S_HDMV/PGS
Codec ID/Info                            : Picture based subtitle format used on BDs/HD-DVDs
Duration                                 : 1 h 57 min
Bit rate                                 : 21.4 kb/s
Count of elements                        : 2014
Stream size                              : 18.0 MiB (0%)
Title                                    : Czech-PGS
Language                                 : Czech
Default                                  : No
Forced                                   : No

Text #11
ID                                       : 20
Format                                   : PGS
Muxing mode                              : zlib
Codec ID                                 : S_HDMV/PGS
Codec ID/Info                            : Picture based subtitle format used on BDs/HD-DVDs
Duration                                 : 1 h 57 min
Bit rate                                 : 23.0 kb/s
Count of elements                        : 2014
Stream size                              : 19.4 MiB (0%)
Title                                    : Polish-PGS
Language                                 : Polish
Default                                  : No
Forced                                   : No

Text #12
ID                                       : 21
Format                                   : PGS
Muxing mode                              : zlib
Codec ID                                 : S_HDMV/PGS
Codec ID/Info                            : Picture based subtitle format used on BDs/HD-DVDs
Duration                                 : 1 h 57 min
Bit rate                                 : 26.1 kb/s
Count of elements                        : 2016
Stream size                              : 21.9 MiB (0%)
Title                                    : Greek-PGS
Language                                 : Greek
Default                                  : No
Forced                                   : No

Text #13
ID                                       : 22
Format                                   : PGS
Muxing mode                              : zlib
Codec ID                                 : S_HDMV/PGS
Codec ID/Info                            : Picture based subtitle format used on BDs/HD-DVDs
Duration                                 : 1 h 14 min
Bit rate                                 : 2 357 b/s
Count of elements                        : 128
Stream size                              : 1.25 MiB (0%)
Title                                    : English-FORCED-PGS
Language                                 : English
Default                                  : No
Forced                                   : No

Text #14
ID                                       : 23
Format                                   : PGS
Muxing mode                              : zlib
Codec ID                                 : S_HDMV/PGS
Codec ID/Info                            : Picture based subtitle format used on BDs/HD-DVDs
Duration                                 : 1 h 57 min
Bit rate                                 : 1 214 b/s
Count of elements                        : 112
Stream size                              : 1.02 MiB (0%)
Title                                    : French-FORCED-PGS
Language                                 : French
Default                                  : No
Forced                                   : No

Text #15
ID                                       : 24
Format                                   : PGS
Muxing mode                              : zlib
Codec ID                                 : S_HDMV/PGS
Codec ID/Info                            : Picture based subtitle format used on BDs/HD-DVDs
Duration                                 : 1 h 12 min
Bit rate                                 : 2 476 b/s
Count of elements                        : 140
Stream size                              : 1.29 MiB (0%)
Title                                    : Spanish-FORCED-PGS
Language                                 : Spanish
Default                                  : No
Forced                                   : No

Text #16
ID                                       : 25
Format                                   : PGS
Muxing mode                              : zlib
Codec ID                                 : S_HDMV/PGS
Codec ID/Info                            : Picture based subtitle format used on BDs/HD-DVDs
Duration                                 : 1 h 56 min
Bit rate                                 : 1 485 b/s
Count of elements                        : 130
Stream size                              : 1.24 MiB (0%)
Title                                    : Portuguese-FORCED-PGS
Language                                 : Portuguese
Default                                  : No
Forced                                   : No

Text #17
ID                                       : 26
Format                                   : PGS
Muxing mode                              : zlib
Codec ID                                 : S_HDMV/PGS
Codec ID/Info                            : Picture based subtitle format used on BDs/HD-DVDs
Duration                                 : 1 h 57 min
Bit rate                                 : 1 546 b/s
Count of elements                        : 158
Stream size                              : 1.30 MiB (0%)
Title                                    : Czech-FORCED-PGS
Language                                 : Czech
Default                                  : No
Forced                                   : No

Text #18
ID                                       : 27
Format                                   : PGS
Muxing mode                              : zlib
Codec ID                                 : S_HDMV/PGS
Codec ID/Info                            : Picture based subtitle format used on BDs/HD-DVDs
Duration                                 : 1 h 57 min
Bit rate                                 : 60.2 kb/s
Count of elements                        : 3293
Stream size                              : 50.5 MiB (0%)
Title                                    : English-COMMENTARY-PGS
Language                                 : English
Default                                  : No
Forced                                   : No

Text #19
ID                                       : 28
Format                                   : PGS
Muxing mode                              : zlib
Codec ID                                 : S_HDMV/PGS
Codec ID/Info                            : Picture based subtitle format used on BDs/HD-DVDs
Duration                                 : 1 h 58 min
Bit rate                                 : 57.6 kb/s
Count of elements                        : 3292
Stream size                              : 48.7 MiB (0%)
Title                                    : French-COMMENTARY-PGS
Language                                 : French
Default                                  : No
Forced                                   : No

Menu
00:00:00.000                             : en:Chapter 1
00:06:28.137                             : en:Chapter 2
00:08:34.805                             : en:Chapter 3
00:11:38.489                             : en:Chapter 4
00:13:38.317                             : en:Chapter 5
00:19:43.265                             : en:Chapter 6
00:25:40.997                             : en:Chapter 7
00:29:15.420                             : en:Chapter 8
00:36:36.277                             : en:Chapter 9
00:43:56.717                             : en:Chapter 10
00:48:27.696                             : en:Chapter 11
00:51:52.192                             : en:Chapter 12
01:02:01.426                             : en:Chapter 13
01:10:01.614                             : en:Chapter 14
01:18:44.886                             : en:Chapter 15
01:24:19.554                             : en:Chapter 16
01:31:59.680                             : en:Chapter 17
01:38:58.807                             : en:Chapter 18
01:45:32.826                             : en:Chapter 19
01:51:53.415                             : en:Chapter 20

叛谍追击(港) / 神鬼认证(台) / 伯恩的身份/ 谍影重重4k The.Bourne.Identity.2002.2160p.BluRay.HEVC.DTS-X.7.1-OMFUG 4K UHD蓝光原盘电影资源下载

谍影重重4k The.Bourne.Identity.2002.2160p.BluRay.HEVC.DTS-X.7.1-OMFUG (4K UHD 蓝光原盘破解版 2160p,54.67GB)
游客,如果您要查看本帖隐藏内容请回复

谍影重重4k  The.Bourne.Identity.2002.2160p.BluRay.REMUX.HEVC.DTS-X.7.1-FGT   (4K UHD 蓝光原盘破解版 2160p,50.28GB)
游客,如果您要查看本帖隐藏内容请回复

0

主题

2

帖子

19

K币

Rank: 1

威望
0
积分
22
yaoxing2713254 发表于 2018-1-4 10:46:03 | 显示全部楼层
啥也不说了,感谢楼主在hao4k分享4k视频内容哇!

0

主题

6

帖子

13

K币

Rank: 1

威望
0
积分
7
6501 发表于 2018-1-4 10:52:01 | 显示全部楼层
啥也不说了,感谢楼主在hao4k分享4k视频内容哇!

0

主题

31

帖子

22

K币

Rank: 1

威望
0
积分
44
szck 发表于 2018-1-4 10:59:59 | 显示全部楼层
支持hao4k,支持楼主大人发布4k资源!

0

主题

19

帖子

0

K币

Rank: 1

威望
0
积分
27
feilaohu7 发表于 2018-1-4 11:09:34 | 显示全部楼层
这个质量4k视频一般般,还可以哦。

0

主题

8

帖子

4

K币

Rank: 1

威望
0
积分
12
13301168719 发表于 2018-1-4 11:16:13 | 显示全部楼层
感谢楼主在hao4k分享4k视频内容哇

0

主题

71

帖子

22

K币

Rank: 1

签到达人

威望
0
积分
110
yxh2017 发表于 2018-1-4 11:23:34 | 显示全部楼层
啥也不说了,感谢楼主在hao4k分享4k视频内容哇!

1

主题

66

帖子

83

K币

Rank: 1

威望
0
积分
136
dat1024 发表于 2018-1-4 11:26:27 | 显示全部楼层
回的人少,我来小顶一下。支持hao4k发展

0

主题

203

帖子

0

K币

Rank: 8Rank: 8

威望
0
积分
236
mcy 发表于 2018-1-4 11:38:07 | 显示全部楼层
真是太好了

0

主题

126

帖子

19

K币

Rank: 1

威望
0
积分
166
huizhen 发表于 2018-1-4 12:05:16 | 显示全部楼层
啥也不说了,感谢楼主在hao4k分享4k视频内容哇!
您需要登录后才可以回帖 登录 | 立即注册

本版积分规则

Copyright   ©2015-2016  hao4k  Powered by©Discuz!