猜你喜欢

敦刻尔克4K Dunkirk.2017.2160p.BluRay.REMUX.HEVC.DTS-HD.MA.5.1-FGT 4K版下载[第一百九十六部破解4K UHD蓝光原盘电影]

  [复制链接]
查看: 17808|回复: 980

399

主题

543

帖子

2604

K币

Rank: 9Rank: 9Rank: 9

威望
998
积分
21151
lili 发表于 2018-1-5 19:32:21 | 显示全部楼层 |阅读模式

片  名:敦刻尔克4K [下载地址在帖子底部]

  • 年  代:2017  
  • 国  家:美国
  • 类  别:战争 剧情 历史 
  • 字  幕:英文原版
  • 上映日期:2017-07-21
  • 文件格式:mkv   
  • 视频效果:4K(3840x2160)    
  • 文件大小:55.96GB
  • 片  长:107分钟
  • 导  演:克里斯托弗·诺兰
  • 豆瓣链接:https://movie.douban.com/subject/26607693/
  • 主  演:菲恩·怀特海德 / 汤姆·格林-卡尼 / 杰克·劳登 / 哈里·斯泰尔斯 / 阿奈林·巴纳德 / 汤姆·哈迪 / 马克·里朗斯 / 巴里·基奥根 / 基里安·墨菲 / 詹姆斯·达西 / 肯尼思·布拉纳 / 李·阿姆斯特朗 / 詹姆斯·布鲁尔 / 达米安·勃纳尔 / 布莱恩·威纳尔 / 哈利·理查森 / 艾略特·提特恩索 / 凯文·格思里 / 巴比·洛克伍德 / 米歇尔·贝尔 / 比利·豪尔 / 迈克尔·凯恩 / 约翰·诺兰 / 米兰达·诺兰

剧情简介

 故事改编自著名的二战军事事件“敦刻尔克大撤退”。二战初期,40万英法盟军被敌军围困于敦刻尔克的海滩之上,面对敌军步步逼近的绝境,形势万分危急。英国政府和海军发动大批船员,动员人民起来营救军队。
  英国士兵汤米(菲昂·怀特海德 Fionn Whitehead 饰)在逃离海滩的过程中相继结识吉布森与亚历克斯,同时民用船主道森先生(马克·里朗斯 Mark Rylance 饰)与儿子彼得、17岁少年乔治也离开英国,去往敦刻尔克拯救士兵。三人陆续搭救了海军(基里安·墨菲 Cillian Murphy 饰)、飞行员柯林斯及汤米一行人,而战斗机飞行员法瑞尔(汤姆·哈迪 Tom Hardy 饰)则在被敌人双面夹击的艰难情形下顽强战斗。
  影片的故事从陆、海、空三个角度讲述,在德国军队的包围下,每个人不得不为自己的命运背水一战,才有可能活着回家。
敦刻尔克4KLIULANPIAN.jpg

敦刻尔克大撤退 / 敦克尔克大行动(台) / 邓寇克大行动(港)/ 敦刻尔克4K Dunkirk.2017.2160p.BluRay.HEVC.DTS-HD.MA.5.1-CYBER  4K UHD蓝光原盘电影资源信息
第一百九十六部 4K UHD 蓝光原盘破解版,含完整的 BDMV 文件夹以及数据,AACS 2.0 协议已被完整破解。
DISC INFO:

Disc Title:     Dunkirk.2017.2160p.BluRay.HEVC.DTS-HD.MA.5.1-CYBER
Disc Size:      59,810,249,992 bytes
Protection:     AACS2
BD-Java:        Yes
Extras:         Ultra HD
BDInfo:         0.5.8.7 (compatible layout created by DVDFab 10.0.7.6)

PLAYLIST REPORT:

Name:                   00100.MPLS  
Length:                 1:46:38.225 (h:m:s.ms)
Size:                   58,652,129,280 bytes
Total Bitrate:          73.34 Mbps

VIDEO:

Codec                   Bitrate             Description   
-----                   -------             -----------   
MPEG-H HEVC Video       58221 kbps          2160p / 23.976 fps / 16:9 / Main 10 Profile 5.1 High / 4:2:0 / 10 bits / HDR / BT.2020 /

AUDIO:

Codec                           Language        Bitrate         Description   
-----                           --------        -------         -----------   
DTS-HD Master Audio             English         2411 kbps       5.1 / 48 kHz / 2411 kbps / 16-bit (DTS Core: 5.1 / 48 kHz / 1509 kbps / 16-bit)
Dolby Digital Audio             English         448 kbps        5.1 / 48 kHz / 448 kbps
DTS-HD Master Audio             French          2412 kbps       5.1 / 48 kHz / 2412 kbps / 16-bit (DTS Core: 5.1 / 48 kHz / 1509 kbps / 16-bit)
DTS-HD Master Audio             Italian         2440 kbps       5.1 / 48 kHz / 2440 kbps / 16-bit (DTS Core: 5.1 / 48 kHz / 1509 kbps / 16-bit)
Dolby Digital Audio             Chinese         448 kbps        5.1 / 48 kHz / 448 kbps
Dolby Digital Audio             Czech           448 kbps        5.1 / 48 kHz / 448 kbps
Dolby Digital Audio             Hungarian       448 kbps        5.1 / 48 kHz / 448 kbps
Dolby Digital Audio             Polish          448 kbps        5.1 / 48 kHz / 448 kbps
Dolby Digital Audio             Russian         448 kbps        5.1 / 48 kHz / 448 kbps
Dolby Digital Audio             Thai            448 kbps        5.1 / 48 kHz / 448 kbps
Dolby Digital Audio             Turkish         448 kbps        5.1 / 48 kHz / 448 kbps

SUBTITLES:

Codec                           Language        Bitrate         Description   
-----                           --------        -------         -----------   
Presentation Graphics           English         18.689 kbps                    
Presentation Graphics           French          10.886 kbps                    
Presentation Graphics           Italian         16.771 kbps                    
Presentation Graphics           Dutch           11.894 kbps                    
Presentation Graphics           Chinese         10.833 kbps                    
Presentation Graphics           Chinese         16.043 kbps                    
Presentation Graphics           Chinese         11.694 kbps                    
Presentation Graphics           Korean          7.958 kbps                     
Presentation Graphics           Arabic          7.93 kbps                     
Presentation Graphics           Croatian        14.129 kbps                    
Presentation Graphics           Czech           12.389 kbps                    
Presentation Graphics           Danish          12.717 kbps                    
Presentation Graphics           Finnish         14.788 kbps                    
Presentation Graphics           Greek           16.42 kbps                     
Presentation Graphics           Hebrew          9.682 kbps                     
Presentation Graphics           Hungarian       13.856 kbps                    
Presentation Graphics           Norwegian       11.98 kbps                     
Presentation Graphics           Polish          12.117 kbps                    
Presentation Graphics           Portuguese      14.838 kbps                    
Presentation Graphics           Romanian        13.459 kbps                    
Presentation Graphics           Russian         14.018 kbps                    
Presentation Graphics           Swedish         13.859 kbps                    
Presentation Graphics           Thai            11.612 kbps                    
Presentation Graphics           Turkish         14.212 kbps                    
Presentation Graphics           French          0.373 kbps                     
Presentation Graphics           Italian         0.511 kbps                     
Presentation Graphics           Chinese         0.615 kbps                     
Presentation Graphics           Czech           0.086 kbps                     
Presentation Graphics           Hungarian       0.534 kbps                     
Presentation Graphics           Russian         0.888 kbps                     
Presentation Graphics           Turkish         0.518 kbps   

REMUX
Video
ID                                       : 1
Format                                   : HEVC
Format/Info                              : High Efficiency Video Coding
Format profile                           : Main 10@L5.1@High
Codec ID                                 : V_MPEGH/ISO/HEVC
Duration                                 : 1 h 46 min
Bit rate                                 : 58.2 Mb/s
Width                                    : 3 840 pixels
Height                                   : 2 160 pixels
Display aspect ratio                     : 16:9
Frame rate mode                          : Constant
Frame rate                               : 23.976 (24000/1001) FPS
Color space                              : YUV
Chroma subsampling                       : 4:2:0 (Type 2)
Bit depth                                : 10 bits
Bits/(Pixel*Frame)                       : 0.293
Stream size                              : 43.4 GiB (84%)
Title                                    : Dunkirk.2017.2160p.BluRay.REMUX.HEVC.DTS-HD.MA.5.1-FGT
Default                                  : Yes
Forced                                   : No
Color range                              : Limited
Color primaries                          : BT.2020
Transfer characteristics                 : PQ
Matrix coefficients                      : BT.2020 non-constant
Mastering display color primaries        : Display P3
Mastering display luminance              : min: 0.0050 cd/m2, max: 4000 cd/m2
Maximum Content Light Level              : 323 cd/m2
Maximum Frame-Average Light Level        : 144 cd/m2

Audio #1
ID                                       : 2
Format                                   : DTS
Format/Info                              : Digital Theater Systems
Format profile                           : MA / Core
Codec ID                                 : A_DTS
Duration                                 : 1 h 46 min
Bit rate mode                            : Variable / Constant
Bit rate                                 : 2 411 kb/s / 1 509 kb/s
Channel(s)                               : 6 channels
Channel positions                        : Front: L C R, Side: L R, LFE
Sampling rate                            : 48.0 kHz
Frame rate                               : 93.750 FPS (512 SPF)
Bit depth                                : 16 bits
Compression mode                         : Lossless / Lossy
Stream size                              : 1.80 GiB (3%)
Title                                    : Dunkirk.2017.2160p.BluRay.REMUX.HEVC.DTS-HD.MA.5.1-FGT
Language                                 : English
Default                                  : Yes
Forced                                   : No

Audio #2
ID                                       : 3
Format                                   : AC-3
Format/Info                              : Audio Coding 3
Codec ID                                 : A_AC3
Duration                                 : 1 h 46 min
Bit rate mode                            : Constant
Bit rate                                 : 448 kb/s
Channel(s)                               : 6 channels
Channel positions                        : Front: L C R, Side: L R, LFE
Sampling rate                            : 48.0 kHz
Frame rate                               : 31.250 FPS (1536 SPF)
Bit depth                                : 16 bits
Compression mode                         : Lossy
Stream size                              : 342 MiB (1%)
Title                                    : Dunkirk.2017.2160p.BluRay.REMUX.HEVC.DTS-HD.MA.5.1-FGT
Language                                 : English
Service kind                             : Complete Main
Default                                  : No
Forced                                   : No

Audio #3
ID                                       : 4
Format                                   : DTS
Format/Info                              : Digital Theater Systems
Format profile                           : MA / Core
Codec ID                                 : A_DTS
Duration                                 : 1 h 46 min
Bit rate mode                            : Variable / Constant
Bit rate                                 : 2 412 kb/s / 1 509 kb/s
Channel(s)                               : 6 channels
Channel positions                        : Front: L C R, Side: L R, LFE
Sampling rate                            : 48.0 kHz
Frame rate                               : 93.750 FPS (512 SPF)
Bit depth                                : 16 bits
Compression mode                         : Lossless / Lossy
Stream size                              : 1.80 GiB (3%)
Title                                    : Dunkirk.2017.2160p.BluRay.REMUX.HEVC.DTS-HD.MA.5.1-FGT
Language                                 : French
Default                                  : No
Forced                                   : No

Audio #4
ID                                       : 5
Format                                   : DTS
Format/Info                              : Digital Theater Systems
Format profile                           : MA / Core
Codec ID                                 : A_DTS
Duration                                 : 1 h 46 min
Bit rate mode                            : Variable / Constant
Bit rate                                 : 2 440 kb/s / 1 509 kb/s
Channel(s)                               : 6 channels
Channel positions                        : Front: L C R, Side: L R, LFE
Sampling rate                            : 48.0 kHz
Frame rate                               : 93.750 FPS (512 SPF)
Bit depth                                : 16 bits
Compression mode                         : Lossless / Lossy
Stream size                              : 1.82 GiB (4%)
Title                                    : Dunkirk.2017.2160p.BluRay.REMUX.HEVC.DTS-HD.MA.5.1-FGT
Language                                 : Italian
Default                                  : No
Forced                                   : No

Audio #5
ID                                       : 6
Format                                   : AC-3
Format/Info                              : Audio Coding 3
Codec ID                                 : A_AC3
Duration                                 : 1 h 46 min
Bit rate mode                            : Constant
Bit rate                                 : 448 kb/s
Channel(s)                               : 6 channels
Channel positions                        : Front: L C R, Side: L R, LFE
Sampling rate                            : 48.0 kHz
Frame rate                               : 31.250 FPS (1536 SPF)
Bit depth                                : 16 bits
Compression mode                         : Lossy
Stream size                              : 342 MiB (1%)
Title                                    : Dunkirk.2017.2160p.BluRay.REMUX.HEVC.DTS-HD.MA.5.1-FGT
Language                                 : Chinese
Service kind                             : Complete Main
Default                                  : No
Forced                                   : No

Audio #6
ID                                       : 7
Format                                   : AC-3
Format/Info                              : Audio Coding 3
Codec ID                                 : A_AC3
Duration                                 : 1 h 46 min
Bit rate mode                            : Constant
Bit rate                                 : 448 kb/s
Channel(s)                               : 6 channels
Channel positions                        : Front: L C R, Side: L R, LFE
Sampling rate                            : 48.0 kHz
Frame rate                               : 31.250 FPS (1536 SPF)
Bit depth                                : 16 bits
Compression mode                         : Lossy
Stream size                              : 342 MiB (1%)
Title                                    : Dunkirk.2017.2160p.BluRay.REMUX.HEVC.DTS-HD.MA.5.1-FGT
Language                                 : Czech
Service kind                             : Complete Main
Default                                  : No
Forced                                   : No

Audio #7
ID                                       : 8
Format                                   : AC-3
Format/Info                              : Audio Coding 3
Codec ID                                 : A_AC3
Duration                                 : 1 h 46 min
Bit rate mode                            : Constant
Bit rate                                 : 448 kb/s
Channel(s)                               : 6 channels
Channel positions                        : Front: L C R, Side: L R, LFE
Sampling rate                            : 48.0 kHz
Frame rate                               : 31.250 FPS (1536 SPF)
Bit depth                                : 16 bits
Compression mode                         : Lossy
Stream size                              : 342 MiB (1%)
Title                                    : Dunkirk.2017.2160p.BluRay.REMUX.HEVC.DTS-HD.MA.5.1-FGT
Language                                 : Hungarian
Service kind                             : Complete Main
Default                                  : No
Forced                                   : No

Audio #8
ID                                       : 9
Format                                   : AC-3
Format/Info                              : Audio Coding 3
Codec ID                                 : A_AC3
Duration                                 : 1 h 46 min
Bit rate mode                            : Constant
Bit rate                                 : 448 kb/s
Channel(s)                               : 6 channels
Channel positions                        : Front: L C R, Side: L R, LFE
Sampling rate                            : 48.0 kHz
Frame rate                               : 31.250 FPS (1536 SPF)
Bit depth                                : 16 bits
Compression mode                         : Lossy
Stream size                              : 342 MiB (1%)
Title                                    : Dunkirk.2017.2160p.BluRay.REMUX.HEVC.DTS-HD.MA.5.1-FGT
Language                                 : Polish
Service kind                             : Complete Main
Default                                  : No
Forced                                   : No

Audio #9
ID                                       : 10
Format                                   : AC-3
Format/Info                              : Audio Coding 3
Codec ID                                 : A_AC3
Duration                                 : 1 h 46 min
Bit rate mode                            : Constant
Bit rate                                 : 448 kb/s
Channel(s)                               : 6 channels
Channel positions                        : Front: L C R, Side: L R, LFE
Sampling rate                            : 48.0 kHz
Frame rate                               : 31.250 FPS (1536 SPF)
Bit depth                                : 16 bits
Compression mode                         : Lossy
Stream size                              : 342 MiB (1%)
Title                                    : Dunkirk.2017.2160p.BluRay.REMUX.HEVC.DTS-HD.MA.5.1-FGT
Language                                 : Russian
Service kind                             : Complete Main
Default                                  : No
Forced                                   : No

Audio #10
ID                                       : 11
Format                                   : AC-3
Format/Info                              : Audio Coding 3
Codec ID                                 : A_AC3
Duration                                 : 1 h 46 min
Bit rate mode                            : Constant
Bit rate                                 : 448 kb/s
Channel(s)                               : 6 channels
Channel positions                        : Front: L C R, Side: L R, LFE
Sampling rate                            : 48.0 kHz
Frame rate                               : 31.250 FPS (1536 SPF)
Bit depth                                : 16 bits
Compression mode                         : Lossy
Stream size                              : 342 MiB (1%)
Title                                    : Dunkirk.2017.2160p.BluRay.REMUX.HEVC.DTS-HD.MA.5.1-FGT
Language                                 : Thai
Service kind                             : Complete Main
Default                                  : No
Forced                                   : No

Audio #11
ID                                       : 12
Format                                   : AC-3
Format/Info                              : Audio Coding 3
Codec ID                                 : A_AC3
Duration                                 : 1 h 46 min
Bit rate mode                            : Constant
Bit rate                                 : 448 kb/s
Channel(s)                               : 6 channels
Channel positions                        : Front: L C R, Side: L R, LFE
Sampling rate                            : 48.0 kHz
Frame rate                               : 31.250 FPS (1536 SPF)
Bit depth                                : 16 bits
Compression mode                         : Lossy
Stream size                              : 342 MiB (1%)
Title                                    : Dunkirk.2017.2160p.BluRay.REMUX.HEVC.DTS-HD.MA.5.1-FGT
Language                                 : Turkish
Service kind                             : Complete Main
Default                                  : No
Forced                                   : No

Text #1
ID                                       : 13
Format                                   : PGS
Muxing mode                              : zlib
Codec ID                                 : S_HDMV/PGS
Codec ID/Info                            : Picture based subtitle format used on BDs/HD-DVDs
Duration                                 : 1 h 45 min
Bit rate                                 : 18.9 kb/s
Count of elements                        : 1718
Stream size                              : 14.3 MiB (0%)
Title                                    : English-PGS
Language                                 : English
Default                                  : Yes
Forced                                   : No

Text #2
ID                                       : 14
Format                                   : PGS
Muxing mode                              : zlib
Codec ID                                 : S_HDMV/PGS
Codec ID/Info                            : Picture based subtitle format used on BDs/HD-DVDs
Duration                                 : 1 h 46 min
Bit rate                                 : 10.9 kb/s
Count of elements                        : 1296
Stream size                              : 8.30 MiB (0%)
Title                                    : French-PGS
Language                                 : French
Default                                  : No
Forced                                   : No

Text #3
ID                                       : 15
Format                                   : PGS
Muxing mode                              : zlib
Codec ID                                 : S_HDMV/PGS
Codec ID/Info                            : Picture based subtitle format used on BDs/HD-DVDs
Duration                                 : 1 h 45 min
Bit rate                                 : 16.9 kb/s
Count of elements                        : 1754
Stream size                              : 12.8 MiB (0%)
Title                                    : Italian-PGS
Language                                 : Italian
Default                                  : No
Forced                                   : No

Text #4
ID                                       : 16
Format                                   : PGS
Muxing mode                              : zlib
Codec ID                                 : S_HDMV/PGS
Codec ID/Info                            : Picture based subtitle format used on BDs/HD-DVDs
Duration                                 : 1 h 45 min
Bit rate                                 : 12.0 kb/s
Count of elements                        : 1282
Stream size                              : 9.07 MiB (0%)
Title                                    : Dutch-PGS
Language                                 : Dutch
Default                                  : No
Forced                                   : No

Text #5
ID                                       : 17
Format                                   : PGS
Muxing mode                              : zlib
Codec ID                                 : S_HDMV/PGS
Codec ID/Info                            : Picture based subtitle format used on BDs/HD-DVDs
Duration                                 : 1 h 45 min
Bit rate                                 : 10.9 kb/s
Count of elements                        : 1366
Stream size                              : 8.26 MiB (0%)
Title                                    : Chinese-PGS
Language                                 : Chinese
Default                                  : No
Forced                                   : No

Text #6
ID                                       : 18
Format                                   : PGS
Muxing mode                              : zlib
Codec ID                                 : S_HDMV/PGS
Codec ID/Info                            : Picture based subtitle format used on BDs/HD-DVDs
Duration                                 : 1 h 46 min
Bit rate                                 : 16.1 kb/s
Count of elements                        : 1310
Stream size                              : 12.2 MiB (0%)
Title                                    : Chinese-PGS
Language                                 : Chinese
Default                                  : No
Forced                                   : No

Text #7
ID                                       : 19
Format                                   : PGS
Muxing mode                              : zlib
Codec ID                                 : S_HDMV/PGS
Codec ID/Info                            : Picture based subtitle format used on BDs/HD-DVDs
Duration                                 : 1 h 46 min
Bit rate                                 : 11.8 kb/s
Count of elements                        : 1424
Stream size                              : 8.92 MiB (0%)
Title                                    : Chinese-PGS
Language                                 : Chinese
Default                                  : No
Forced                                   : No

Text #8
ID                                       : 20
Format                                   : PGS
Muxing mode                              : zlib
Codec ID                                 : S_HDMV/PGS
Codec ID/Info                            : Picture based subtitle format used on BDs/HD-DVDs
Duration                                 : 1 h 46 min
Bit rate                                 : 7 996 b/s
Count of elements                        : 1402
Stream size                              : 6.07 MiB (0%)
Title                                    : Korean-PGS
Language                                 : Korean
Default                                  : No
Forced                                   : No

Text #9
ID                                       : 21
Format                                   : PGS
Muxing mode                              : zlib
Codec ID                                 : S_HDMV/PGS
Codec ID/Info                            : Picture based subtitle format used on BDs/HD-DVDs
Duration                                 : 1 h 46 min
Bit rate                                 : 7 968 b/s
Count of elements                        : 1432
Stream size                              : 6.05 MiB (0%)
Title                                    : Arabic-PGS
Language                                 : Arabic
Default                                  : No
Forced                                   : No

Text #10
ID                                       : 22
Format                                   : PGS
Muxing mode                              : zlib
Codec ID                                 : S_HDMV/PGS
Codec ID/Info                            : Picture based subtitle format used on BDs/HD-DVDs
Duration                                 : 1 h 45 min
Bit rate                                 : 14.3 kb/s
Count of elements                        : 1416
Stream size                              : 10.8 MiB (0%)
Title                                    : Croatian-PGS
Language                                 : Croatian
Default                                  : No
Forced                                   : No

Text #11
ID                                       : 23
Format                                   : PGS
Muxing mode                              : zlib
Codec ID                                 : S_HDMV/PGS
Codec ID/Info                            : Picture based subtitle format used on BDs/HD-DVDs
Duration                                 : 1 h 46 min
Bit rate                                 : 12.4 kb/s
Count of elements                        : 1424
Stream size                              : 9.45 MiB (0%)
Title                                    : Czech-PGS
Language                                 : Czech
Default                                  : No
Forced                                   : No

Text #12
ID                                       : 24
Format                                   : PGS
Muxing mode                              : zlib
Codec ID                                 : S_HDMV/PGS
Codec ID/Info                            : Picture based subtitle format used on BDs/HD-DVDs
Duration                                 : 1 h 45 min
Bit rate                                 : 12.8 kb/s
Count of elements                        : 1078
Stream size                              : 9.70 MiB (0%)
Title                                    : Danish-PGS
Language                                 : Danish
Default                                  : No
Forced                                   : No

Text #13
ID                                       : 25
Format                                   : PGS
Muxing mode                              : zlib
Codec ID                                 : S_HDMV/PGS
Codec ID/Info                            : Picture based subtitle format used on BDs/HD-DVDs
Duration                                 : 1 h 45 min
Bit rate                                 : 14.9 kb/s
Count of elements                        : 1420
Stream size                              : 11.3 MiB (0%)
Title                                    : Finnish-PGS
Language                                 : Finnish
Default                                  : No
Forced                                   : No

Text #14
ID                                       : 26
Format                                   : PGS
Muxing mode                              : zlib
Codec ID                                 : S_HDMV/PGS
Codec ID/Info                            : Picture based subtitle format used on BDs/HD-DVDs
Duration                                 : 1 h 46 min
Bit rate                                 : 16.5 kb/s
Count of elements                        : 1420
Stream size                              : 12.5 MiB (0%)
Title                                    : Greek-PGS
Language                                 : Greek
Default                                  : No
Forced                                   : No

Text #15
ID                                       : 27
Format                                   : PGS
Muxing mode                              : zlib
Codec ID                                 : S_HDMV/PGS
Codec ID/Info                            : Picture based subtitle format used on BDs/HD-DVDs
Duration                                 : 1 h 46 min
Bit rate                                 : 9 729 b/s
Count of elements                        : 1424
Stream size                              : 7.38 MiB (0%)
Title                                    : Hebrew-PGS
Language                                 : Hebrew
Default                                  : No
Forced                                   : No

Text #16
ID                                       : 28
Format                                   : PGS
Muxing mode                              : zlib
Codec ID                                 : S_HDMV/PGS
Codec ID/Info                            : Picture based subtitle format used on BDs/HD-DVDs
Duration                                 : 1 h 45 min
Bit rate                                 : 14.0 kb/s
Count of elements                        : 1394
Stream size                              : 10.6 MiB (0%)
Title                                    : Hungarian-PGS
Language                                 : Hungarian
Default                                  : No
Forced                                   : No

Text #17
ID                                       : 29
Format                                   : PGS
Muxing mode                              : zlib
Codec ID                                 : S_HDMV/PGS
Codec ID/Info                            : Picture based subtitle format used on BDs/HD-DVDs
Duration                                 : 1 h 45 min
Bit rate                                 : 12.1 kb/s
Count of elements                        : 1088
Stream size                              : 9.14 MiB (0%)
Title                                    : Norwegian-PGS
Language                                 : Norwegian
Default                                  : No
Forced                                   : No

Text #18
ID                                       : 30
Format                                   : PGS
Muxing mode                              : zlib
Codec ID                                 : S_HDMV/PGS
Codec ID/Info                            : Picture based subtitle format used on BDs/HD-DVDs
Duration                                 : 1 h 46 min
Bit rate                                 : 12.2 kb/s
Count of elements                        : 1390
Stream size                              : 9.24 MiB (0%)
Title                                    : Polish-PGS
Language                                 : Polish
Default                                  : No
Forced                                   : No

Text #19
ID                                       : 31
Format                                   : PGS
Muxing mode                              : zlib
Codec ID                                 : S_HDMV/PGS
Codec ID/Info                            : Picture based subtitle format used on BDs/HD-DVDs
Duration                                 : 1 h 45 min
Bit rate                                 : 15.0 kb/s
Count of elements                        : 1424
Stream size                              : 11.3 MiB (0%)
Title                                    : Portuguese-PGS
Language                                 : Portuguese
Default                                  : No
Forced                                   : No

Text #20
ID                                       : 32
Format                                   : PGS
Muxing mode                              : zlib
Codec ID                                 : S_HDMV/PGS
Codec ID/Info                            : Picture based subtitle format used on BDs/HD-DVDs
Duration                                 : 1 h 45 min
Bit rate                                 : 13.6 kb/s
Count of elements                        : 1386
Stream size                              : 10.3 MiB (0%)
Title                                    : Romanian-PGS
Language                                 : Romanian
Default                                  : No
Forced                                   : No

Text #21
ID                                       : 33
Format                                   : PGS
Muxing mode                              : zlib
Codec ID                                 : S_HDMV/PGS
Codec ID/Info                            : Picture based subtitle format used on BDs/HD-DVDs
Duration                                 : 1 h 46 min
Bit rate                                 : 14.1 kb/s
Count of elements                        : 1292
Stream size                              : 10.7 MiB (0%)
Title                                    : Russian-PGS
Language                                 : Russian
Default                                  : No
Forced                                   : No

Text #22
ID                                       : 34
Format                                   : PGS
Muxing mode                              : zlib
Codec ID                                 : S_HDMV/PGS
Codec ID/Info                            : Picture based subtitle format used on BDs/HD-DVDs
Duration                                 : 1 h 45 min
Bit rate                                 : 14.0 kb/s
Count of elements                        : 1396
Stream size                              : 10.6 MiB (0%)
Title                                    : Swedish-PGS
Language                                 : Swedish
Default                                  : No
Forced                                   : No

Text #23
ID                                       : 35
Format                                   : PGS
Muxing mode                              : zlib
Codec ID                                 : S_HDMV/PGS
Codec ID/Info                            : Picture based subtitle format used on BDs/HD-DVDs
Duration                                 : 1 h 46 min
Bit rate                                 : 11.7 kb/s
Count of elements                        : 1426
Stream size                              : 8.86 MiB (0%)
Title                                    : Thai-PGS
Language                                 : Thai
Default                                  : No
Forced                                   : No

Text #24
ID                                       : 36
Format                                   : PGS
Muxing mode                              : zlib
Codec ID                                 : S_HDMV/PGS
Codec ID/Info                            : Picture based subtitle format used on BDs/HD-DVDs
Duration                                 : 1 h 45 min
Bit rate                                 : 14.3 kb/s
Count of elements                        : 1406
Stream size                              : 10.8 MiB (0%)
Title                                    : Turkish-PGS
Language                                 : Turkish
Default                                  : No
Forced                                   : No

Text #25
ID                                       : 37
Format                                   : PGS
Muxing mode                              : zlib
Codec ID                                 : S_HDMV/PGS
Codec ID/Info                            : Picture based subtitle format used on BDs/HD-DVDs
Duration                                 : 1 h 45 min
Bit rate                                 : 376 b/s
Count of elements                        : 34
Stream size                              : 291 KiB (0%)
Title                                    : French-FORCED-PGS
Language                                 : French
Default                                  : No
Forced                                   : No

Text #26
ID                                       : 38
Format                                   : PGS
Muxing mode                              : zlib
Codec ID                                 : S_HDMV/PGS
Codec ID/Info                            : Picture based subtitle format used on BDs/HD-DVDs
Duration                                 : 1 h 45 min
Bit rate                                 : 515 b/s
Count of elements                        : 38
Stream size                              : 399 KiB (0%)
Title                                    : Italian-FORCED-PGS
Language                                 : Italian
Default                                  : No
Forced                                   : No

Text #27
ID                                       : 39
Format                                   : PGS
Muxing mode                              : zlib
Codec ID                                 : S_HDMV/PGS
Codec ID/Info                            : Picture based subtitle format used on BDs/HD-DVDs
Duration                                 : 1 h 45 min
Bit rate                                 : 620 b/s
Count of elements                        : 48
Stream size                              : 480 KiB (0%)
Title                                    : Chinese-FORCED-PGS
Language                                 : Chinese
Default                                  : No
Forced                                   : No

Text #28
ID                                       : 40
Format                                   : PGS
Muxing mode                              : zlib
Codec ID                                 : S_HDMV/PGS
Codec ID/Info                            : Picture based subtitle format used on BDs/HD-DVDs
Duration                                 : 1 h 40 min
Bit rate                                 : 91 b/s
Count of elements                        : 18
Stream size                              : 67.3 KiB (0%)
Title                                    : Czech-FORCED-PGS
Language                                 : Czech
Default                                  : No
Forced                                   : No

Text #29
ID                                       : 41
Format                                   : PGS
Muxing mode                              : zlib
Codec ID                                 : S_HDMV/PGS
Codec ID/Info                            : Picture based subtitle format used on BDs/HD-DVDs
Duration                                 : 1 h 45 min
Bit rate                                 : 538 b/s
Count of elements                        : 38
Stream size                              : 417 KiB (0%)
Title                                    : Hungarian-FORCED-PGS
Language                                 : Hungarian
Default                                  : No
Forced                                   : No

Text #30
ID                                       : 42
Format                                   : PGS
Muxing mode                              : zlib
Codec ID                                 : S_HDMV/PGS
Codec ID/Info                            : Picture based subtitle format used on BDs/HD-DVDs
Duration                                 : 1 h 45 min
Bit rate                                 : 895 b/s
Count of elements                        : 60
Stream size                              : 694 KiB (0%)
Title                                    : Russian-FORCED-PGS
Language                                 : Russian
Default                                  : No
Forced                                   : No

Text #31
ID                                       : 43
Format                                   : PGS
Muxing mode                              : zlib
Codec ID                                 : S_HDMV/PGS
Codec ID/Info                            : Picture based subtitle format used on BDs/HD-DVDs
Duration                                 : 1 h 45 min
Bit rate                                 : 522 b/s
Count of elements                        : 40
Stream size                              : 404 KiB (0%)
Title                                    : Turkish-FORCED-PGS
Language                                 : Turkish
Default                                  : No
Forced                                   : No

Menu
00:00:00.000                             : en:Chapter 1
00:08:51.364                             : en:Chapter 2
00:20:13.754                             : en:Chapter 3
00:29:07.620                             : en:Chapter 4
00:42:35.261                             : en:Chapter 5
00:52:48.206                             : en:Chapter 6
01:04:32.827                             : en:Chapter 7
01:12:50.824                             : en:Chapter 8
01:25:55.024                             : en:Chapter 9
01:33:23.347                             : en:Chapter 10
01:39:13.906                             : en:Chapter 11

敦刻尔克大撤退 / 敦克尔克大行动(台) / 邓寇克大行动(港)/ 敦刻尔克4K Dunkirk.2017.2160p.BluRay.HEVC.DTS-HD.MA.5.1-CYBER  4K UHD蓝光原盘电影资源下载

敦刻尔克4K Dunkirk.2017.2160p.BluRay.HEVC.DTS-HD.MA.5.1-CYBER  (4K UHD 蓝光原盘破解版 2160p  55.96GB )
游客,如果您要查看本帖隐藏内容请回复

敦刻尔克4K  Dunkirk.2017.2160p.BluRay.REMUX.HEVC.DTS-HD.MA.5.1-FGT (4K UHD 蓝光原盘破解版 2160p  51.54GB )
游客,如果您要查看本帖隐藏内容请回复

0

主题

31

帖子

15

K币

Rank: 8Rank: 8

威望
0
积分
44
几吉 发表于 2018-1-5 19:34:44 | 显示全部楼层
谢谢楼主分享 楼主辛苦了

0

主题

28

帖子

47

K币

Rank: 1

威望
0
积分
54
wy673 发表于 2018-1-5 19:42:52 | 显示全部楼层
感谢楼主分享

0

主题

34

帖子

1

K币

Rank: 1

威望
0
积分
59
seaful 发表于 2018-1-5 19:47:46 | 显示全部楼层

谢谢楼主分享 楼主辛苦了

1

主题

221

帖子

76

K币

Rank: 2

威望
0
积分
349
paul1792278 发表于 2018-1-5 19:48:25 | 显示全部楼层
啥也不说了,感谢楼主在hao4k分享4k视频内容哇!

1

主题

65

帖子

7

K币

Rank: 8Rank: 8

威望
0
积分
100
KINGCOBRA1224 发表于 2018-1-5 19:49:26 | 显示全部楼层
終於等到4K版了

0

主题

109

帖子

3

K币

Rank: 1

威望
0
积分
122
MC1991 发表于 2018-1-5 19:49:38 | 显示全部楼层
谢谢楼主分享 楼主辛苦了

0

主题

26

帖子

88

K币

Rank: 1

威望
0
积分
64
hmsam 发表于 2018-1-5 19:51:10 | 显示全部楼层
謝謝                  

0

主题

12

帖子

46

K币

Rank: 1

威望
0
积分
43
suchangg 发表于 2018-1-5 20:04:01 | 显示全部楼层
终于等来了!

0

主题

40

帖子

23

K币

Rank: 1

威望
0
积分
80
松菲 发表于 2018-1-5 20:11:57 | 显示全部楼层
啥也不说了,感谢楼主在hao4k分享4k视频内容哇!
您需要登录后才可以回帖 登录 | 立即注册

本版积分规则

Copyright   ©2015-2016  hao4k  Powered by©Discuz!