猜你喜欢

美国刺客4k American.Assassin.2017.BDREMUX.2160p.4K.UltraHD.HEVC.HDR.ExKinoRay 4K版下载[第一百九十七部破解4K UHD蓝光原盘电影]

  [复制链接]
查看: 5959|回复: 186

399

主题

543

帖子

2604

K币

Rank: 9Rank: 9Rank: 9

威望
998
积分
21151
lili 发表于 2018-1-6 10:58:48 | 显示全部楼层 |阅读模式

片  名:美国刺客4k [下载地址在帖子底部]

  • 年  代:2017  
  • 国  家:美国
  • 类  别:动作 惊悚 
  • 字  幕:英文原版
  • 上映日期:2017-09-15
  • 文件格式:mkv   
  • 视频效果:4K(3840x2160)    
  • 文件大小:82.07GB
  • 片  长:111分钟
  • 导  演:迈克尔·科斯塔
  • 豆瓣链接:https://movie.douban.com/subject/6873655/
  • 主  演:迪伦·欧布莱恩 / 迈克尔·基顿 / 泰勒·克奇 / 桑娜·莱瑟 / 希娃·尼加 / 斯科特·阿金斯 / 特雷弗·怀特 / 穆罕默德·巴克里 / 夏洛特·维嘉 / 巴斯特·雷维斯 / 杰夫·戴维斯 / 大卫·苏切 / 迈克尔·怀德曼 / 纳维德·内加班 / 悉德妮·怀特 / 阿拉·萨菲

剧情简介

米奇·拉普(迪伦·欧布莱恩 Dylan O\'Brien 饰)是一个普通的美国青年,他在14岁时在一场悲剧性的车祸中失去了双亲,而与他刚刚订婚的女友也死在了恐怖分子的手中,一心寻求复仇的他被中情局副主管爱琳·肯尼迪(桑娜·莱瑟 Sanaa Lathan 饰)招募进入了黑色行动,由冷战时期的精英斯坦·赫利(迈克尔·基顿 Michael Keaton 饰)。米奇的天赋令人惊叹,而斯坦也必须与初出茅庐的米奇共同化解一次可能发起第三次世界大战的致命阴谋......

美国刺客4k American.Assassin.2017.BDREMUX.2160p.4K.UltraHD.HEVC.HDR.ExKinoRay 4K版下载[第一百九十七 ...

美国刺客4k American.Assassin.2017.BDREMUX.2160p.4K.UltraHD.HEVC.HDR.ExKinoRay  4K版下载[第一百九十七 ...

美国特工(港)/美国刺客4k American.Assassin.2017.BDREMUX.2160p.4K.UltraHD.HEVC.HDR.ExKinoRay 4K UHD蓝光原盘电影资源信息

第一百九十七部 4K UHD 蓝光原盘破解版,含完整的 BDMV 文件夹以及数据,AACS 2.0 协议已被完整破解。
DISC INFO:

Disc Title:     American.Assassin.2017.2160p.BluRay.HEVC.TrueHD.7.1.Atmos-COASTER
Disc Size:      88,097,158,529 bytes
Protection:     AACS2
BD-Java:        Yes
Extras:         Ultra HD
BDInfo:         0.5.8.7 (compatible layout created by DVDFab 10.0.7.6)

PLAYLIST REPORT:

Name:                   00802.MPLS  
Length:                 1:51:44.739 (h:m:s.ms)
Size:                   72,143,960,064 bytes
Total Bitrate:          86.08 Mbps

(*) Indicates included stream hidden by this playlist.

VIDEO:

Codec                   Bitrate             Description     
-----                   -------             -----------     
MPEG-H HEVC Video       66335 kbps          2160p / 23.976 fps / 16:9 / Main 10 Profile 5.1 High / 4:2:0 / 10 bits / HDR / BT.2020 /
* MPEG-H HEVC Video     7974 kbps           1080p / 23.976 fps / 16:9 / Main 10 Profile 5.1 High / 4:2:0 / 10 bits / Dolby Vision / BT.2020 /

AUDIO:

Codec                           Language        Bitrate         Description     
-----                           --------        -------         -----------     
Dolby Atmos/TrueHD Audio        English         5107 kbps       7.1-Atmos / 48 kHz / 5107 kbps / 24-bit (AC3 Core: 5.1-EX / 48 kHz / 640 kbps)
Dolby Digital Audio             Spanish         640 kbps        5.1 / 48 kHz / 640 kbps
Dolby Digital Audio             French          640 kbps        5.1 / 48 kHz / 640 kbps
Dolby Digital Audio             English         224 kbps        2.0 / 48 kHz / 224 kbps / Dolby Surround
Dolby Digital Audio             English         224 kbps        2.0 / 48 kHz / 224 kbps / Dolby Surround

SUBTITLES:

Codec                           Language        Bitrate         Description     
-----                           --------        -------         -----------     
Presentation Graphics           English         26.269 kbps                     
Presentation Graphics           Spanish         23.37 kbps                     
Presentation Graphics           Spanish         1.773 kbps                     
Presentation Graphics           French          1.872 kbps              



REMUX
Video
ID                                       : 1
Format                                   : AVC
Format/Info                              : Advanced Video Codec
Format profile                           : High@L5.1
Format settings                          : CABAC / 5 Ref Frames
Format settings, CABAC                   : Yes
Format settings, RefFrames               : 5 frames
Codec ID                                 : V_MPEG4/ISO/AVC
Duration                                 : 1 h 51 min
Bit rate                                 : 45.3 Mb/s
Width                                    : 3 840 pixels
Height                                   : 1 606 pixels
Display aspect ratio                     : 2.40:1
Frame rate mode                          : Constant
Frame rate                               : 23.976 (24000/1001) FPS
Color space                              : YUV
Chroma subsampling                       : 4:2:0
Bit depth                                : 8 bits
Scan type                                : Progressive
Bits/(Pixel*Frame)                       : 0.307
Stream size                              : 35.4 GiB (83%)
Title                                    : American.Assassin.2017.2160p.BluRay.x264.8bit.SDR.DTS-HD.MA.TrueHD.7.1.Atmos-SWTYBLZ
Writing library                          : x264 core 148 r2748 97eaef2
Encoding settings                        : cabac=1 / ref=5 / deblock=1:-1:-1 / analyse=0x3:0x113 / me=umh / subme=10 / psy=1 / psy_rd=1.00:0.15 / mixed_ref=1 / me_range=48 / chroma_me=1 / trellis=2 / 8x8dct=1 / cqm=0 / deadzone=21,11 / fast_pskip=1 / chroma_qp_offset=-3 / threads=50 / lookahead_threads=4 / sliced_threads=0 / nr=0 / decimate=0 / interlaced=0 / bluray_compat=0 / constrained_intra=0 / bframes=3 / b_pyramid=2 / b_adapt=2 / b_bias=0 / direct=3 / weightb=1 / open_gop=0 / weightp=2 / keyint=250 / keyint_min=23 / scenecut=40 / intra_refresh=0 / rc_lookahead=50 / rc=crf / mbtree=1 / crf=18.0 / qcomp=0.60 / qpmin=0 / qpmax=69 / qpstep=4 / ip_ratio=1.40 / aq=1:1.00
Default                                  : Yes
Forced                                   : No

Audio #1
ID                                       : 2
Format                                   : TrueHD
Format profile                           : TrueHD+Atmos / TrueHD
Codec ID                                 : A_TRUEHD
Duration                                 : 1 h 51 min
Bit rate mode                            : Variable
Bit rate                                 : 4 467 kb/s
Maximum bit rate                         : 8 019 kb/s
Channel(s)                               : Object Based / 8 channels
Channel positions                        : Object Based / Front: L C R, Side: L R, Back: L R, LFE
Sampling rate                            :  / 48.0 kHz
Frame rate                               : 1 200.000 FPS (40 SPF)
Compression mode                         : Lossless
Stream size                              : 3.49 GiB (8%)
Title                                    : American.Assassin.2017.2160p.BluRay.x264.8bit.SDR.DTS-HD.MA.TrueHD.7.1.Atmos-SWTYBLZ
Language                                 : English
Default                                  : Yes
Forced                                   : No

Audio #2
ID                                       : 3
Format                                   : DTS
Format/Info                              : Digital Theater Systems
Format profile                           : MA / Core
Codec ID                                 : A_DTS
Duration                                 : 1 h 51 min
Bit rate mode                            : Variable / Constant
Bit rate                                 : 3 840 kb/s / 1 509 kb/s
Channel(s)                               : 8 channels / 6 channels
Channel positions                        : Front: L C R, Side: L R, Back: L R, LFE / Front: L C R, Side: L R, LFE
Sampling rate                            : 48.0 kHz
Frame rate                               : 93.750 FPS (512 SPF)
Bit depth                                : 24 bits
Compression mode                         : Lossless / Lossy
Stream size                              : 3.03 GiB (7%)
Title                                    : American.Assassin.2017.2160p.BluRay.x264.8bit.SDR.DTS-HD.MA.TrueHD.7.1.Atmos-SWTYBLZ
Language                                 : English
Default                                  : No
Forced                                   : No

Audio #3
ID                                       : 4
Format                                   : AC-3
Format/Info                              : Audio Coding 3
Codec ID                                 : A_AC3
Duration                                 : 1 h 51 min
Bit rate mode                            : Constant
Bit rate                                 : 640 kb/s
Channel(s)                               : 6 channels
Channel positions                        : Front: L C R, Side: L R, LFE
Sampling rate                            : 48.0 kHz
Frame rate                               : 31.250 FPS (1536 SPF)
Bit depth                                : 16 bits
Compression mode                         : Lossy
Stream size                              : 512 MiB (1%)
Title                                    : American.Assassin.2017.2160p.BluRay.x264.8bit.SDR.DTS-HD.MA.TrueHD.7.1.Atmos-SWTYBLZ
Language                                 : English
Service kind                             : Complete Main
Default                                  : No
Forced                                   : No

Text #1
ID                                       : 5
Format                                   : UTF-8
Codec ID                                 : S_TEXT/UTF8
Codec ID/Info                            : UTF-8 Plain Text
Duration                                 : 1 h 42 min
Bit rate                                 : 44 b/s
Count of elements                        : 1123
Stream size                              : 33.7 KiB (0%)
Title                                    : English-SRT
Language                                 : English
Default                                  : Yes
Forced                                   : No

Text #2
ID                                       : 6
Format                                   : UTF-8
Codec ID                                 : S_TEXT/UTF8
Codec ID/Info                            : UTF-8 Plain Text
Duration                                 : 1 h 42 min
Bit rate                                 : 49 b/s
Count of elements                        : 1289
Stream size                              : 37.5 KiB (0%)
Title                                    : English-SDH-SRT
Language                                 : English
Default                                  : No
Forced                                   : No

Text #3
ID                                       : 7
Format                                   : PGS
Muxing mode                              : zlib
Codec ID                                 : S_HDMV/PGS
Codec ID/Info                            : Picture based subtitle format used on BDs/HD-DVDs
Duration                                 : 1 h 42 min
Bit rate                                 : 28.7 kb/s
Count of elements                        : 2578
Stream size                              : 21.0 MiB (0%)
Title                                    : English-PGS
Language                                 : English
Default                                  : No
Forced                                   : No

Text #4
ID                                       : 8
Format                                   : PGS
Muxing mode                              : zlib
Codec ID                                 : S_HDMV/PGS
Codec ID/Info                            : Picture based subtitle format used on BDs/HD-DVDs
Duration                                 : 1 h 42 min
Bit rate                                 : 25.4 kb/s
Count of elements                        : 2198
Stream size                              : 18.7 MiB (0%)
Title                                    : Spanish-PGS
Language                                 : Spanish
Default                                  : No
Forced                                   : No

Menu
00:00:00.000                             : en:Chapter 1
00:05:32.623                             : en:Chapter 2
00:11:18.386                             : en:Chapter 3
00:16:10.552                             : en:Chapter 4
00:20:39.321                             : en:Chapter 5
00:29:17.172                             : en:Chapter 6
00:40:31.971                             : en:Chapter 7
00:52:33.400                             : en:Chapter 8
00:57:10.760                             : en:Chapter 9
01:07:09.066                             : en:Chapter 10
01:12:53.494                             : en:Chapter 11
01:17:45.535                             : en:Chapter 12
01:22:38.119                             : en:Chapter 13
01:28:33.057                             : en:Chapter 14
01:33:14.797                             : en:Chapter 15
01:41:12.858                             : en:Chapter 16


美国特工(港)/美国刺客4k American.Assassin.2017.BDREMUX.2160p.4K.UltraHD.HEVC.HDR.ExKinoRay 4K UHD蓝光原盘电影资源下载

美国刺客4k American.Assassin.2017.2160p.BluRay.HEVC.TrueHD.7.1.Atmos-COASTER  (4K UHD 蓝光原盘破解版 2160p  82.06GB )
游客,如果您要查看本帖隐藏内容请回复

美国刺客4k American.Assassin.2017.2160p.BluRay.REMUX.HEVC.DTS-HD.MA.TrueHD.7.1.Atmos-FGT   (4K UHD 蓝光原盘破解版 2160p  66.43GB )
游客,如果您要查看本帖隐藏内容请回复

美国刺客4k American.Assassin.2017.2160p.BluRay.x264.8bit.SDR.DTS-HD.MA.TrueHD.7.1.Atmos-SWTYBLZ   (4K UHD 蓝光原盘破解版 2160p  42.84GB )
游客,如果您要查看本帖隐藏内容请回复

美国刺客4k American.Assassin.2017.2160p.BluRay.x265.10bit.SDR.DTS-HD.MA.TrueHD.7.1.Atmos-SWTYBLZ (4K UHD 蓝光原盘破解版 2160p  36.09GB )
游客,如果您要查看本帖隐藏内容请回复

美国刺客4k American.Assassin.2017.BDREMUX.2160p.4K.UltraHD.HEVC.HDR.ExKinoRay   (4K UHD 蓝光原盘破解版 2160p  56.11GB )
游客,如果您要查看本帖隐藏内容请回复

0

主题

5

帖子

14

K币

Rank: 1

威望
0
积分
6
book1971 发表于 2018-1-6 11:07:50 | 显示全部楼层

谢谢楼主分享 楼主辛苦了

1

主题

9

帖子

12

K币

Rank: 1

威望
0
积分
12
恋恋小雅 发表于 2018-1-6 11:09:19 | 显示全部楼层
谢谢分享,看看好不好看

1

主题

22

帖子

9

K币

Rank: 1

威望
0
积分
25
luhua6 发表于 2018-1-6 11:11:52 | 显示全部楼层
这个必须顶起来!好东东!

1

主题

40

帖子

1

K币

Rank: 1

威望
0
积分
66
小黑仔 发表于 2018-1-6 11:16:38 | 显示全部楼层
谢谢分享,楼主辛苦了!

0

主题

203

帖子

0

K币

Rank: 8Rank: 8

威望
0
积分
236
mcy 发表于 2018-1-6 11:22:56 | 显示全部楼层
真是太好了

0

主题

102

帖子

9

K币

Rank: 8Rank: 8

威望
0
积分
194
zzhan 发表于 2018-1-6 11:50:59 | 显示全部楼层
谢谢楼主分享 楼主辛苦了

0

主题

97

帖子

9

K币

Rank: 8Rank: 8

威望
0
积分
131
yulin1982 发表于 2018-1-6 12:05:57 | 显示全部楼层
感谢分享最新的电影,有你生活更精彩。

0

主题

112

帖子

3

K币

Rank: 1

威望
0
积分
146
yutai1388 发表于 2018-1-6 12:34:07 | 显示全部楼层
啥也不说了,感谢楼主在hao4k分享4k视频内容哇!

0

主题

28

帖子

21

K币

Rank: 1

威望
0
积分
50
renwoxinfjin 发表于 2018-1-6 12:50:37 | 显示全部楼层
支持hao4k,支持楼主大人发布4k资源!
您需要登录后才可以回帖 登录 | 立即注册

本版积分规则

Copyright   ©2015-2016  hao4k  Powered by©Discuz!