发表于 2018-1-7 23:27 | 显示全部楼层 |阅读模式

片  名:木乃伊4k [下载地址在帖子底部]

  • 年  代:80年代  
  • 国  家:美国 
  • 类  别:动作 冒险 奇幻 
  • 字  幕:英文原版
  • 上映日期:1999-05-07
  • 文件格式:mkv   
  • 视频效果:4K(3840x2160)    
  • 资源大小:61.42GB
  • 片  长:125分钟
  • 导  演:斯蒂芬·索莫斯
  • 豆瓣链接:https://movie.douban.com/subject/1295229/
  • 主  演:布兰登·费舍 / 蕾切尔·薇兹 / 约翰·汉纳 / 阿诺德·沃斯洛 / 凯文·J·奥康纳

剧情简介

 埃及城市哈姆纳塔是历代法老墓地,相传此处拥有法老留下的大量珍奇异宝,源源不断的人前往掘金,但却生还者寥寥。哈姆纳塔因此成为谜样的所在,获名“亡灵之城”。
  图书管理员伊芙琳(Rachel Weisz 瑞切尔·薇茨饰)偶然得到一张哈姆纳塔的地图,大为兴奋的她决定和哥哥一起去那儿考古,他们找到曾经的幸存者欧康诺(Brendan Fraser 布兰登·弗雷泽饰),三人结伴前往。
  一段惊险旅途后,伊芙琳一行与其他人终于抵达哈姆纳塔,可是最恐怖的事情发生了:三千年前赛提一世的大祭司伊莫顿犯下罪行,受到最严厉的诅咒被做成木乃伊封缄在石棺里,他的灵魂却不慎被唤醒,拥有了无比法力的伊莫顿即将血洗埃及,给世界带来无边灾难……

木乃伊4k The.Mummy.1999.2160p.BluRay.HEVC.DTS-X.7.1-COASTER 4K版下载[第一百九十八部破解4K UHD蓝光 ...

木乃伊4k The.Mummy.1999.2160p.BluRay.HEVC.DTS-X.7.1-COASTER    4K版下载[第一百九十八部破解4K UHD蓝光 ...


神鬼传奇(台) / 盗墓迷城(港)/木乃伊4k The.Mummy.1999.2160p.BluRay.HEVC.DTS-X.7.1-COASTER 4K UHD蓝光原盘电影资源信息


第195部 4K UHD 蓝光原盘破解版,含完整的 BDMV 文件夹以及数据,AACS 2.0 协议已被完整破解。
DISC INFO:

Disc Title:     The.Mummy.1999.2160p.BluRay.HEVC.DTS-X.7.1-COASTER
Disc Size:      65,928,006,340 bytes
Protection:     AACS2
BD-Java:        Yes
Extras:         Ultra HD
BDInfo:         0.5.8.7 (compatible layout created by DVDFab 10.0.7.6)

PLAYLIST REPORT:

Name:                   00277.MPLS  
Length:                 2:04:49.023 (h:m:s.ms)
Size:                   63,909,365,760 bytes
Total Bitrate:          68.27 Mbps

VIDEO:

Codec                   Bitrate             Description     
-----                   -------             -----------     
MPEG-H HEVC Video       54951 kbps          2160p / 23.976 fps / 16:9 / Main 10 Profile 5.1 High / 4:2:0 / 10 bits / HDR / BT.2020 /

AUDIO:

Codec                           Language        Bitrate         Description     
-----                           --------        -------         -----------     
DTS:X/DTS-HD Master Audio       English         7482 kbps       7.1-X / 48 kHz / 7482 kbps / 24-bit (DTS Core: 5.1 / 48 kHz / 1509 kbps / 24-bit)
DTS Audio                       English         256 kbps        2.0 / 48 kHz / 256 kbps / 24-bit
DTS Audio                       Spanish         768 kbps        5.1 / 48 kHz / 768 kbps / 24-bit
DTS Audio                       French          768 kbps        5.1 / 48 kHz / 768 kbps / 24-bit
Dolby Digital Audio             English         192 kbps        2.0 / 48 kHz / 192 kbps / Dolby Surround
Dolby Digital Audio             English         192 kbps        2.0 / 48 kHz / 192 kbps / Dolby Surround
Dolby Digital Audio             English         192 kbps        2.0 / 48 kHz / 192 kbps / Dolby Surround

SUBTITLES:

Codec                           Language        Bitrate         Description     
-----                           --------        -------         -----------     
Presentation Graphics           English         27.013 kbps                     
Presentation Graphics           Spanish         18.467 kbps                     
Presentation Graphics           French          20.145 kbps                     
Presentation Graphics           Spanish         0.645 kbps                     
Presentation Graphics           French          0.605 kbps        
REMUX

Video
ID                                       : 1
Format                                   : HEVC
Format/Info                              : High Efficiency Video Coding
Format profile                           : Main 10@L5.1@High
Codec ID                                 : V_MPEGH/ISO/HEVC
Duration                                 : 2 h 4 min
Bit rate                                 : 55.0 Mb/s
Width                                    : 3 840 pixels
Height                                   : 2 160 pixels
Display aspect ratio                     : 16:9
Frame rate mode                          : Constant
Frame rate                               : 23.976 (24000/1001) FPS
Color space                              : YUV
Chroma subsampling                       : 4:2:0 (Type 2)
Bit depth                                : 10 bits
Bits/(Pixel*Frame)                       : 0.276
Stream size                              : 47.9 GiB (85%)
Title                                    : The.Mummy.1999.2160p.BluRay.REMUX.HEVC.DTS-X.7.1-FGT
Default                                  : Yes
Forced                                   : No
Color range                              : Limited
Color primaries                          : BT.2020
Transfer characteristics                 : PQ
Matrix coefficients                      : BT.2020 non-constant
Mastering display color primaries        : Display P3
Mastering display luminance              : min: 0.0000 cd/m2, max: 1000 cd/m2
Maximum Content Light Level              : 1033 cd/m2
Maximum Frame-Average Light Level        : 345 cd/m2

Audio #1
ID                                       : 2
Format                                   : DTS
Format/Info                              : Digital Theater Systems
Format profile                           : X / MA / Core
Codec ID                                 : A_DTS
Duration                                 : 2 h 4 min
Bit rate mode                            : Variable / Variable / Constant
Bit rate                                 : 7 482 kb/s / 7 482 kb/s / 1 509 kb/s
Channel(s)                               : Object Based / 8 channels / 6 channels
Channel positions                        : Object Based / Front: L C R, Side: L R, Back: L R, LFE / Front: L C R, Side: L R, LFE
Sampling rate                            :  / 48.0 kHz / 48.0 kHz
Frame rate                               : 93.750 FPS (512 SPF)
Bit depth                                :  / 24 bits / 24 bits
Compression mode                         :  / Lossless / Lossy
Stream size                              : 6.52 GiB (12%)
Title                                    : The.Mummy.1999.2160p.BluRay.REMUX.HEVC.DTS-X.7.1-FGT
Language                                 : English
Default                                  : Yes
Forced                                   : No

Audio #2
ID                                       : 3
Format                                   : DTS
Format/Info                              : Digital Theater Systems
Codec ID                                 : A_DTS
Duration                                 : 2 h 4 min
Bit rate mode                            : Constant
Bit rate                                 : 255 kb/s
Channel(s)                               : 2 channels
Channel positions                        : Front: L R
Sampling rate                            : 48.0 kHz
Frame rate                               : 93.750 FPS (512 SPF)
Bit depth                                : 24 bits
Compression mode                         : Lossy
Stream size                              : 228 MiB (0%)
Title                                    : The.Mummy.1999.2160p.BluRay.REMUX.HEVC.DTS-X.7.1-FGT
Language                                 : English
Default                                  : No
Forced                                   : No

Audio #3
ID                                       : 4
Format                                   : DTS
Format/Info                              : Digital Theater Systems
Codec ID                                 : A_DTS
Duration                                 : 2 h 4 min
Bit rate mode                            : Constant
Bit rate                                 : 768 kb/s
Channel(s)                               : 6 channels
Channel positions                        : Front: L C R, Side: L R, LFE
Sampling rate                            : 48.0 kHz
Frame rate                               : 93.750 FPS (512 SPF)
Bit depth                                : 24 bits
Compression mode                         : Lossy
Stream size                              : 686 MiB (1%)
Title                                    : The.Mummy.1999.2160p.BluRay.REMUX.HEVC.DTS-X.7.1-FGT
Language                                 : Spanish
Default                                  : No
Forced                                   : No

Audio #4
ID                                       : 5
Format                                   : DTS
Format/Info                              : Digital Theater Systems
Codec ID                                 : A_DTS
Duration                                 : 2 h 4 min
Bit rate mode                            : Constant
Bit rate                                 : 768 kb/s
Channel(s)                               : 6 channels
Channel positions                        : Front: L C R, Side: L R, LFE
Sampling rate                            : 48.0 kHz
Frame rate                               : 93.750 FPS (512 SPF)
Bit depth                                : 24 bits
Compression mode                         : Lossy
Stream size                              : 686 MiB (1%)
Title                                    : The.Mummy.1999.2160p.BluRay.REMUX.HEVC.DTS-X.7.1-FGT
Language                                 : French
Default                                  : No
Forced                                   : No

Audio #5
ID                                       : 6
Format                                   : AC-3
Format/Info                              : Audio Coding 3
Codec ID                                 : A_AC3
Duration                                 : 2 h 4 min
Bit rate mode                            : Constant
Bit rate                                 : 192 kb/s
Channel(s)                               : 2 channels
Channel positions                        : Front: L R
Sampling rate                            : 48.0 kHz
Frame rate                               : 31.250 FPS (1536 SPF)
Bit depth                                : 16 bits
Compression mode                         : Lossy
Delay relative to video                  : 24 ms
Stream size                              : 171 MiB (0%)
Title                                    : The.Mummy.1999.2160p.BluRay.REMUX.HEVC.DTS-X.7.1-FGT
Language                                 : English
Service kind                             : Complete Main
Default                                  : No
Forced                                   : No

Audio #6
ID                                       : 7
Format                                   : AC-3
Format/Info                              : Audio Coding 3
Codec ID                                 : A_AC3
Duration                                 : 2 h 4 min
Bit rate mode                            : Constant
Bit rate                                 : 192 kb/s
Channel(s)                               : 2 channels
Channel positions                        : Front: L R
Sampling rate                            : 48.0 kHz
Frame rate                               : 31.250 FPS (1536 SPF)
Bit depth                                : 16 bits
Compression mode                         : Lossy
Delay relative to video                  : 24 ms
Stream size                              : 171 MiB (0%)
Title                                    : The.Mummy.1999.2160p.BluRay.REMUX.HEVC.DTS-X.7.1-FGT
Language                                 : English
Service kind                             : Complete Main
Default                                  : No
Forced                                   : No

Audio #7
ID                                       : 8
Format                                   : AC-3
Format/Info                              : Audio Coding 3
Codec ID                                 : A_AC3
Duration                                 : 2 h 4 min
Bit rate mode                            : Constant
Bit rate                                 : 192 kb/s
Channel(s)                               : 2 channels
Channel positions                        : Front: L R
Sampling rate                            : 48.0 kHz
Frame rate                               : 31.250 FPS (1536 SPF)
Bit depth                                : 16 bits
Compression mode                         : Lossy
Delay relative to video                  : 24 ms
Stream size                              : 171 MiB (0%)
Title                                    : The.Mummy.1999.2160p.BluRay.REMUX.HEVC.DTS-X.7.1-FGT
Language                                 : English
Service kind                             : Complete Main
Default                                  : No
Forced                                   : No

Text #1
ID                                       : 9
Format                                   : PGS
Muxing mode                              : zlib
Codec ID                                 : S_HDMV/PGS
Codec ID/Info                            : Picture based subtitle format used on BDs/HD-DVDs
Duration                                 : 1 h 55 min
Bit rate                                 : 29.1 kb/s
Count of elements                        : 2806
Stream size                              : 24.1 MiB (0%)
Title                                    : English-PGS
Language                                 : English
Default                                  : Yes
Forced                                   : No

Text #2
ID                                       : 10
Format                                   : PGS
Muxing mode                              : zlib
Codec ID                                 : S_HDMV/PGS
Codec ID/Info                            : Picture based subtitle format used on BDs/HD-DVDs
Duration                                 : 1 h 55 min
Bit rate                                 : 20.0 kb/s
Count of elements                        : 2028
Stream size                              : 16.5 MiB (0%)
Title                                    : Spanish-PGS
Language                                 : Spanish
Default                                  : No
Forced                                   : No

Text #3
ID                                       : 11
Format                                   : PGS
Muxing mode                              : zlib
Codec ID                                 : S_HDMV/PGS
Codec ID/Info                            : Picture based subtitle format used on BDs/HD-DVDs
Duration                                 : 1 h 55 min
Bit rate                                 : 21.8 kb/s
Count of elements                        : 2130
Stream size                              : 18.0 MiB (0%)
Title                                    : French-PGS
Language                                 : French
Default                                  : No
Forced                                   : No

Text #4
ID                                       : 12
Format                                   : PGS
Muxing mode                              : zlib
Codec ID                                 : S_HDMV/PGS
Codec ID/Info                            : Picture based subtitle format used on BDs/HD-DVDs
Duration                                 : 1 h 48 min
Bit rate                                 : 744 b/s
Count of elements                        : 86
Stream size                              : 590 KiB (0%)
Title                                    : Spanish-FORCED-PGS
Language                                 : Spanish
Default                                  : No
Forced                                   : No

Text #5
ID                                       : 13
Format                                   : PGS
Muxing mode                              : zlib
Codec ID                                 : S_HDMV/PGS
Codec ID/Info                            : Picture based subtitle format used on BDs/HD-DVDs
Duration                                 : 1 h 48 min
Bit rate                                 : 699 b/s
Count of elements                        : 86
Stream size                              : 553 KiB (0%)
Title                                    : French-FORCED-PGS
Language                                 : French
Default                                  : No
Forced                                   : No

Menu
00:00:00.000                             : en:Chapter 1
00:07:10.430                             : en:Chapter 2
00:12:19.155                             : en:Chapter 3
00:23:19.731                             : en:Chapter 4
00:29:03.116                             : en:Chapter 5
00:36:46.120                             : en:Chapter 6
00:43:38.907                             : en:Chapter 7
00:49:06.610                             : en:Chapter 8
00:53:33.877                             : en:Chapter 9
00:57:29.654                             : en:Chapter 10
01:11:13.352                             : en:Chapter 11
01:18:48.306                             : en:Chapter 12
01:27:29.619                             : en:Chapter 13
01:30:03.898                             : en:Chapter 14
01:36:32.870                             : en:Chapter 15
01:43:58.023                             : en:Chapter 16
01:49:44.661                             : en:Chapter 17
01:56:51.671                             : en:Chapter 18




神鬼传奇(台) / 盗墓迷城(港)/木乃伊4k The.Mummy.1999.2160p.BluRay.HEVC.DTS-X.7.1-COASTER 4K UHD蓝光原盘电影资源下载

木乃伊4k The.Mummy.1999.2160p.BluRay.HEVC.DTS-X.7.1-COASTER   (4K UHD 蓝光原盘破解版 2160p  61.42GB )

游客,如果您要查看本帖隐藏内容请回复

木乃伊4k  The.Mummy.1999.2160p.BluRay.REMUX.HEVC.DTS-X.7.1-FGT (4K UHD 蓝光原盘破解版 2160p  56.52GB )
游客,如果您要查看本帖隐藏内容请回复
发表于 2018-1-7 23:38 | 显示全部楼层
么有分,谁能送我点 K币啊::>_<::
发表于 2018-1-8 00:10 | 显示全部楼层
发表于 2018-1-8 00:22 | 显示全部楼层
谢谢楼主分享
发表于 2018-1-8 00:49 | 显示全部楼层
发表于 2018-1-8 00:55 | 显示全部楼层
谢谢楼主分享
发表于 2018-1-8 01:35 | 显示全部楼层

谢谢楼主分享
发表于 2018-1-8 02:11 | 显示全部楼层
thanks for sharing
发表于 2018-1-8 02:11 | 显示全部楼层
Thanks for Sharing
发表于 2018-1-8 05:47 | 显示全部楼层
支持hao4k,支持楼主大人发布4k资源!
发表于 2018-1-8 06:31 | 显示全部楼层
啥也不说了,感谢楼主在hao4k分享4k视频内容哇!
发表于 2018-1-8 06:50 | 显示全部楼层
发表于 2018-1-8 06:55 | 显示全部楼层
确实是难得4k好帖
发表于 2018-1-8 06:58 | 显示全部楼层
支持hao4k,支持楼主大人发布4k资源!
发表于 2018-1-8 06:58 | 显示全部楼层
支持hao4k,支持楼主大人发布4k资源!
发表于 2018-1-8 07:01 | 显示全部楼层
支持hao4k,支持楼主大人发布4k资源!
发表于 2018-1-8 07:08 | 显示全部楼层
超级喜欢谢谢提供资源
发表于 2018-1-8 07:50 | 显示全部楼层
啥也不说了,感谢楼主在hao4k分享4k视频内容哇!
您需要登录后才可以回帖 登录 | 立即注册

本版积分规则

关闭

站长通知上一条 /1 下一条

返回顶部 联系我们