发表于 2018-1-7 23:38 | 显示全部楼层 |阅读模式

片  名:木乃伊归来4K [下载地址在帖子底部]

  • 年  代:90年代  
  • 国  家:美国 
  • 类  别:动作 冒险 奇幻 
  • 字  幕:英文原版
  • 上映日期:2001-05-04
  • 文件格式:mkv   
  • 视频效果:4K(3840x2160)    
  • 资源大小:60.67GB
  • 片  长:130分钟
  • 导  演:斯蒂芬·索莫斯
  • 豆瓣链接:https://movie.douban.com/subject/1298586/
  • 主  演:布兰登·费舍 / 蕾切尔·薇兹 / 道恩·强森 / 约翰·汉纳 / 帕翠西娅·维拉奎兹

剧情简介

公元前3067年,魔蝎大帝(“岩石”洛克Dwayne Johnson 饰)率领大军企图征服世界,但他的野心在长达七年的战役中遭到挫败,他的残兵败部进入神圣的阿姆谢沙漠,严酷的环境使得曾经骁勇的战士们接连倒毙,濒临死亡的魔蝎大帝向死神阿努比斯献出灵魂,以求打败他的敌人。在此之后,魔蝎大帝及来自地狱的死神军团所向披靡,大获全胜的死神军团也重新沉睡地下。
  1933年埃及,瑞克·奥克康纳(布兰登•弗雷泽 Brendan Fraser 饰)和艾弗琳(瑞切尔•薇茨Rachel Weisz 饰)带着他们的儿子艾里克斯(弗莱迪•布斯Freddie Boath 饰)重返此地,并发现了魔蝎大帝的手镯。与此同时,另一伙神秘组织找到邪恶法老伊莫特的尸体,他们需要那只手镯复活伊莫特。针对手镯的正邪争夺战旋即展开,瑞克夫妇不得不面对新一轮的奇幻大冒险……

木乃伊归来4K The.Mummy.Returns.2001.2160p.BluRay.HEVC.DTS-X.7.1-COASTER 4K版下载[第一百九十九部破解 ...

木乃伊归来4K The.Mummy.Returns.2001.2160p.BluRay.HEVC.DTS-X.7.1-COASTER  4K版下载[第一百九十九部破解 ...


盗墓迷城2 / 神鬼传奇2 / 木乃伊2 / 盗墓迷城二之木乃伊归来/木乃伊归来4K The.Mummy.Returns.2001.2160p.BluRay.HEVC.DTS-X.7.1-COASTER 4K UHD蓝光原盘电影资源信息


第196部 4K UHD 蓝光原盘破解版,含完整的 BDMV 文件夹以及数据,AACS 2.0 协议已被完整破解。
DISC INFO:

Disc Title:     The.Mummy.Returns.2001.2160p.BluRay.HEVC.DTS-X.7.1-COASTER
Disc Size:      64,871,644,290 bytes
Protection:     AACS2
BD-Java:        Yes
Extras:         Ultra HD
BDInfo:         0.5.8.7 (compatible layout created by DVDFab 10.0.7.6)

PLAYLIST REPORT:

Name:                   00019.MPLS  
Length:                 2:09:32.973 (h:m:s.ms)
Size:                   63,728,412,672 bytes
Total Bitrate:          65.59 Mbps

VIDEO:

Codec                   Bitrate             Description     
-----                   -------             -----------     
MPEG-H HEVC Video       51957 kbps          2160p / 23.976 fps / 16:9 / Main 10 Profile 5.1 High / 4:2:0 / 10 bits / HDR / BT.2020 /

AUDIO:

Codec                           Language        Bitrate         Description     
-----                           --------        -------         -----------     
DTS:X/DTS-HD Master Audio       English         8365 kbps       7.1-X / 48 kHz / 8365 kbps / 24-bit (DTS Core: 5.1 / 48 kHz / 1509 kbps / 24-bit)
DTS Audio                       English         256 kbps        2.0 / 48 kHz / 256 kbps / 24-bit
DTS Audio                       Spanish         768 kbps        5.1 / 48 kHz / 768 kbps / 24-bit
DTS Audio                       French          768 kbps        5.1 / 48 kHz / 768 kbps / 24-bit
Dolby Digital Audio             English         192 kbps        2.0 / 48 kHz / 192 kbps / Dolby Surround

SUBTITLES:

Codec                           Language        Bitrate         Description     
-----                           --------        -------         -----------     
Presentation Graphics           English         23.457 kbps                     
Presentation Graphics           Spanish         20.703 kbps                     
Presentation Graphics           French          20.947 kbps                     
Presentation Graphics           Spanish         1.746 kbps                     
Presentation Graphics           French          1.828 kbps  



REMUX

Video
ID                                       : 1
Format                                   : HEVC
Format/Info                              : High Efficiency Video Coding
Format profile                           : Main 10@L5.1@High
Codec ID                                 : V_MPEGH/ISO/HEVC
Duration                                 : 2 h 9 min
Bit rate                                 : 52.0 Mb/s
Width                                    : 3 840 pixels
Height                                   : 2 160 pixels
Display aspect ratio                     : 16:9
Frame rate mode                          : Constant
Frame rate                               : 23.976 (24000/1001) FPS
Color space                              : YUV
Chroma subsampling                       : 4:2:0 (Type 2)
Bit depth                                : 10 bits
Bits/(Pixel*Frame)                       : 0.261
Stream size                              : 47.0 GiB (83%)
Title                                    : The.Mummy.Returns.2001.2160p.BluRay.REMUX.HEVC.DTS-X.7.1-FGT
Writing library                          : ATEME Titan File 3.7.9 (4.7.9.0)
Default                                  : Yes
Forced                                   : No
Color range                              : Limited
Color primaries                          : BT.2020
Transfer characteristics                 : PQ
Matrix coefficients                      : BT.2020 non-constant
Mastering display color primaries        : Display P3
Mastering display luminance              : min: 0.0050 cd/m2, max: 1000 cd/m2
Maximum Content Light Level              : 984 cd/m2
Maximum Frame-Average Light Level        : 302 cd/m2

Audio #1
ID                                       : 2
Format                                   : DTS
Format/Info                              : Digital Theater Systems
Format profile                           : X / MA / Core
Codec ID                                 : A_DTS
Duration                                 : 2 h 9 min
Bit rate mode                            : Variable / Variable / Constant
Bit rate                                 : 8 365 kb/s / 8 365 kb/s / 1 509 kb/s
Channel(s)                               : Object Based / 8 channels / 6 channels
Channel positions                        : Object Based / Front: L C R, Side: L R, Back: L R, LFE / Front: L C R, Side: L R, LFE
Sampling rate                            :  / 48.0 kHz / 48.0 kHz
Frame rate                               : 93.750 FPS (512 SPF)
Bit depth                                :  / 24 bits / 24 bits
Compression mode                         :  / Lossless / Lossy
Stream size                              : 7.57 GiB (13%)
Title                                    : The.Mummy.Returns.2001.2160p.BluRay.REMUX.HEVC.DTS-X.7.1-FGT
Language                                 : English
Default                                  : Yes
Forced                                   : No

Audio #2
ID                                       : 3
Format                                   : DTS
Format/Info                              : Digital Theater Systems
Codec ID                                 : A_DTS
Duration                                 : 2 h 9 min
Bit rate mode                            : Constant
Bit rate                                 : 255 kb/s
Channel(s)                               : 2 channels
Channel positions                        : Front: L R
Sampling rate                            : 48.0 kHz
Frame rate                               : 93.750 FPS (512 SPF)
Bit depth                                : 24 bits
Compression mode                         : Lossy
Stream size                              : 236 MiB (0%)
Title                                    : The.Mummy.Returns.2001.2160p.BluRay.REMUX.HEVC.DTS-X.7.1-FGT
Language                                 : English
Default                                  : No
Forced                                   : No

Audio #3
ID                                       : 4
Format                                   : DTS
Format/Info                              : Digital Theater Systems
Codec ID                                 : A_DTS
Duration                                 : 2 h 9 min
Bit rate mode                            : Constant
Bit rate                                 : 768 kb/s
Channel(s)                               : 6 channels
Channel positions                        : Front: L C R, Side: L R, LFE
Sampling rate                            : 48.0 kHz
Frame rate                               : 93.750 FPS (512 SPF)
Bit depth                                : 24 bits
Compression mode                         : Lossy
Stream size                              : 712 MiB (1%)
Title                                    : The.Mummy.Returns.2001.2160p.BluRay.REMUX.HEVC.DTS-X.7.1-FGT
Language                                 : Spanish
Default                                  : No
Forced                                   : No

Audio #4
ID                                       : 5
Format                                   : DTS
Format/Info                              : Digital Theater Systems
Codec ID                                 : A_DTS
Duration                                 : 2 h 9 min
Bit rate mode                            : Constant
Bit rate                                 : 768 kb/s
Channel(s)                               : 6 channels
Channel positions                        : Front: L C R, Side: L R, LFE
Sampling rate                            : 48.0 kHz
Frame rate                               : 93.750 FPS (512 SPF)
Bit depth                                : 24 bits
Compression mode                         : Lossy
Stream size                              : 712 MiB (1%)
Title                                    : The.Mummy.Returns.2001.2160p.BluRay.REMUX.HEVC.DTS-X.7.1-FGT
Language                                 : French
Default                                  : No
Forced                                   : No

Audio #5
ID                                       : 6
Format                                   : AC-3
Format/Info                              : Audio Coding 3
Codec ID                                 : A_AC3
Duration                                 : 2 h 9 min
Bit rate mode                            : Constant
Bit rate                                 : 192 kb/s
Channel(s)                               : 2 channels
Channel positions                        : Front: L R
Sampling rate                            : 48.0 kHz
Frame rate                               : 31.250 FPS (1536 SPF)
Bit depth                                : 16 bits
Compression mode                         : Lossy
Stream size                              : 178 MiB (0%)
Title                                    : The.Mummy.Returns.2001.2160p.BluRay.REMUX.HEVC.DTS-X.7.1-FGT
Language                                 : English
Service kind                             : Complete Main
Default                                  : No
Forced                                   : No

Text #1
ID                                       : 7
Format                                   : PGS
Muxing mode                              : zlib
Codec ID                                 : S_HDMV/PGS
Codec ID/Info                            : Picture based subtitle format used on BDs/HD-DVDs
Duration                                 : 2 h 6 min
Bit rate                                 : 24.0 kb/s
Count of elements                        : 2222
Stream size                              : 21.7 MiB (0%)
Title                                    : English-PGS
Language                                 : English
Default                                  : Yes
Forced                                   : No

Text #2
ID                                       : 8
Format                                   : PGS
Muxing mode                              : zlib
Codec ID                                 : S_HDMV/PGS
Codec ID/Info                            : Picture based subtitle format used on BDs/HD-DVDs
Duration                                 : 2 h 1 min
Bit rate                                 : 22.1 kb/s
Count of elements                        : 1954
Stream size                              : 19.2 MiB (0%)
Title                                    : Spanish-PGS
Language                                 : Spanish
Default                                  : No
Forced                                   : No

Text #3
ID                                       : 9
Format                                   : PGS
Muxing mode                              : zlib
Codec ID                                 : S_HDMV/PGS
Codec ID/Info                            : Picture based subtitle format used on BDs/HD-DVDs
Duration                                 : 2 h 1 min
Bit rate                                 : 22.4 kb/s
Count of elements                        : 1952
Stream size                              : 19.4 MiB (0%)
Title                                    : French-PGS
Language                                 : French
Default                                  : No
Forced                                   : No

Text #4
ID                                       : 10
Format                                   : PGS
Muxing mode                              : zlib
Codec ID                                 : S_HDMV/PGS
Codec ID/Info                            : Picture based subtitle format used on BDs/HD-DVDs
Duration                                 : 1 h 56 min
Bit rate                                 : 1 941 b/s
Count of elements                        : 218
Stream size                              : 1.62 MiB (0%)
Title                                    : Spanish-FORCED-PGS
Language                                 : Spanish
Default                                  : No
Forced                                   : No

Text #5
ID                                       : 11
Format                                   : PGS
Muxing mode                              : zlib
Codec ID                                 : S_HDMV/PGS
Codec ID/Info                            : Picture based subtitle format used on BDs/HD-DVDs
Duration                                 : 1 h 56 min
Bit rate                                 : 2 032 b/s
Count of elements                        : 216
Stream size                              : 1.69 MiB (0%)
Title                                    : French-FORCED-PGS
Language                                 : French
Default                                  : No
Forced                                   : No

Menu
00:00:00.000                             : en:Chapter 1
00:04:40.488                             : en:Chapter 2
00:10:02.518                             : en:Chapter 3
00:13:32.394                             : en:Chapter 4
00:17:02.896                             : en:Chapter 5
00:23:19.773                             : en:Chapter 6
00:26:16.157                             : en:Chapter 7
00:35:24.247                             : en:Chapter 8
00:42:00.684                             : en:Chapter 9
00:46:50.724                             : en:Chapter 10
00:56:02.150                             : en:Chapter 11
01:06:36.409                             : en:Chapter 12
01:16:59.656                             : en:Chapter 13
01:27:32.664                             : en:Chapter 14
01:35:26.637                             : en:Chapter 15
01:42:43.073                             : en:Chapter 16
01:47:42.789                             : en:Chapter 17
01:51:19.839                             : en:Chapter 18
01:53:25.381                             : en:Chapter 19
02:01:48.175                             : en:Chapter 20

盗墓迷城2 / 神鬼传奇2 / 木乃伊2 / 盗墓迷城二之木乃伊归来/木乃伊归来4K The.Mummy.Returns.2001.2160p.BluRay.HEVC.DTS-X.7.1-COASTER 4K UHD蓝光原盘电影资源下载

木乃伊归来4K The.Mummy.Returns.2001.2160p.BluRay.HEVC.DTS-X.7.1-COASTER  (4K UHD 蓝光原盘破解版 2160p  60.67GB )

游客,如果您要查看本帖隐藏内容请回复

木乃伊归来4K The.Mummy.Returns.2001.2160p.BluRay.REMUX.HEVC.DTS-X.7.1-FGT  (4K UHD 蓝光原盘破解版 2160p  56.40GB )
游客,如果您要查看本帖隐藏内容请回复
发表于 2018-1-7 23:54 | 显示全部楼层
支持支持再支持
发表于 2018-1-8 00:09 | 显示全部楼层
支持hao4k,支持楼主大人发布4k资源!
发表于 2018-1-8 00:50 | 显示全部楼层
真是太好了
发表于 2018-1-8 00:56 | 显示全部楼层
发表于 2018-1-8 01:33 来自 移动版  | 显示全部楼层
传说中的沙发???哇卡卡
发表于 2018-1-8 02:13 | 显示全部楼层
感谢分享!
发表于 2018-1-8 02:14 | 显示全部楼层
感谢分享!
发表于 2018-1-8 02:14 | 显示全部楼层
感谢分享!
发表于 2018-1-8 02:37 来自 移动版  | 显示全部楼层
支持hao4k,支持楼主大人发布4k资源!
发表于 2018-1-8 03:38 | 显示全部楼层
啥也不说了,感谢楼主在hao4k分享4k视频内容哇!
发表于 2018-1-8 05:05 | 显示全部楼层
么有分,谁能送我点 K币啊::>_<::
发表于 2018-1-8 05:47 | 显示全部楼层
啥也不说了,感谢楼主在hao4k分享4k视频内容哇!
发表于 2018-1-8 06:31 | 显示全部楼层
啥也不说了,感谢楼主在hao4k分享4k视频内容哇!
发表于 2018-1-8 06:38 | 显示全部楼层
谢谢分享。
发表于 2018-1-8 06:47 | 显示全部楼层
感谢楼主分享!
发表于 2018-1-8 06:54 | 显示全部楼层
啥也不说了,感谢楼主在hao4k分享4k视频内容哇!
发表于 2018-1-8 06:57 | 显示全部楼层
支持楼主大人发布4k资源!
您需要登录后才可以回帖 登录 | 立即注册

本版积分规则

关闭

站长通知上一条 /1 下一条

返回顶部 联系我们