发表于 2018-1-9 12:24 | 显示全部楼层 |阅读模式

片  名:机械师2:复活4k [下载地址在帖子底部]

  • 年  代:2016  
  • 国  家:美国 
  • 类  别:动作 犯罪 
  • 字  幕:英文原版
  • 上映日期:2016-08-26
  • 文件格式:mkv   
  • 视频效果:4K(3840x2160)    
  • 资源大小:59.72GB
  • 片  长:98分钟
  • 导  演:丹尼斯·甘塞尔
  • 豆瓣链接:https://movie.douban.com/subject/25825412/
  • 主  演:杰森·斯坦森 / 杰西卡·阿尔芭 / 汤米·李·琼斯 / 杨紫琼 / 山姆·哈兹尔丁 / 约翰·塞纳迭姆博 / 托比·艾丁顿 / 费米·依鲁福祖 / 安提欧·昆塔瓦莱 / 芮塔·彭安 / 邦妮·泽勒巴克 / 斯图尔特·索普 / 艾利克斯·库则力科 / 布拉汉姆·艾克巴赫 / 托马斯·科维

剧情简介

系列电影《机械师》第一部中,假装死亡的顶级杀手亚瑟(杰森·斯坦森饰)金盆洗手,过着普通人平静的生活。在一桩看似意外的事件中,亚瑟的红颜知己梅(杨紫琼饰)请求亚瑟解救屡屡遭人毒打的神秘女子吉娜(杰西卡·阿尔芭饰),哪料,向来对爱情有免疫的亚瑟,竟与吉娜坠入了爱河,然而他平静的生活也因此被打破。
  五年远离是非的生活风平浪静,亚瑟以为自己已经和过去的杀手生涯告别,然而宿命难敌,竟然有人暗中盯上了他,亚瑟的身世之谜也浮出水面。原来,他年幼时和一群孩子被军火商抓去,训练他们玩枪、杀人,难以忍受的亚瑟从军火商手中逃脱,而他的一位小伙伴长大后却成了军火商的接班人,也是影片中的最大反派。
  这位反派找到了亚瑟,并绑架了他的挚爱吉娜,要挟他去刺杀三个世界上头号危险人物。为了他和他的爱人能够逃脱,亚瑟被迫再度从事刺客工作,他必须在有限的时间内完成一系列不可能的刺杀任务。
  亚瑟深知反派的残暴,最终一定不会放过自己,在成功暗杀了两个目标之后,亚瑟和第三个目标——另一支规模庞大的军火商头目亚当斯(汤米·李·琼斯饰)结成同盟,一同对付他们共同的对手。那么,亚瑟最终能否和吉娜一起逃脱,平静的生活能否再继续……

机械师2:复活4k Mechanic.Resurrection.2016.2160p.BluRay.HEVC.TrueHD.7.1.Atmos-COASTER 4K版下载[第 ...

机械师2:复活4k  Mechanic.Resurrection.2016.2160p.BluRay.HEVC.TrueHD.7.1.Atmos-COASTER   4K版下载[第 ...



秒速杀机2(港) / 极速秒杀2(台) / 机械师2 / Mechanic 2/机械师2:复活4k  Mechanic.Resurrection.2016.2160p.BluRay.HEVC.TrueHD.7.1.Atmos-COASTER 4K UHD蓝光原盘电影资源信息第197部 4K UHD 蓝光原盘破解版,含完整的 BDMV 文件夹以及数据,AACS 2.0 协议已被完整破解。
DISC INFO:

Disc Title:     Mechanic.Resurrection.2016.2160p.BluRay.HEVC.TrueHD.7.1.Atmos-COASTER
Disc Size:      63,855,037,535 bytes
Protection:     AACS2
BD-Java:        Yes
Extras:         Ultra HD
BDInfo:         0.5.8.7 (compatible layout created by DVDFab 10.0.7.6)

PLAYLIST REPORT:

Name:                   00006.MPLS  
Length:                 1:38:35.743 (h:m:s.ms)
Size:                   62,732,095,488 bytes
Total Bitrate:          84.83 Mbps

VIDEO:

Codec                   Bitrate             Description     
-----                   -------             -----------     
MPEG-H HEVC Video       73869 kbps          2160p / 23.976 fps / 16:9 / Main 10 Profile 5.1 High / 4:2:0 / 10 bits / HDR / BT.2020 /

AUDIO:

Codec                           Language        Bitrate         Description     
-----                           --------        -------         -----------     
Dolby Atmos/TrueHD Audio        English         6000 kbps       7.1-Atmos / 48 kHz / 6000 kbps / 24-bit (AC3 Core: 5.1-EX / 48 kHz / 640 kbps)
Dolby Digital Audio             English         224 kbps        2.0 / 48 kHz / 224 kbps / Dolby Surround

SUBTITLES:

Codec                           Language        Bitrate         Description     
-----                           --------        -------         -----------     
Presentation Graphics           English         15.641 kbps                     
Presentation Graphics           English         19.383 kbps                     
Presentation Graphics           Spanish         16.871 kbps
REMUX

Video
ID                                       : 1
Format                                   : HEVC
Format/Info                              : High Efficiency Video Coding
Format profile                           : Main 10@L5.1@High
Codec ID                                 : V_MPEGH/ISO/HEVC
Duration                                 : 1 h 38 min
Bit rate                                 : 73.9 Mb/s
Width                                    : 3 840 pixels
Height                                   : 2 160 pixels
Display aspect ratio                     : 16:9
Frame rate mode                          : Constant
Frame rate                               : 23.976 (24000/1001) FPS
Color space                              : YUV
Chroma subsampling                       : 4:2:0 (Type 2)
Bit depth                                : 10 bits
Bits/(Pixel*Frame)                       : 0.371
Stream size                              : 50.9 GiB (88%)
Title                                    : Mechanic.Resurrection.2016.2160p.BluRay.REMUX.HEVC.DTS-HD.MA.TrueHD.7.1.Atmos-FGT
Writing library                          : ATEME Titan KFE 3.7.3 (4.7.3.1003)
Default                                  : Yes
Forced                                   : No
Color range                              : Limited
Color primaries                          : BT.2020
Transfer characteristics                 : PQ
Matrix coefficients                      : BT.2020 non-constant
Mastering display color primaries        : Display P3
Mastering display luminance              : min: 0.0000 cd/m2, max: 1000 cd/m2
Maximum Content Light Level              : 1000 cd/m2
Maximum Frame-Average Light Level        : 446 cd/m2

Audio #1
ID                                       : 2
Format                                   : TrueHD
Format profile                           : TrueHD+Atmos / TrueHD
Codec ID                                 : A_TRUEHD
Duration                                 : 1 h 38 min
Bit rate mode                            : Variable
Bit rate                                 : 5 360 kb/s
Maximum bit rate                         : 9 072 kb/s
Channel(s)                               : Object Based / 8 channels
Channel positions                        : Object Based / Front: L C R, Side: L R, Back: L R, LFE
Sampling rate                            :  / 48.0 kHz
Frame rate                               : 1 200.000 FPS (40 SPF)
Compression mode                         : Lossless
Delay relative to video                  : 32 ms
Stream size                              : 3.69 GiB (6%)
Title                                    : Mechanic.Resurrection.2016.2160p.BluRay.REMUX.HEVC.DTS-HD.MA.TrueHD.7.1.Atmos-FGT
Language                                 : English
Default                                  : Yes
Forced                                   : No

Audio #2
ID                                       : 3
Format                                   : DTS
Format/Info                              : Digital Theater Systems
Format profile                           : MA / Core
Codec ID                                 : A_DTS
Duration                                 : 1 h 38 min
Bit rate mode                            : Variable / Constant
Bit rate                                 : 3 947 kb/s / 1 509 kb/s
Channel(s)                               : 8 channels / 6 channels
Channel positions                        : Front: L C R, Side: L R, Back: L R, LFE / Front: L C R, Side: L R, LFE
Sampling rate                            : 48.0 kHz
Frame rate                               : 93.750 FPS (512 SPF)
Bit depth                                : 24 bits
Compression mode                         : Lossless / Lossy
Stream size                              : 2.72 GiB (5%)
Title                                    : Mechanic.Resurrection.2016.2160p.BluRay.REMUX.HEVC.DTS-HD.MA.TrueHD.7.1.Atmos-FGT
Language                                 : English
Default                                  : No
Forced                                   : No

Audio #3
ID                                       : 4
Format                                   : AC-3
Format/Info                              : Audio Coding 3
Codec ID                                 : A_AC3
Duration                                 : 1 h 38 min
Bit rate mode                            : Constant
Bit rate                                 : 640 kb/s
Channel(s)                               : 6 channels
Channel positions                        : Front: L C R, Side: L R, LFE
Sampling rate                            : 48.0 kHz
Frame rate                               : 31.250 FPS (1536 SPF)
Bit depth                                : 16 bits
Compression mode                         : Lossy
Delay relative to video                  : 31 ms
Stream size                              : 451 MiB (1%)
Title                                    : Mechanic.Resurrection.2016.2160p.BluRay.REMUX.HEVC.DTS-HD.MA.TrueHD.7.1.Atmos-FGT
Language                                 : English
Service kind                             : Complete Main
Default                                  : No
Forced                                   : No

Audio #4
ID                                       : 5
Format                                   : AC-3
Format/Info                              : Audio Coding 3
Codec ID                                 : A_AC3
Duration                                 : 1 h 38 min
Bit rate mode                            : Constant
Bit rate                                 : 224 kb/s
Channel(s)                               : 2 channels
Channel positions                        : Front: L R
Sampling rate                            : 48.0 kHz
Frame rate                               : 31.250 FPS (1536 SPF)
Bit depth                                : 16 bits
Compression mode                         : Lossy
Stream size                              : 158 MiB (0%)
Title                                    : Mechanic.Resurrection.2016.2160p.BluRay.REMUX.HEVC.DTS-HD.MA.TrueHD.7.1.Atmos-FGT
Language                                 : English
Service kind                             : Complete Main
Default                                  : No
Forced                                   : No

Text #1
ID                                       : 6
Format                                   : PGS
Muxing mode                              : zlib
Codec ID                                 : S_HDMV/PGS
Codec ID/Info                            : Picture based subtitle format used on BDs/HD-DVDs
Duration                                 : 1 h 30 min
Bit rate                                 : 17.0 kb/s
Count of elements                        : 1262
Stream size                              : 11.0 MiB (0%)
Title                                    : English-PGS
Language                                 : English
Default                                  : Yes
Forced                                   : No

Text #2
ID                                       : 7
Format                                   : PGS
Muxing mode                              : zlib
Codec ID                                 : S_HDMV/PGS
Codec ID/Info                            : Picture based subtitle format used on BDs/HD-DVDs
Duration                                 : 1 h 33 min
Bit rate                                 : 20.5 kb/s
Count of elements                        : 1694
Stream size                              : 13.7 MiB (0%)
Title                                    : English-SDH-PGS
Language                                 : English
Default                                  : No
Forced                                   : No

Text #3
ID                                       : 8
Format                                   : PGS
Muxing mode                              : zlib
Codec ID                                 : S_HDMV/PGS
Codec ID/Info                            : Picture based subtitle format used on BDs/HD-DVDs
Duration                                 : 1 h 33 min
Bit rate                                 : 17.8 kb/s
Count of elements                        : 1324
Stream size                              : 11.9 MiB (0%)
Title                                    : Spanish-PGS
Language                                 : Spanish
Default                                  : No
Forced                                   : No

Menu
00:00:00.000                             : en:Chapter 1
00:06:34.936                             : en:Chapter 2
00:11:51.335                             : en:Chapter 3
00:18:31.276                             : en:Chapter 4
00:26:04.896                             : en:Chapter 5
00:31:57.540                             : en:Chapter 6
00:38:31.267                             : en:Chapter 7
00:43:35.696                             : en:Chapter 8
00:49:23.210                             : en:Chapter 9
00:54:20.382                             : en:Chapter 10
01:00:09.856                             : en:Chapter 11
01:05:50.446                             : en:Chapter 12
01:10:25.429                             : en:Chapter 13
01:14:52.362                             : en:Chapter 14
01:21:04.860                             : en:Chapter 15
01:31:38.784                             : en:Chapter 16


秒速杀机2(港) / 极速秒杀2(台) / 机械师2 / Mechanic 2/机械师2:复活4k  Mechanic.Resurrection.2016.2160p.BluRay.HEVC.TrueHD.7.1.Atmos-COASTER 4K UHD蓝光原盘电影资源下载

机械师2:复活4k  Mechanic.Resurrection.2016.2160p.BluRay.HEVC.TrueHD.7.1.Atmos-COASTER  (4K UHD 蓝光原盘破解版 2160p  59.72GB )
游客,如果您要查看本帖隐藏内容请回复

机械师2:复活4k  Mechanic.Resurrection.2016.2160p.BluRay.REMUX.HEVC.DTS-HD.MA.TrueHD.7.1.Atmos-FGT  (4K UHD 蓝光原盘破解版 2160p  57.94GB )
游客,如果您要查看本帖隐藏内容请回复

机械师2:复活4k  Mechanic.Resurrection.2016.2160p.BluRay.x265.10bit.HDR.TrueHD.7.1.Atmos-IAMABLE  (4K UHD 蓝光原盘破解版 2160p  10.89GB )
游客,如果您要查看本帖隐藏内容请回复

机械师2:复活4k  Mechanic.Resurrection.2016.2160p.BluRay.x265.10bit.HDR.DTS-HD.MA.TrueHD.7.1.Atmos-SWTYBLZ  (4K UHD 蓝光原盘破解版 2160p  13.97GB )
游客,如果您要查看本帖隐藏内容请回复

机械师2:复活4k  Mechanic.Resurrection.2016.2160p.BluRay.x265.10bit.SDR.DTS-HD.MA.TrueHD.7.1.Atmos-SWTYBLZ   (4K UHD 蓝光原盘破解版 2160p  20.32GB )
游客,如果您要查看本帖隐藏内容请回复

机械师2:复活4k  Mechanic.Resurrection.2016.2160p.BluRay.x264.8bit.SDR.DTS-HD.MA.TrueHD.7.1.Atmos-SWTYBLZ  (4K UHD 蓝光原盘破解版 2160p  22.39GB )
游客,如果您要查看本帖隐藏内容请回复

发表于 2018-1-9 12:29 | 显示全部楼层
啥也不说了,感谢楼主在hao4k分享4k视频内容哇!
发表于 2018-1-9 12:39 | 显示全部楼层
发表于 2018-1-9 13:27 | 显示全部楼层
不知道有没有资源。
发表于 2018-1-9 13:30 | 显示全部楼层
支持hao4k,支持楼主大人发布4k资源!
发表于 2018-1-9 13:40 | 显示全部楼层
谢谢分享。。。。
发表于 2018-1-9 14:07 | 显示全部楼层
感谢楼主在hao4k分享4k视频内容哇!
发表于 2018-1-9 14:16 | 显示全部楼层
啥也不说了,感谢楼主在hao4k分享4k视频内容哇!
发表于 2018-1-9 14:22 | 显示全部楼层
啥也不说了,感谢楼主在hao4k分享4k视频内容哇!
发表于 2018-1-9 14:22 | 显示全部楼层
啥也不说了,感谢楼主在hao4k分享4k视频内容哇!
发表于 2018-1-9 14:42 | 显示全部楼层
啥也不说了,感谢楼主在hao4k分享4k视频内容哇!
发表于 2018-1-9 14:47 | 显示全部楼层
喜欢太喜欢 就是不知道能不能下载下来
发表于 2018-1-9 15:15 | 显示全部楼层
支持hao4k,支持楼主大人发布4k资源!
发表于 2018-1-9 15:36 | 显示全部楼层
啥也不说了,感谢楼主在hao4k分享4k视频内容哇!
发表于 2018-1-9 15:38 | 显示全部楼层
啥也不说了,感谢楼主在hao4k分享4k视频内容哇!
发表于 2018-1-9 15:47 | 显示全部楼层
与之前本论坛发布的第64部破解有何区别?该贴地址:http://www.hao4k.com/forum.php?m ... =%BB%FA%D0%B5%CA%A6
发表于 2018-1-9 15:52 | 显示全部楼层
几个文件大小怎么相差这么多?不懂
发表于 2018-1-9 16:15 | 显示全部楼层
前排,哇咔咔
您需要登录后才可以回帖 登录 | 立即注册

本版积分规则

关闭

站长通知上一条 /1 下一条

返回顶部 联系我们