发表于 2018-1-10 08:14 | 显示全部楼层 |阅读模式

片  名:木乃伊3 4k [下载地址在帖子底部]

  • 年  代:90年代  
  • 国  家:美国 
  • 类  别:动作 冒险 惊悚 奇幻 
  • 字  幕:英文原版
  • 上映日期:2008-08-01
  • 文件格式:mkv   
  • 视频效果:4K(3840x2160)    
  • 文件大小:58.33GB
  • 片  长:112分钟
  • 导  演:罗伯·科恩
  • 豆瓣链接:https://movie.douban.com/subject/1997679/
  • 主  演:布兰登·费舍 / 李连杰 / 玛丽亚·贝罗 / 约翰·汉纳 / 卢克·福特 / 杨紫琼 / 梁洛施 / 黄秋生 / 吴京

剧情简介

1947年,中国宁夏。中国两千年前的始皇帝:龙帝之墓在此挖掘出土。同时在美国,大探险家欧康诺(Brendan Fraser饰)与夫人伊芙琳(Maria Bello饰)应邀,将传说中能带来永生的宝石“香格里拉之眼”送往中国,以示中美两国人民友谊长存。
  不料,国民党军官(黄秋生饰)却和博物馆馆长勾结,当场抢走香格里拉之眼,继而唤醒了两千年前的邪恶力量——龙帝(李连杰饰),此时的龙帝不仅可以借助五行之力施暴,还可以变身为各种怪物涂炭天下生灵。
  欧康诺一家奋力与龙帝和他身后庞大的兵马俑队伍展开战斗,千年圣女紫媛(杨紫琼饰)与其女林娜(梁洛施饰)也入盟此支神圣的队伍,以期消灭龙帝,还世界以和平。
木乃伊3 4k浏览片.jpg
盗墓迷城3 / 木乃伊归来之兵马俑风云 / 木乃伊3:龙帝之墓 / 木乃伊3:龙的诅咒 / 神鬼传奇3/木乃伊3 4k The.Mummy.Tomb.Of.The.Dragon.Emperor.2008.2160p.BluRay.HEVC.DTS-X.7.1-COASTER  4K UHD蓝光原盘电影资源信息

第二百零一部 4K UHD 蓝光原盘破解版,含完整的 BDMV 文件夹以及数据,AACS 2.0 协议已被完整破解。
DISC INFO:

Disc Title:     The.Mummy.Tomb.Of.The.Dragon.Emperor.2008.2160p.BluRay.HEVC.DTS-X.7.1-COASTER
Disc Size:      62,351,228,067 bytes
Protection:     AACS2
BD-Java:        Yes
Extras:         Ultra HD
BDInfo:         0.5.8.7 (compatible layout created by DVDFab 10.0.7.6)

PLAYLIST REPORT:

Name:                   00800.MPLS  
Length:                 1:51:39.150 (h:m:s.ms)
Size:                   61,401,747,456 bytes
Total Bitrate:          73.32 Mbps

VIDEO:

Codec                   Bitrate             Description     
-----                   -------             -----------     
MPEG-H HEVC Video       62998 kbps          2160p / 23.976 fps / 16:9 / Main 10 Profile 5.1 High / 4:2:0 / 10 bits / HDR / BT.2020 /

AUDIO:

Codec                           Language        Bitrate         Description     
-----                           --------        -------         -----------     
DTS:X/DTS-HD Master Audio       English         4730 kbps       7.1-X / 48 kHz / 4730 kbps / 24-bit (DTS Core: 5.1 / 48 kHz / 1509 kbps / 24-bit)
DTS Audio                       English         256 kbps        2.0 / 48 kHz / 256 kbps / 24-bit
DTS Audio                       Spanish         768 kbps        5.1 / 48 kHz / 768 kbps / 24-bit
DTS Audio                       French          768 kbps        5.1 / 48 kHz / 768 kbps / 24-bit
Dolby Digital Audio             English         192 kbps        2.0 / 48 kHz / 192 kbps / Dolby Surround

SUBTITLES:

Codec                           Language        Bitrate         Description     
-----                           --------        -------         -----------     
Presentation Graphics           English         26.202 kbps                     
Presentation Graphics           Spanish         19.676 kbps                     
Presentation Graphics           French          24.559 kbps                     
Presentation Graphics           Spanish         2.553 kbps                     
Presentation Graphics           French          2.911 kbps
REMUX

Video
ID                                       : 1
Format                                   : HEVC
Format/Info                              : High Efficiency Video Coding
Format profile                           : Main 10@L5.1@High
Codec ID                                 : V_MPEGH/ISO/HEVC
Duration                                 : 1 h 51 min
Bit rate                                 : 63.0 Mb/s
Width                                    : 3 840 pixels
Height                                   : 2 160 pixels
Display aspect ratio                     : 16:9
Frame rate mode                          : Constant
Frame rate                               : 23.976 (24000/1001) FPS
Color space                              : YUV
Chroma subsampling                       : 4:2:0 (Type 2)
Bit depth                                : 10 bits
Bits/(Pixel*Frame)                       : 0.317
Stream size                              : 49.1 GiB (90%)
Title                                    : The.Mummy.Tomb.Of.The.Dragon.Emperor.2008.2160p.BluRay.REMUX.HEVC.DTS-X.7.1-FGT
Writing library                          : ATEME Titan File 3.7.8 (4.7.8.0)
Default                                  : Yes
Forced                                   : No
Color range                              : Limited
Color primaries                          : BT.2020
Transfer characteristics                 : PQ
Matrix coefficients                      : BT.2020 non-constant
Mastering display color primaries        : Display P3
Mastering display luminance              : min: 0.0050 cd/m2, max: 1000 cd/m2
Maximum Content Light Level              : 1000 cd/m2
Maximum Frame-Average Light Level        : 730 cd/m2

Audio #1
ID                                       : 2
Format                                   : DTS
Format/Info                              : Digital Theater Systems
Format profile                           : X / MA / Core
Codec ID                                 : A_DTS
Duration                                 : 1 h 51 min
Bit rate mode                            : Variable / Variable / Constant
Bit rate                                 : 4 730 kb/s / 4 730 kb/s / 1 509 kb/s
Channel(s)                               : Object Based / 8 channels / 6 channels
Channel positions                        : Object Based / Front: L C R, Side: L R, Back: L R, LFE / Front: L C R, Side: L R, LFE
Sampling rate                            :  / 48.0 kHz / 48.0 kHz
Frame rate                               : 93.750 FPS (512 SPF)
Bit depth                                :  / 24 bits / 24 bits
Compression mode                         :  / Lossless / Lossy
Stream size                              : 3.69 GiB (7%)
Title                                    : The.Mummy.Tomb.Of.The.Dragon.Emperor.2008.2160p.BluRay.REMUX.HEVC.DTS-X.7.1-FGT
Language                                 : English
Default                                  : Yes
Forced                                   : No

Audio #2
ID                                       : 3
Format                                   : DTS
Format/Info                              : Digital Theater Systems
Codec ID                                 : A_DTS
Duration                                 : 1 h 51 min
Bit rate mode                            : Constant
Bit rate                                 : 255 kb/s
Channel(s)                               : 2 channels
Channel positions                        : Front: L R
Sampling rate                            : 48.0 kHz
Frame rate                               : 93.750 FPS (512 SPF)
Bit depth                                : 24 bits
Compression mode                         : Lossy
Stream size                              : 204 MiB (0%)
Title                                    : The.Mummy.Tomb.Of.The.Dragon.Emperor.2008.2160p.BluRay.REMUX.HEVC.DTS-X.7.1-FGT
Language                                 : English
Default                                  : No
Forced                                   : No

Audio #3
ID                                       : 4
Format                                   : DTS
Format/Info                              : Digital Theater Systems
Codec ID                                 : A_DTS
Duration                                 : 1 h 51 min
Bit rate mode                            : Constant
Bit rate                                 : 768 kb/s
Channel(s)                               : 6 channels
Channel positions                        : Front: L C R, Side: L R, LFE
Sampling rate                            : 48.0 kHz
Frame rate                               : 93.750 FPS (512 SPF)
Bit depth                                : 24 bits
Compression mode                         : Lossy
Stream size                              : 613 MiB (1%)
Title                                    : The.Mummy.Tomb.Of.The.Dragon.Emperor.2008.2160p.BluRay.REMUX.HEVC.DTS-X.7.1-FGT
Language                                 : Spanish
Default                                  : No
Forced                                   : No

Audio #4
ID                                       : 5
Format                                   : DTS
Format/Info                              : Digital Theater Systems
Codec ID                                 : A_DTS
Duration                                 : 1 h 51 min
Bit rate mode                            : Constant
Bit rate                                 : 768 kb/s
Channel(s)                               : 6 channels
Channel positions                        : Front: L C R, Side: L R, LFE
Sampling rate                            : 48.0 kHz
Frame rate                               : 93.750 FPS (512 SPF)
Bit depth                                : 24 bits
Compression mode                         : Lossy
Stream size                              : 613 MiB (1%)
Title                                    : The.Mummy.Tomb.Of.The.Dragon.Emperor.2008.2160p.BluRay.REMUX.HEVC.DTS-X.7.1-FGT
Language                                 : French
Default                                  : No
Forced                                   : No

Audio #5
ID                                       : 6
Format                                   : AC-3
Format/Info                              : Audio Coding 3
Codec ID                                 : A_AC3
Duration                                 : 1 h 51 min
Bit rate mode                            : Constant
Bit rate                                 : 192 kb/s
Channel(s)                               : 2 channels
Channel positions                        : Front: L R
Sampling rate                            : 48.0 kHz
Frame rate                               : 31.250 FPS (1536 SPF)
Bit depth                                : 16 bits
Compression mode                         : Lossy
Stream size                              : 153 MiB (0%)
Title                                    : The.Mummy.Tomb.Of.The.Dragon.Emperor.2008.2160p.BluRay.REMUX.HEVC.DTS-X.7.1-FGT
Language                                 : English
Service kind                             : Complete Main
Default                                  : No
Forced                                   : No

Text #1
ID                                       : 7
Format                                   : PGS
Muxing mode                              : zlib
Codec ID                                 : S_HDMV/PGS
Codec ID/Info                            : Picture based subtitle format used on BDs/HD-DVDs
Duration                                 : 1 h 40 min
Bit rate                                 : 29.1 kb/s
Count of elements                        : 2158
Stream size                              : 20.9 MiB (0%)
Title                                    : English-PGS
Language                                 : English
Default                                  : Yes
Forced                                   : No

Text #2
ID                                       : 8
Format                                   : PGS
Muxing mode                              : zlib
Codec ID                                 : S_HDMV/PGS
Codec ID/Info                            : Picture based subtitle format used on BDs/HD-DVDs
Duration                                 : 1 h 40 min
Bit rate                                 : 21.8 kb/s
Count of elements                        : 1730
Stream size                              : 15.7 MiB (0%)
Title                                    : Spanish-PGS
Language                                 : Spanish
Default                                  : No
Forced                                   : No

Text #3
ID                                       : 9
Format                                   : PGS
Muxing mode                              : zlib
Codec ID                                 : S_HDMV/PGS
Codec ID/Info                            : Picture based subtitle format used on BDs/HD-DVDs
Duration                                 : 1 h 40 min
Bit rate                                 : 27.2 kb/s
Count of elements                        : 1852
Stream size                              : 19.6 MiB (0%)
Title                                    : French-PGS
Language                                 : French
Default                                  : No
Forced                                   : No

Text #4
ID                                       : 10
Format                                   : PGS
Muxing mode                              : zlib
Codec ID                                 : S_HDMV/PGS
Codec ID/Info                            : Picture based subtitle format used on BDs/HD-DVDs
Duration                                 : 1 h 40 min
Bit rate                                 : 2 849 b/s
Count of elements                        : 268
Stream size                              : 2.04 MiB (0%)
Title                                    : Spanish-FORCED-PGS
Language                                 : Spanish
Default                                  : No
Forced                                   : No

Text #5
ID                                       : 11
Format                                   : PGS
Muxing mode                              : zlib
Codec ID                                 : S_HDMV/PGS
Codec ID/Info                            : Picture based subtitle format used on BDs/HD-DVDs
Duration                                 : 1 h 40 min
Bit rate                                 : 3 221 b/s
Count of elements                        : 274
Stream size                              : 2.32 MiB (0%)
Title                                    : French-FORCED-PGS
Language                                 : French
Default                                  : No
Forced                                   : No

Menu
00:00:00.000                             : en:Chapter 1
00:05:24.073                             : en:Chapter 2
00:09:52.133                             : en:Chapter 3
00:14:15.479                             : en:Chapter 4
00:19:13.402                             : en:Chapter 5
00:24:33.680                             : en:Chapter 6
00:30:57.647                             : en:Chapter 7
00:35:30.962                             : en:Chapter 8
00:42:16.367                             : en:Chapter 9
00:48:17.686                             : en:Chapter 10
00:52:26.893                             : en:Chapter 11
00:57:28.528                             : en:Chapter 12
01:02:40.590                             : en:Chapter 13
01:09:54.231                             : en:Chapter 14
01:15:54.216                             : en:Chapter 15
01:21:00.981                             : en:Chapter 16
01:25:33.419                             : en:Chapter 17
01:33:54.962                             : en:Chapter 18
01:39:53.946                             : en:Chapter 19
01:41:28.499                             : en:Chapter 20


盗墓迷城3 / 木乃伊归来之兵马俑风云 / 木乃伊3:龙帝之墓 / 木乃伊3:龙的诅咒 / 神鬼传奇3/木乃伊3 4k The.Mummy.Tomb.Of.The.Dragon.Emperor.2008.2160p.BluRay.HEVC.DTS-X.7.1-COASTER  4K UHD蓝光原盘电影资源下载

木乃伊3 4k The.Mummy.Tomb.Of.The.Dragon.Emperor.2008.2160p.BluRay.HEVC.DTS-X.7.1-COASTER   (4K UHD 蓝光原盘破解版 2160p  58.33GB )
游客,如果您要查看本帖隐藏内容请回复

木乃伊3 4kThe.Mummy.Tomb.Of.The.Dragon.Emperor.2008.2160p.BluRay.REMUX.HEVC.DTS-X.7.1-FGT  (4K UHD 蓝光原盘破解版 2160p  54.39GB )
游客,如果您要查看本帖隐藏内容请回复

发表于 2018-1-10 10:03 | 显示全部楼层
啥也不说了,感谢楼主在hao4k分享4k视频内容哇!
发表于 2018-1-10 08:32 | 显示全部楼层
确实是难得4k好帖啊,顶先
发表于 2018-1-10 08:38 | 显示全部楼层
啥也不说了,感谢楼主在hao4k分享4k视频内容哇!
发表于 2018-1-10 09:02 | 显示全部楼层
感谢楼主
发表于 2018-1-10 09:27 | 显示全部楼层
啥也不说了,感谢楼主在hao4k分享4k视频内容哇!
发表于 2018-1-10 09:29 | 显示全部楼层
啥也不说了,感谢楼主在hao4k分享4k视频内容哇!
发表于 2018-1-10 09:33 | 显示全部楼层
啥也不说了,感谢楼主在hao4k分享4k视频内容哇!
发表于 2018-1-10 09:41 | 显示全部楼层
支持hao4k,支持楼主大人发布4k资源!
发表于 2018-1-10 09:44 | 显示全部楼层
支持hao4k,支持楼主大人发布4k资源!
您需要登录后才可以回帖 登录 | 立即注册

本版积分规则

返回顶部 联系我们