发表于 2018-1-10 12:19 | 显示全部楼层 |阅读模式

片  名:邻家大贱谍4k [下载地址在帖子底部]

  • 年  代:2016  
  • 国  家:美国 
  • 类  别:动作 剧情 喜剧 
  • 字  幕:英文原版
  • 上映日期:2016-10-21
  • 文件格式:mkv   
  • 视频效果:4K(3840x2160)    
  • 资源大小:35.18GB
  • 片  长:105分钟
  • 导  演:格雷格·莫托拉
  • 豆瓣链接:https://movie.douban.com/subject/25847558/
  • 主  演:盖尔·加朵 / 艾拉·菲舍尔 / 扎克·加利凡纳基斯 / 乔恩·哈姆 / 玛莉贝丝·梦露 / 因德尔·库马尔 / 马克·格拉佩 / 赵明 / 达林·库珀 / 乔娜·肖 / 卡琳娜·博纳菲尔

剧情简介

杰夫(扎克·加利凡纳基斯 Zach Galifianakis 饰)与凯伦(艾拉·菲舍尔 Isla Fisher 饰)是一对住在城郊的夫妇,而他们发现新搬来的邻居并不简单。这对新搬来的夫妇蒂姆(乔恩·哈姆 Jon Hamm 饰)与娜塔莉(盖尔· 加朵 Gal Gadot 饰)过得可谓是光彩夺目,精致无比。而当他们发现琼斯夫妇实际上是秘密特工后,事情就变得更加复杂了。

邻家大贱谍4k Keeping.Up.with.the.Joneses.2016.2160p.BluRay.HEVC.DTS-HD.MA.7.1-TERMiNAL 4K版下载[第 ...

邻家大贱谍4k Keeping.Up.with.the.Joneses.2016.2160p.BluRay.HEVC.DTS-HD.MA.7.1-TERMiNAL  4K版下载[第  ...

间谍大邻演(台) / 两公婆决斗特务王(港) / 向邻居看齐 / 与邻居同行/邻家大贱谍4k Keeping.Up.with.the.Joneses.2016.2160p.BluRay.HEVC.DTS-HD.MA.7.1-TERMiNAL 4K UHD蓝光原盘电影资源信息

第199部 4K UHD 蓝光原盘破解版,含完整的 BDMV 文件夹以及数据,AACS 2.0 协议已被完整破解。
DISC INFO:

Disc Title:     Keeping.Up.with.the.Joneses.2016.COMPLETE.UHD.BLURAY-TERMiNAL
Disc Size:      35,731,506,190 bytes
Protection:     AACS2
BD-Java:        Yes
Extras:         Ultra HD
BDInfo:         0.5.8.7 (compatible layout created by DVDFab 10.0.7.6)

PLAYLIST REPORT:

Name:                   00800.MPLS  
Length:                 1:45:20.230 (h:m:s.ms)
Size:                   35,160,360,960 bytes
Total Bitrate:          44.51 Mbps

VIDEO:

Codec                   Bitrate             Description     
-----                   -------             -----------     
MPEG-H HEVC Video       34967 kbps          2160p / 23.976 fps / 16:9 / Main 10 Profile 5.1 High / 4:2:0 / 10 bits / HDR / BT.2020 /

AUDIO:

Codec                           Language        Bitrate         Description     
-----                           --------        -------         -----------     
DTS-HD Master Audio             English         4309 kbps       7.1 / 48 kHz / 4309 kbps / 24-bit (DTS Core: 5.1-ES / 48 kHz / 1509 kbps / 24-bit)
Dolby Digital Audio             English         448 kbps        5.1 / 48 kHz / 448 kbps
Dolby Digital Audio             Spanish         448 kbps        5.1 / 48 kHz / 448 kbps
DTS Audio                       French          768 kbps        5.1 / 48 kHz / 768 kbps / 24-bit
DTS Audio                       Spanish         768 kbps        5.1 / 48 kHz / 768 kbps / 24-bit

SUBTITLES:

Codec                           Language        Bitrate         Description     
-----                           --------        -------         -----------     
Presentation Graphics           English         57.214 kbps                     
Presentation Graphics           Spanish         44.636 kbps                     
Presentation Graphics           French          42.021 kbps                     
Presentation Graphics           Spanish         47.363 kbps                     
Presentation Graphics           Danish          40.104 kbps                     
Presentation Graphics           Dutch           36.401 kbps                     
Presentation Graphics           Finnish         39.876 kbps                     
Presentation Graphics           Norwegian       45.548 kbps                     
Presentation Graphics           Swedish         45.697 kbps                     
Presentation Graphics           Chinese         32.055 kbps                     
Presentation Graphics           Chinese         36.109 kbps                     
Presentation Graphics           English         0.134 kbps        

REMUX

Video
ID                                       : 1
Format                                   : HEVC
Format/Info                              : High Efficiency Video Coding
Format profile                           : Main 10@L5.1@High
Codec ID                                 : V_MPEGH/ISO/HEVC
Duration                                 : 1 h 45 min
Bit rate                                 : 35.0 Mb/s
Width                                    : 3 840 pixels
Height                                   : 2 160 pixels
Display aspect ratio                     : 16:9
Frame rate mode                          : Constant
Frame rate                               : 23.976 (24000/1001) FPS
Color space                              : YUV
Chroma subsampling                       : 4:2:0 (Type 2)
Bit depth                                : 10 bits
Bits/(Pixel*Frame)                       : 0.176
Stream size                              : 25.7 GiB (83%)
Title                                    : Keeping.Up.with.the.Joneses.2016.2160p.BluRay.REMUX.HEVC.DTS-HD.MA.7.1-FGT
Writing library                          : ATEME Titan File 3.7.8 (4.7.8.0)
Default                                  : Yes
Forced                                   : No
Color range                              : Limited
Color primaries                          : BT.2020
Transfer characteristics                 : PQ
Matrix coefficients                      : BT.2020 non-constant
Mastering display color primaries        : Display P3
Mastering display luminance              : min: 0.0000 cd/m2, max: 1000 cd/m2

Audio #1
ID                                       : 2
Format                                   : DTS
Format/Info                              : Digital Theater Systems
Format profile                           : MA / ES Matrix / Core
Codec ID                                 : A_DTS
Duration                                 : 1 h 45 min
Bit rate mode                            : Variable / Constant / Constant
Bit rate                                 : 4 309 kb/s / 1 509 kb/s / 1 509 kb/s
Channel(s)                               : 8 channels / 7 channels / 6 channels
Channel positions                        : Front: L C R, Side: L R, Back: L R, LFE / Front: L C R, Side: L R, Back: C, LFE / Front: L C R, Side: L R, LFE
Sampling rate                            : 48.0 kHz
Frame rate                               : 93.750 FPS (512 SPF)
Bit depth                                : 24 bits
Compression mode                         : Lossless / Lossy / Lossy
Stream size                              : 3.17 GiB (10%)
Title                                    : Keeping.Up.with.the.Joneses.2016.2160p.BluRay.REMUX.HEVC.DTS-HD.MA.7.1-FGT
Language                                 : English
Default                                  : Yes
Forced                                   : No

Audio #2
ID                                       : 3
Format                                   : AC-3
Format/Info                              : Audio Coding 3
Codec ID                                 : A_AC3
Duration                                 : 1 h 45 min
Bit rate mode                            : Constant
Bit rate                                 : 448 kb/s
Channel(s)                               : 6 channels
Channel positions                        : Front: L C R, Side: L R, LFE
Sampling rate                            : 48.0 kHz
Frame rate                               : 31.250 FPS (1536 SPF)
Bit depth                                : 16 bits
Compression mode                         : Lossy
Stream size                              : 338 MiB (1%)
Title                                    : Keeping.Up.with.the.Joneses.2016.2160p.BluRay.REMUX.HEVC.DTS-HD.MA.7.1-FGT
Language                                 : English
Service kind                             : Complete Main
Default                                  : No
Forced                                   : No

Audio #3
ID                                       : 4
Format                                   : AC-3
Format/Info                              : Audio Coding 3
Codec ID                                 : A_AC3
Duration                                 : 1 h 45 min
Bit rate mode                            : Constant
Bit rate                                 : 448 kb/s
Channel(s)                               : 6 channels
Channel positions                        : Front: L C R, Side: L R, LFE
Sampling rate                            : 48.0 kHz
Frame rate                               : 31.250 FPS (1536 SPF)
Bit depth                                : 16 bits
Compression mode                         : Lossy
Stream size                              : 338 MiB (1%)
Title                                    : Keeping.Up.with.the.Joneses.2016.2160p.BluRay.REMUX.HEVC.DTS-HD.MA.7.1-FGT
Language                                 : Spanish
Service kind                             : Complete Main
Default                                  : No
Forced                                   : No

Audio #4
ID                                       : 5
Format                                   : DTS
Format/Info                              : Digital Theater Systems
Codec ID                                 : A_DTS
Duration                                 : 1 h 45 min
Bit rate mode                            : Constant
Bit rate                                 : 768 kb/s
Channel(s)                               : 6 channels
Channel positions                        : Front: L C R, Side: L R, LFE
Sampling rate                            : 48.0 kHz
Frame rate                               : 93.750 FPS (512 SPF)
Bit depth                                : 24 bits
Compression mode                         : Lossy
Stream size                              : 579 MiB (2%)
Title                                    : Keeping.Up.with.the.Joneses.2016.2160p.BluRay.REMUX.HEVC.DTS-HD.MA.7.1-FGT
Language                                 : French
Default                                  : No
Forced                                   : No

Audio #5
ID                                       : 6
Format                                   : DTS
Format/Info                              : Digital Theater Systems
Codec ID                                 : A_DTS
Duration                                 : 1 h 45 min
Bit rate mode                            : Constant
Bit rate                                 : 768 kb/s
Channel(s)                               : 6 channels
Channel positions                        : Front: L C R, Side: L R, LFE
Sampling rate                            : 48.0 kHz
Frame rate                               : 93.750 FPS (512 SPF)
Bit depth                                : 24 bits
Compression mode                         : Lossy
Stream size                              : 579 MiB (2%)
Title                                    : Keeping.Up.with.the.Joneses.2016.2160p.BluRay.REMUX.HEVC.DTS-HD.MA.7.1-FGT
Language                                 : Spanish
Default                                  : No
Forced                                   : No

Text #1
ID                                       : 7
Format                                   : PGS
Muxing mode                              : zlib
Codec ID                                 : S_HDMV/PGS
Codec ID/Info                            : Picture based subtitle format used on BDs/HD-DVDs
Duration                                 : 1 h 40 min
Bit rate                                 : 59.9 kb/s
Count of elements                        : 4240
Stream size                              : 43.1 MiB (0%)
Title                                    : English-PGS
Language                                 : English
Default                                  : Yes
Forced                                   : No

Text #2
ID                                       : 8
Format                                   : PGS
Muxing mode                              : zlib
Codec ID                                 : S_HDMV/PGS
Codec ID/Info                            : Picture based subtitle format used on BDs/HD-DVDs
Duration                                 : 1 h 44 min
Bit rate                                 : 45.0 kb/s
Count of elements                        : 3538
Stream size                              : 33.6 MiB (0%)
Title                                    : Spanish-PGS
Language                                 : Spanish
Default                                  : No
Forced                                   : No

Text #3
ID                                       : 9
Format                                   : PGS
Muxing mode                              : zlib
Codec ID                                 : S_HDMV/PGS
Codec ID/Info                            : Picture based subtitle format used on BDs/HD-DVDs
Duration                                 : 1 h 44 min
Bit rate                                 : 42.4 kb/s
Count of elements                        : 3770
Stream size                              : 31.7 MiB (0%)
Title                                    : French-PGS
Language                                 : French
Default                                  : No
Forced                                   : No

Text #4
ID                                       : 10
Format                                   : PGS
Muxing mode                              : zlib
Codec ID                                 : S_HDMV/PGS
Codec ID/Info                            : Picture based subtitle format used on BDs/HD-DVDs
Duration                                 : 1 h 44 min
Bit rate                                 : 47.8 kb/s
Count of elements                        : 3996
Stream size                              : 35.7 MiB (0%)
Title                                    : Spanish-PGS
Language                                 : Spanish
Default                                  : No
Forced                                   : No

Text #5
ID                                       : 11
Format                                   : PGS
Muxing mode                              : zlib
Codec ID                                 : S_HDMV/PGS
Codec ID/Info                            : Picture based subtitle format used on BDs/HD-DVDs
Duration                                 : 1 h 44 min
Bit rate                                 : 40.6 kb/s
Count of elements                        : 2766
Stream size                              : 30.2 MiB (0%)
Title                                    : Danish-PGS
Language                                 : Danish
Default                                  : No
Forced                                   : No

Text #6
ID                                       : 12
Format                                   : PGS
Muxing mode                              : zlib
Codec ID                                 : S_HDMV/PGS
Codec ID/Info                            : Picture based subtitle format used on BDs/HD-DVDs
Duration                                 : 1 h 44 min
Bit rate                                 : 36.8 kb/s
Count of elements                        : 2856
Stream size                              : 27.4 MiB (0%)
Title                                    : Dutch-PGS
Language                                 : Dutch
Default                                  : No
Forced                                   : No

Text #7
ID                                       : 13
Format                                   : PGS
Muxing mode                              : zlib
Codec ID                                 : S_HDMV/PGS
Codec ID/Info                            : Picture based subtitle format used on BDs/HD-DVDs
Duration                                 : 1 h 44 min
Bit rate                                 : 40.2 kb/s
Count of elements                        : 3160
Stream size                              : 30.0 MiB (0%)
Title                                    : Finnish-PGS
Language                                 : Finnish
Default                                  : No
Forced                                   : No

Text #8
ID                                       : 14
Format                                   : PGS
Muxing mode                              : zlib
Codec ID                                 : S_HDMV/PGS
Codec ID/Info                            : Picture based subtitle format used on BDs/HD-DVDs
Duration                                 : 1 h 44 min
Bit rate                                 : 46.1 kb/s
Count of elements                        : 3992
Stream size                              : 34.3 MiB (0%)
Title                                    : Norwegian-PGS
Language                                 : Norwegian
Default                                  : No
Forced                                   : No

Text #9
ID                                       : 15
Format                                   : PGS
Muxing mode                              : zlib
Codec ID                                 : S_HDMV/PGS
Codec ID/Info                            : Picture based subtitle format used on BDs/HD-DVDs
Duration                                 : 1 h 44 min
Bit rate                                 : 46.2 kb/s
Count of elements                        : 3968
Stream size                              : 34.4 MiB (0%)
Title                                    : Swedish-PGS
Language                                 : Swedish
Default                                  : No
Forced                                   : No

Text #10
ID                                       : 16
Format                                   : PGS
Muxing mode                              : zlib
Codec ID                                 : S_HDMV/PGS
Codec ID/Info                            : Picture based subtitle format used on BDs/HD-DVDs
Duration                                 : 1 h 44 min
Bit rate                                 : 32.3 kb/s
Count of elements                        : 4024
Stream size                              : 24.2 MiB (0%)
Title                                    : Chinese-PGS
Language                                 : Chinese
Default                                  : No
Forced                                   : No

Text #11
ID                                       : 17
Format                                   : PGS
Muxing mode                              : zlib
Codec ID                                 : S_HDMV/PGS
Codec ID/Info                            : Picture based subtitle format used on BDs/HD-DVDs
Duration                                 : 1 h 44 min
Bit rate                                 : 36.5 kb/s
Count of elements                        : 4018
Stream size                              : 27.2 MiB (0%)
Title                                    : Chinese-PGS
Language                                 : Chinese
Default                                  : No
Forced                                   : No

Text #12
ID                                       : 18
Format                                   : PGS
Muxing mode                              : zlib
Codec ID                                 : S_HDMV/PGS
Codec ID/Info                            : Picture based subtitle format used on BDs/HD-DVDs
Duration                                 : 16 s 684 ms
Bit rate                                 : 50.9 kb/s
Count of elements                        : 10
Stream size                              : 104 KiB (0%)
Title                                    : English-FORCED-PGS
Language                                 : English
Default                                  : No
Forced                                   : No

Menu
00:00:00.000                             : en:Chapter 1
00:03:43.473                             : en:Chapter 2
00:06:41.651                             : en:Chapter 3
00:09:55.845                             : en:Chapter 4
00:13:28.182                             : en:Chapter 5
00:17:06.025                             : en:Chapter 6
00:21:07.933                             : en:Chapter 7
00:26:02.310                             : en:Chapter 8
00:30:07.514                             : en:Chapter 9
00:33:56.743                             : en:Chapter 10
00:37:43.761                             : en:Chapter 11
00:40:59.457                             : en:Chapter 12
00:45:35.149                             : en:Chapter 13
00:49:00.312                             : en:Chapter 14
00:52:35.152                             : en:Chapter 15
00:55:59.189                             : en:Chapter 16
01:00:50.229                             : en:Chapter 17
01:04:33.244                             : en:Chapter 18
01:08:47.665                             : en:Chapter 19
01:12:04.653                             : en:Chapter 20
01:15:58.554                             : en:Chapter 21
01:19:31.808                             : en:Chapter 22
01:22:46.544                             : en:Chapter 23
01:25:43.972                             : en:Chapter 24
01:29:02.295                             : en:Chapter 25
01:31:44.874                             : en:Chapter 26
01:34:18.527                             : en:Chapter 27
01:37:32.680                             : en:Chapter 28


Video
ID                                       : 1
Format                                   : HEVC
Format/Info                              : High Efficiency Video Coding
Format profile                           : Main 10@L5.1@High
Codec ID                                 : V_MPEGH/ISO/HEVC
Duration                                 : 1 h 45 min
Bit rate                                 : 35.0 Mb/s
Width                                    : 3 840 pixels
Height                                   : 2 160 pixels
Display aspect ratio                     : 16:9
Frame rate mode                          : Constant
Frame rate                               : 23.976 (24000/1001) FPS
Color space                              : YUV
Chroma subsampling                       : 4:2:0 (Type 2)
Bit depth                                : 10 bits
Bits/(Pixel*Frame)                       : 0.176
Stream size                              : 25.7 GiB (83%)
Title                                    : Keeping.Up.with.the.Joneses.2016.2160p.BluRay.REMUX.HEVC.DTS-HD.MA.7.1-FGT
Writing library                          : ATEME Titan File 3.7.8 (4.7.8.0)
Default                                  : Yes
Forced                                   : No
Color range                              : Limited
Color primaries                          : BT.2020
Transfer characteristics                 : PQ
Matrix coefficients                      : BT.2020 non-constant
Mastering display color primaries        : Display P3
Mastering display luminance              : min: 0.0000 cd/m2, max: 1000 cd/m2

Audio #1
ID                                       : 2
Format                                   : DTS
Format/Info                              : Digital Theater Systems
Format profile                           : MA / ES Matrix / Core
Codec ID                                 : A_DTS
Duration                                 : 1 h 45 min
Bit rate mode                            : Variable / Constant / Constant
Bit rate                                 : 4 309 kb/s / 1 509 kb/s / 1 509 kb/s
Channel(s)                               : 8 channels / 7 channels / 6 channels
Channel positions                        : Front: L C R, Side: L R, Back: L R, LFE / Front: L C R, Side: L R, Back: C, LFE / Front: L C R, Side: L R, LFE
Sampling rate                            : 48.0 kHz
Frame rate                               : 93.750 FPS (512 SPF)
Bit depth                                : 24 bits
Compression mode                         : Lossless / Lossy / Lossy
Stream size                              : 3.17 GiB (10%)
Title                                    : Keeping.Up.with.the.Joneses.2016.2160p.BluRay.REMUX.HEVC.DTS-HD.MA.7.1-FGT
Language                                 : English
Default                                  : Yes
Forced                                   : No

Audio #2
ID                                       : 3
Format                                   : AC-3
Format/Info                              : Audio Coding 3
Codec ID                                 : A_AC3
Duration                                 : 1 h 45 min
Bit rate mode                            : Constant
Bit rate                                 : 448 kb/s
Channel(s)                               : 6 channels
Channel positions                        : Front: L C R, Side: L R, LFE
Sampling rate                            : 48.0 kHz
Frame rate                               : 31.250 FPS (1536 SPF)
Bit depth                                : 16 bits
Compression mode                         : Lossy
Stream size                              : 338 MiB (1%)
Title                                    : Keeping.Up.with.the.Joneses.2016.2160p.BluRay.REMUX.HEVC.DTS-HD.MA.7.1-FGT
Language                                 : English
Service kind                             : Complete Main
Default                                  : No
Forced                                   : No

Audio #3
ID                                       : 4
Format                                   : AC-3
Format/Info                              : Audio Coding 3
Codec ID                                 : A_AC3
Duration                                 : 1 h 45 min
Bit rate mode                            : Constant
Bit rate                                 : 448 kb/s
Channel(s)                               : 6 channels
Channel positions                        : Front: L C R, Side: L R, LFE
Sampling rate                            : 48.0 kHz
Frame rate                               : 31.250 FPS (1536 SPF)
Bit depth                                : 16 bits
Compression mode                         : Lossy
Stream size                              : 338 MiB (1%)
Title                                    : Keeping.Up.with.the.Joneses.2016.2160p.BluRay.REMUX.HEVC.DTS-HD.MA.7.1-FGT
Language                                 : Spanish
Service kind                             : Complete Main
Default                                  : No
Forced                                   : No

Audio #4
ID                                       : 5
Format                                   : DTS
Format/Info                              : Digital Theater Systems
Codec ID                                 : A_DTS
Duration                                 : 1 h 45 min
Bit rate mode                            : Constant
Bit rate                                 : 768 kb/s
Channel(s)                               : 6 channels
Channel positions                        : Front: L C R, Side: L R, LFE
Sampling rate                            : 48.0 kHz
Frame rate                               : 93.750 FPS (512 SPF)
Bit depth                                : 24 bits
Compression mode                         : Lossy
Stream size                              : 579 MiB (2%)
Title                                    : Keeping.Up.with.the.Joneses.2016.2160p.BluRay.REMUX.HEVC.DTS-HD.MA.7.1-FGT
Language                                 : French
Default                                  : No
Forced                                   : No

Audio #5
ID                                       : 6
Format                                   : DTS
Format/Info                              : Digital Theater Systems
Codec ID                                 : A_DTS
Duration                                 : 1 h 45 min
Bit rate mode                            : Constant
Bit rate                                 : 768 kb/s
Channel(s)                               : 6 channels
Channel positions                        : Front: L C R, Side: L R, LFE
Sampling rate                            : 48.0 kHz
Frame rate                               : 93.750 FPS (512 SPF)
Bit depth                                : 24 bits
Compression mode                         : Lossy
Stream size                              : 579 MiB (2%)
Title                                    : Keeping.Up.with.the.Joneses.2016.2160p.BluRay.REMUX.HEVC.DTS-HD.MA.7.1-FGT
Language                                 : Spanish
Default                                  : No
Forced                                   : No

Text #1
ID                                       : 7
Format                                   : PGS
Muxing mode                              : zlib
Codec ID                                 : S_HDMV/PGS
Codec ID/Info                            : Picture based subtitle format used on BDs/HD-DVDs
Duration                                 : 1 h 40 min
Bit rate                                 : 59.9 kb/s
Count of elements                        : 4240
Stream size                              : 43.1 MiB (0%)
Title                                    : English-PGS
Language                                 : English
Default                                  : Yes
Forced                                   : No

Text #2
ID                                       : 8
Format                                   : PGS
Muxing mode                              : zlib
Codec ID                                 : S_HDMV/PGS
Codec ID/Info                            : Picture based subtitle format used on BDs/HD-DVDs
Duration                                 : 1 h 44 min
Bit rate                                 : 45.0 kb/s
Count of elements                        : 3538
Stream size                              : 33.6 MiB (0%)
Title                                    : Spanish-PGS
Language                                 : Spanish
Default                                  : No
Forced                                   : No

Text #3
ID                                       : 9
Format                                   : PGS
Muxing mode                              : zlib
Codec ID                                 : S_HDMV/PGS
Codec ID/Info                            : Picture based subtitle format used on BDs/HD-DVDs
Duration                                 : 1 h 44 min
Bit rate                                 : 42.4 kb/s
Count of elements                        : 3770
Stream size                              : 31.7 MiB (0%)
Title                                    : French-PGS
Language                                 : French
Default                                  : No
Forced                                   : No

Text #4
ID                                       : 10
Format                                   : PGS
Muxing mode                              : zlib
Codec ID                                 : S_HDMV/PGS
Codec ID/Info                            : Picture based subtitle format used on BDs/HD-DVDs
Duration                                 : 1 h 44 min
Bit rate                                 : 47.8 kb/s
Count of elements                        : 3996
Stream size                              : 35.7 MiB (0%)
Title                                    : Spanish-PGS
Language                                 : Spanish
Default                                  : No
Forced                                   : No

Text #5
ID                                       : 11
Format                                   : PGS
Muxing mode                              : zlib
Codec ID                                 : S_HDMV/PGS
Codec ID/Info                            : Picture based subtitle format used on BDs/HD-DVDs
Duration                                 : 1 h 44 min
Bit rate                                 : 40.6 kb/s
Count of elements                        : 2766
Stream size                              : 30.2 MiB (0%)
Title                                    : Danish-PGS
Language                                 : Danish
Default                                  : No
Forced                                   : No

Text #6
ID                                       : 12
Format                                   : PGS
Muxing mode                              : zlib
Codec ID                                 : S_HDMV/PGS
Codec ID/Info                            : Picture based subtitle format used on BDs/HD-DVDs
Duration                                 : 1 h 44 min
Bit rate                                 : 36.8 kb/s
Count of elements                        : 2856
Stream size                              : 27.4 MiB (0%)
Title                                    : Dutch-PGS
Language                                 : Dutch
Default                                  : No
Forced                                   : No

Text #7
ID                                       : 13
Format                                   : PGS
Muxing mode                              : zlib
Codec ID                                 : S_HDMV/PGS
Codec ID/Info                            : Picture based subtitle format used on BDs/HD-DVDs
Duration                                 : 1 h 44 min
Bit rate                                 : 40.2 kb/s
Count of elements                        : 3160
Stream size                              : 30.0 MiB (0%)
Title                                    : Finnish-PGS
Language                                 : Finnish
Default                                  : No
Forced                                   : No

Text #8
ID                                       : 14
Format                                   : PGS
Muxing mode                              : zlib
Codec ID                                 : S_HDMV/PGS
Codec ID/Info                            : Picture based subtitle format used on BDs/HD-DVDs
Duration                                 : 1 h 44 min
Bit rate                                 : 46.1 kb/s
Count of elements                        : 3992
Stream size                              : 34.3 MiB (0%)
Title                                    : Norwegian-PGS
Language                                 : Norwegian
Default                                  : No
Forced                                   : No

Text #9
ID                                       : 15
Format                                   : PGS
Muxing mode                              : zlib
Codec ID                                 : S_HDMV/PGS
Codec ID/Info                            : Picture based subtitle format used on BDs/HD-DVDs
Duration                                 : 1 h 44 min
Bit rate                                 : 46.2 kb/s
Count of elements                        : 3968
Stream size                              : 34.4 MiB (0%)
Title                                    : Swedish-PGS
Language                                 : Swedish
Default                                  : No
Forced                                   : No

Text #10
ID                                       : 16
Format                                   : PGS
Muxing mode                              : zlib
Codec ID                                 : S_HDMV/PGS
Codec ID/Info                            : Picture based subtitle format used on BDs/HD-DVDs
Duration                                 : 1 h 44 min
Bit rate                                 : 32.3 kb/s
Count of elements                        : 4024
Stream size                              : 24.2 MiB (0%)
Title                                    : Chinese-PGS
Language                                 : Chinese
Default                                  : No
Forced                                   : No

Text #11
ID                                       : 17
Format                                   : PGS
Muxing mode                              : zlib
Codec ID                                 : S_HDMV/PGS
Codec ID/Info                            : Picture based subtitle format used on BDs/HD-DVDs
Duration                                 : 1 h 44 min
Bit rate                                 : 36.5 kb/s
Count of elements                        : 4018
Stream size                              : 27.2 MiB (0%)
Title                                    : Chinese-PGS
Language                                 : Chinese
Default                                  : No
Forced                                   : No

Text #12
ID                                       : 18
Format                                   : PGS
Muxing mode                              : zlib
Codec ID                                 : S_HDMV/PGS
Codec ID/Info                            : Picture based subtitle format used on BDs/HD-DVDs
Duration                                 : 16 s 684 ms
Bit rate                                 : 50.9 kb/s
Count of elements                        : 10
Stream size                              : 104 KiB (0%)
Title                                    : English-FORCED-PGS
Language                                 : English
Default                                  : No
Forced                                   : No

Menu
00:00:00.000                             : en:Chapter 1
00:03:43.473                             : en:Chapter 2
00:06:41.651                             : en:Chapter 3
00:09:55.845                             : en:Chapter 4
00:13:28.182                             : en:Chapter 5
00:17:06.025                             : en:Chapter 6
00:21:07.933                             : en:Chapter 7
00:26:02.310                             : en:Chapter 8
00:30:07.514                             : en:Chapter 9
00:33:56.743                             : en:Chapter 10
00:37:43.761                             : en:Chapter 11
00:40:59.457                             : en:Chapter 12
00:45:35.149                             : en:Chapter 13
00:49:00.312                             : en:Chapter 14
00:52:35.152                             : en:Chapter 15
00:55:59.189                             : en:Chapter 16
01:00:50.229                             : en:Chapter 17
01:04:33.244                             : en:Chapter 18
01:08:47.665                             : en:Chapter 19
01:12:04.653                             : en:Chapter 20
01:15:58.554                             : en:Chapter 21
01:19:31.808                             : en:Chapter 22
01:22:46.544                             : en:Chapter 23
01:25:43.972                             : en:Chapter 24
01:29:02.295                             : en:Chapter 25
01:31:44.874                             : en:Chapter 26
01:34:18.527                             : en:Chapter 27
01:37:32.680                             : en:Chapter 28

间谍大邻演(台) / 两公婆决斗特务王(港) / 向邻居看齐 / 与邻居同行/邻家大贱谍4k Keeping.Up.with.the.Joneses.2016.2160p.BluRay.HEVC.DTS-HD.MA.7.1-TERMiNAL 4K UHD蓝光原盘电影资源信息

邻家大贱谍4k Keeping.Up.with.the.Joneses.2016.2160p.BluRay.HEVC.DTS-HD.MA.7.1-TERMiNAL   (4K UHD 蓝光原盘破解版 2160p  35.18GB )
游客,如果您要查看本帖隐藏内容请回复

邻家大贱谍4k Keeping.Up.with.the.Joneses.2016.2160p.BluRay.REMUX.HEVC.DTS-HD.MA.7.1-FGT   (4K UHD 蓝光原盘破解版 2160p  30.84GB )
游客,如果您要查看本帖隐藏内容请回复
发表于 2018-1-10 12:34 | 显示全部楼层
传说中的沙发???哇卡卡
发表于 2018-1-10 12:43 | 显示全部楼层
发表于 2018-1-10 12:46 | 显示全部楼层
谢谢楼主的分享。
发表于 2018-1-10 13:03 | 显示全部楼层
啥也不说了,感谢楼主在hao4k分享4k视频内容哇!
发表于 2018-1-10 13:24 | 显示全部楼层
啥也不说了,感谢楼主在hao4k分享4k视频内容哇!
发表于 2018-1-10 13:30 | 显示全部楼层
啥也不说了,感谢楼主在hao4k分享4k视频内容哇!
发表于 2018-1-10 13:46 | 显示全部楼层
是一对住在城郊的夫妇,而他们发现新搬来的邻居并不简单
头像被屏蔽
发表于 2018-1-10 13:48 | 显示全部楼层
提示: 作者被禁止或删除 内容自动屏蔽
发表于 2018-1-10 14:13 | 显示全部楼层
好,很好,非常好!
发表于 2018-1-10 14:22 | 显示全部楼层
啥也不说了,感谢楼主在hao4k分享4k视频内容哇!
发表于 2018-1-10 14:44 | 显示全部楼层
支持hao4k,支持楼主大人发布4k资源!
发表于 2018-1-10 15:07 | 显示全部楼层
支持hao4k,支持楼主大人发布4k资源!
发表于 2018-1-10 15:56 | 显示全部楼层
good,good, good
发表于 2018-1-10 16:03 | 显示全部楼层
啥也不说了,感谢楼主在hao4k分享4k视频内容哇!
发表于 2018-1-10 16:05 | 显示全部楼层
确实是难得4k好帖啊,顶先
发表于 2018-1-10 16:52 | 显示全部楼层
啥也不说了,感谢楼主在hao4k分享4k视频内容哇!
发表于 2018-1-10 17:22 | 显示全部楼层
啥也不说了,感谢楼主在hao4k分享4k视频内容哇!
您需要登录后才可以回帖 登录 | 立即注册

本版积分规则

关闭

站长通知上一条 /1 下一条

返回顶部 联系我们