猜你喜欢

王牌特工2:黄金圈4k Kingsman.The.Golden.Circle.2017.2160p.BluRay.HEVC.TrueHD.7.1.Atmos-COASTER 4K版下载[第二百零四部破解4K UHD蓝光原盘电影]

  [复制链接]
查看: 4226|回复: 278

399

主题

543

帖子

2604

K币

Rank: 9Rank: 9Rank: 9

威望
998
积分
21151
lili 发表于 2018-1-10 12:47:38 | 显示全部楼层 |阅读模式

片  名:王牌特工2:黄金圈4k [下载地址在帖子底部]

  • 年  代:2017  
  • 国  家:美国
  • 类  别:动作 冒险 喜剧 
  • 字  幕:英文原版
  • 上映日期:2017-09-22
  • 文件格式:mkv   
  • 视频效果:4K(3840x2160)    
  • 文件大小:51.99GB
  • 片  长:141分钟
  • 导  演:马修·沃恩
  • 豆瓣链接:https://movie.douban.com/subject/26378579/
  • 主  演:塔伦·埃格顿 / 科林·费尔斯 / 马克·斯特朗 / 朱丽安·摩尔 / 埃尔顿·约翰 / 爱德华·霍尔克罗夫特 / 哈莉·贝瑞 / 佩德罗·帕斯卡 / 查宁·塔图姆 / 杰夫·布里吉斯 / 迈克尔·刚本 / 索菲·库克森 / 汉娜·奥斯特罗姆 / 比约恩·格拉纳特 / 莱娜·恩卓 / 波比·迪瓦伊 / 汤姆·本尼迪克·奈特 / 托马斯·图尔格斯 / 基思·艾伦 / 艾米丽·沃森 / 布鲁斯·格林伍德 / 戈登·亚历山大 / 马丁·福特 / 明格斯·约翰斯顿

剧情简介

时光飞逝,一转眼,艾格西(塔伦·埃格顿 Taron Egerton 饰)已经成长为了一名出色而又可靠的特工,他和蒂尔德公主(汉娜·阿尔斯托姆 Hanna Alström 饰)之间的感情也愈演愈浓,两人眼看着就要携手步入婚姻的殿堂。就在这个节骨眼上,前特工查理(爱德华·霍尔克罗夫特 Edward Holcroft 饰)杀了回来,如今的他效力于一个名为“黄金圈”的贩毒组织,组织头目波比(朱丽安·摩尔 Julianne Moore 饰)是一个邪恶而又野心勃勃的女人。
  查理查出了金士曼的所有据点,用导弹将它们全部摧毁。幸存的艾格西和梅林(马克·斯特朗 Mark Strong 饰)千里迢迢远赴美国,向潜伏在那里的联邦特工寻求帮助。波比种植了一种含有毒素的大麻,将它们输送往世界各地,当瘾君子们体内的毒素渐渐发作后,波比以此为筹码,正式向政府宣战。

王牌特工2:黄金圈4k Kingsman.The.Golden.Circle.2017.2160p.BluRay.HEVC.TrueHD.7.1.Atmos-COASTER 4K ...

王牌特工2:黄金圈4k Kingsman.The.Golden.Circle.2017.2160p.BluRay.HEVC.TrueHD.7.1.Atmos-COASTER   4K  ...

王牌特工2 / 皇家特工:金圈子(港) / 金牌特务:机密对决(台) / 王牌特工2:黄金圆环 / 王牌特工:黄金圈 /王牌特工2:黄金圈4k Kingsman.The.Golden.Circle.2017.2160p.BluRay.HEVC.TrueHD.7.1.Atmos-COASTER 4K UHD蓝光原盘电影资源信息

第二百零四部 4K UHD 蓝光原盘破解版,含完整的 BDMV 文件夹以及数据,AACS 2.0 协议已被完整破解。
DISC INFO:

Disc Title:     Kingsman.The.Golden.Circle.2017.COMPLETE.UHD.BLURAY-COASTER
Disc Size:      55,551,112,404 bytes
Protection:     AACS2
BD-Java:        Yes
Extras:         Ultra HD
BDInfo:         0.5.8.7 (compatible layout created by DVDFab 10.0.7.6)

PLAYLIST REPORT:

Name:                   00800.MPLS  
Length:                 2:21:02.245 (h:m:s.ms)
Size:                   54,886,109,184 bytes
Total Bitrate:          51.89 Mbps

(*) Indicates included stream hidden by this playlist.

VIDEO:

Codec                   Bitrate             Description     
-----                   -------             -----------     
MPEG-H HEVC Video       36003 kbps          2160p / 23.976 fps / 16:9 / Main 10 Profile 5.1 High / 4:2:0 / 10 bits / HDR / BT.2020 /

AUDIO:

Codec                           Language        Bitrate         Description     
-----                           --------        -------         -----------     
Dolby Atmos/TrueHD Audio        English         6061 kbps       7.1-Atmos / 48 kHz / 6061 kbps / 24-bit (AC3 Core: 5.1 / 48 kHz / 640 kbps)
Dolby Digital Audio             English         448 kbps        5.1 / 48 kHz / 448 kbps
Dolby Digital Audio             Spanish         448 kbps        5.1 / 48 kHz / 448 kbps
DTS Audio                       French          768 kbps        5.1 / 48 kHz / 768 kbps / 24-bit
DTS Audio                       Spanish         768 kbps        5.1 / 48 kHz / 768 kbps / 24-bit
DTS Audio                       German          768 kbps        5.1 / 48 kHz / 768 kbps / 24-bit
DTS Audio                       Italian         768 kbps        5.1 / 48 kHz / 768 kbps / 24-bit
Dolby Digital Audio             Czech           448 kbps        5.1 / 48 kHz / 448 kbps
Dolby Digital Audio             Polish          448 kbps        5.1 / 48 kHz / 448 kbps
* DTS Audio                     Japanese        768 kbps        5.1 / 48 kHz / 768 kbps / 24-bit

SUBTITLES:

Codec                           Language        Bitrate         Description     
-----                           --------        -------         -----------     
Presentation Graphics           English         37.484 kbps                     
Presentation Graphics           Spanish         31.319 kbps                     
Presentation Graphics           French          27.299 kbps                     
Presentation Graphics           Danish          27.678 kbps                     
Presentation Graphics           Dutch           25.743 kbps                     
Presentation Graphics           Finnish         27.638 kbps                     
Presentation Graphics           German          30.112 kbps                     
Presentation Graphics           Italian         30.155 kbps                     
Presentation Graphics           Norwegian       29.111 kbps                     
Presentation Graphics           Swedish         31.228 kbps                     
Presentation Graphics           Chinese         23.942 kbps                     
Presentation Graphics           Czech           25.034 kbps                     
Presentation Graphics           Polish          23.355 kbps                     
Presentation Graphics           English         0.042 kbps                     
Presentation Graphics           Spanish         29.609 kbps                     
Presentation Graphics           Chinese         24.601 kbps                     
* Presentation Graphics         Japanese        0.569 kbps                     
* Presentation Graphics         Japanese        20.931 kbps  

REMUX
Video
ID                                       : 1
Format                                   : HEVC
Format/Info                              : High Efficiency Video Coding
Format profile                           : Main 10@L5.1@High
Codec ID                                 : V_MPEGH/ISO/HEVC
Duration                                 : 2 h 21 min
Bit rate                                 : 36.0 Mb/s
Width                                    : 3 840 pixels
Height                                   : 2 160 pixels
Display aspect ratio                     : 16:9
Frame rate mode                          : Constant
Frame rate                               : 23.976 (24000/1001) FPS
Color space                              : YUV
Chroma subsampling                       : 4:2:0 (Type 2)
Bit depth                                : 10 bits
Bits/(Pixel*Frame)                       : 0.181
Stream size                              : 35.5 GiB (69%)
Title                                    : Kingsman.The.Golden.Circle.2017.2160p.BluRay.REMUX.HEVC.DTS-HD.MA.TrueHD.7.1.Atmos-FGT
Writing library                          : ATEME Titan File 3.8.3 (4.8.3.0)        
Default                                  : Yes
Forced                                   : No
Color range                              : Limited
Color primaries                          : BT.2020
Transfer characteristics                 : PQ
Matrix coefficients                      : BT.2020 non-constant
Mastering display color primaries        : Display P3
Mastering display luminance              : min: 0.0050 cd/m2, max: 1000 cd/m2

Audio #1
ID                                       : 2
Format                                   : TrueHD
Format profile                           : TrueHD+Atmos / TrueHD
Codec ID                                 : A_TRUEHD
Duration                                 : 2 h 21 min
Bit rate mode                            : Variable
Bit rate                                 : 5 421 kb/s
Maximum bit rate                         : 9 927 kb/s
Channel(s)                               : Object Based / 8 channels
Channel positions                        : Object Based / Front: L C R, Side: L R, Back: L R, LFE
Sampling rate                            :  / 48.0 kHz
Frame rate                               : 1 200.000 FPS (40 SPF)
Compression mode                         : Lossless
Delay relative to video                  : 32 ms
Stream size                              : 5.34 GiB (10%)
Title                                    : Kingsman.The.Golden.Circle.2017.2160p.BluRay.REMUX.HEVC.DTS-HD.MA.TrueHD.7.1.Atmos-FGT
Language                                 : English
Default                                  : Yes
Forced                                   : No

Audio #2
ID                                       : 3
Format                                   : DTS
Format/Info                              : Digital Theater Systems
Format profile                           : MA / Core
Codec ID                                 : A_DTS
Duration                                 : 2 h 21 min
Bit rate mode                            : Variable / Constant
Bit rate                                 : 4 110 kb/s / 1 509 kb/s
Channel(s)                               : 8 channels / 6 channels
Channel positions                        : Front: L C R, Side: L R, Back: L R, LFE / Front: L C R, Side: L R, LFE
Sampling rate                            : 48.0 kHz
Frame rate                               : 93.750 FPS (512 SPF)
Bit depth                                : 24 bits
Compression mode                         : Lossless / Lossy
Stream size                              : 4.05 GiB (8%)
Title                                    : Kingsman.The.Golden.Circle.2017.2160p.BluRay.REMUX.HEVC.DTS-HD.MA.TrueHD.7.1.Atmos-FGT
Language                                 : English
Default                                  : No
Forced                                   : No

Audio #3
ID                                       : 4
Format                                   : AC-3
Format/Info                              : Audio Coding 3
Codec ID                                 : A_AC3
Duration                                 : 2 h 21 min
Bit rate mode                            : Constant
Bit rate                                 : 640 kb/s
Channel(s)                               : 6 channels
Channel positions                        : Front: L C R, Side: L R, LFE
Sampling rate                            : 48.0 kHz
Frame rate                               : 31.250 FPS (1536 SPF)
Bit depth                                : 16 bits
Compression mode                         : Lossy
Delay relative to video                  : 32 ms
Stream size                              : 646 MiB (1%)
Title                                    : Kingsman.The.Golden.Circle.2017.2160p.BluRay.REMUX.HEVC.DTS-HD.MA.TrueHD.7.1.Atmos-FGT
Language                                 : English
Service kind                             : Complete Main
Default                                  : No
Forced                                   : No

Audio #4
ID                                       : 5
Format                                   : AC-3
Format/Info                              : Audio Coding 3
Codec ID                                 : A_AC3
Duration                                 : 2 h 21 min
Bit rate mode                            : Constant
Bit rate                                 : 448 kb/s
Channel(s)                               : 6 channels
Channel positions                        : Front: L C R, Side: L R, LFE
Sampling rate                            : 48.0 kHz
Frame rate                               : 31.250 FPS (1536 SPF)
Bit depth                                : 16 bits
Compression mode                         : Lossy
Stream size                              : 452 MiB (1%)
Title                                    : Kingsman.The.Golden.Circle.2017.2160p.BluRay.REMUX.HEVC.DTS-HD.MA.TrueHD.7.1.Atmos-FGT
Language                                 : English
Service kind                             : Complete Main
Default                                  : No
Forced                                   : No

Audio #5
ID                                       : 6
Format                                   : AC-3
Format/Info                              : Audio Coding 3
Codec ID                                 : A_AC3
Duration                                 : 2 h 21 min
Bit rate mode                            : Constant
Bit rate                                 : 448 kb/s
Channel(s)                               : 6 channels
Channel positions                        : Front: L C R, Side: L R, LFE
Sampling rate                            : 48.0 kHz
Frame rate                               : 31.250 FPS (1536 SPF)
Bit depth                                : 16 bits
Compression mode                         : Lossy
Stream size                              : 452 MiB (1%)
Title                                    : Kingsman.The.Golden.Circle.2017.2160p.BluRay.REMUX.HEVC.DTS-HD.MA.TrueHD.7.1.Atmos-FGT
Language                                 : Spanish
Service kind                             : Complete Main
Default                                  : No
Forced                                   : No

Audio #6
ID                                       : 7
Format                                   : DTS
Format/Info                              : Digital Theater Systems
Codec ID                                 : A_DTS
Duration                                 : 2 h 21 min
Bit rate mode                            : Constant
Bit rate                                 : 768 kb/s
Channel(s)                               : 6 channels
Channel positions                        : Front: L C R, Side: L R, LFE
Sampling rate                            : 48.0 kHz
Frame rate                               : 93.750 FPS (512 SPF)
Bit depth                                : 24 bits
Compression mode                         : Lossy
Stream size                              : 775 MiB (1%)
Title                                    : Kingsman.The.Golden.Circle.2017.2160p.BluRay.REMUX.HEVC.DTS-HD.MA.TrueHD.7.1.Atmos-FGT
Language                                 : French
Default                                  : No
Forced                                   : No

Audio #7
ID                                       : 8
Format                                   : DTS
Format/Info                              : Digital Theater Systems
Codec ID                                 : A_DTS
Duration                                 : 2 h 21 min
Bit rate mode                            : Constant
Bit rate                                 : 768 kb/s
Channel(s)                               : 6 channels
Channel positions                        : Front: L C R, Side: L R, LFE
Sampling rate                            : 48.0 kHz
Frame rate                               : 93.750 FPS (512 SPF)
Bit depth                                : 24 bits
Compression mode                         : Lossy
Stream size                              : 775 MiB (1%)
Title                                    : Kingsman.The.Golden.Circle.2017.2160p.BluRay.REMUX.HEVC.DTS-HD.MA.TrueHD.7.1.Atmos-FGT
Language                                 : Spanish
Default                                  : No
Forced                                   : No

Audio #8
ID                                       : 9
Format                                   : DTS
Format/Info                              : Digital Theater Systems
Codec ID                                 : A_DTS
Duration                                 : 2 h 21 min
Bit rate mode                            : Constant
Bit rate                                 : 768 kb/s
Channel(s)                               : 6 channels
Channel positions                        : Front: L C R, Side: L R, LFE
Sampling rate                            : 48.0 kHz
Frame rate                               : 93.750 FPS (512 SPF)
Bit depth                                : 24 bits
Compression mode                         : Lossy
Stream size                              : 775 MiB (1%)
Title                                    : Kingsman.The.Golden.Circle.2017.2160p.BluRay.REMUX.HEVC.DTS-HD.MA.TrueHD.7.1.Atmos-FGT
Language                                 : German
Default                                  : No
Forced                                   : No

Audio #9
ID                                       : 10
Format                                   : DTS
Format/Info                              : Digital Theater Systems
Codec ID                                 : A_DTS
Duration                                 : 2 h 21 min
Bit rate mode                            : Constant
Bit rate                                 : 768 kb/s
Channel(s)                               : 6 channels
Channel positions                        : Front: L C R, Side: L R, LFE
Sampling rate                            : 48.0 kHz
Frame rate                               : 93.750 FPS (512 SPF)
Bit depth                                : 24 bits
Compression mode                         : Lossy
Stream size                              : 775 MiB (1%)
Title                                    : Kingsman.The.Golden.Circle.2017.2160p.BluRay.REMUX.HEVC.DTS-HD.MA.TrueHD.7.1.Atmos-FGT
Language                                 : Italian
Default                                  : No
Forced                                   : No

Audio #10
ID                                       : 11
Format                                   : DTS
Format/Info                              : Digital Theater Systems
Codec ID                                 : A_DTS
Duration                                 : 2 h 21 min
Bit rate mode                            : Constant
Bit rate                                 : 768 kb/s
Channel(s)                               : 6 channels
Channel positions                        : Front: L C R, Side: L R, LFE
Sampling rate                            : 48.0 kHz
Frame rate                               : 93.750 FPS (512 SPF)
Bit depth                                : 24 bits
Compression mode                         : Lossy
Stream size                              : 775 MiB (1%)
Title                                    : Kingsman.The.Golden.Circle.2017.2160p.BluRay.REMUX.HEVC.DTS-HD.MA.TrueHD.7.1.Atmos-FGT
Language                                 : Japanese
Default                                  : No
Forced                                   : No

Audio #11
ID                                       : 12
Format                                   : AC-3
Format/Info                              : Audio Coding 3
Codec ID                                 : A_AC3
Duration                                 : 2 h 21 min
Bit rate mode                            : Constant
Bit rate                                 : 448 kb/s
Channel(s)                               : 6 channels
Channel positions                        : Front: L C R, Side: L R, LFE
Sampling rate                            : 48.0 kHz
Frame rate                               : 31.250 FPS (1536 SPF)
Bit depth                                : 16 bits
Compression mode                         : Lossy
Stream size                              : 452 MiB (1%)
Title                                    : Kingsman.The.Golden.Circle.2017.2160p.BluRay.REMUX.HEVC.DTS-HD.MA.TrueHD.7.1.Atmos-FGT
Language                                 : Czech
Service kind                             : Complete Main
Default                                  : No
Forced                                   : No

Audio #12
ID                                       : 13
Format                                   : AC-3
Format/Info                              : Audio Coding 3
Codec ID                                 : A_AC3
Duration                                 : 2 h 21 min
Bit rate mode                            : Constant
Bit rate                                 : 448 kb/s
Channel(s)                               : 6 channels
Channel positions                        : Front: L C R, Side: L R, LFE
Sampling rate                            : 48.0 kHz
Frame rate                               : 31.250 FPS (1536 SPF)
Bit depth                                : 16 bits
Compression mode                         : Lossy
Stream size                              : 452 MiB (1%)
Title                                    : Kingsman.The.Golden.Circle.2017.2160p.BluRay.REMUX.HEVC.DTS-HD.MA.TrueHD.7.1.Atmos-FGT
Language                                 : Polish
Service kind                             : Complete Main
Default                                  : No
Forced                                   : No

Text #1
ID                                       : 14
Format                                   : PGS
Muxing mode                              : zlib
Codec ID                                 : S_HDMV/PGS
Codec ID/Info                            : Picture based subtitle format used on BDs/HD-DVDs
Duration                                 : 2 h 13 min
Bit rate                                 : 39.7 kb/s
Count of elements                        : 4284
Stream size                              : 37.8 MiB (0%)
Title                                    : English-PGS
Language                                 : English
Default                                  : Yes
Forced                                   : No

Text #2
ID                                       : 15
Format                                   : PGS
Muxing mode                              : zlib
Codec ID                                 : S_HDMV/PGS
Codec ID/Info                            : Picture based subtitle format used on BDs/HD-DVDs
Duration                                 : 2 h 19 min
Bit rate                                 : 21.1 kb/s
Count of elements                        : 2981
Stream size                              : 21.1 MiB (0%)
Title                                    : Japanese-PGS
Language                                 : Japanese
Default                                  : No
Forced                                   : No

Text #3
ID                                       : 16
Format                                   : PGS
Muxing mode                              : zlib
Codec ID                                 : S_HDMV/PGS
Codec ID/Info                            : Picture based subtitle format used on BDs/HD-DVDs
Duration                                 : 2 h 7 min
Bit rate                                 : 628 b/s
Count of elements                        : 104
Stream size                              : 587 KiB (0%)
Title                                    : Japanese-PGS
Language                                 : Japanese
Default                                  : No
Forced                                   : No

Text #4
ID                                       : 17
Format                                   : PGS
Muxing mode                              : zlib
Codec ID                                 : S_HDMV/PGS
Codec ID/Info                            : Picture based subtitle format used on BDs/HD-DVDs
Duration                                 : 2 h 19 min
Bit rate                                 : 31.6 kb/s
Count of elements                        : 3352
Stream size                              : 31.6 MiB (0%)
Title                                    : Spanish-PGS
Language                                 : Spanish
Default                                  : No
Forced                                   : No

Text #5
ID                                       : 18
Format                                   : PGS
Muxing mode                              : zlib
Codec ID                                 : S_HDMV/PGS
Codec ID/Info                            : Picture based subtitle format used on BDs/HD-DVDs
Duration                                 : 2 h 19 min
Bit rate                                 : 27.5 kb/s
Count of elements                        : 3402
Stream size                              : 27.5 MiB (0%)
Title                                    : French-PGS
Language                                 : French
Default                                  : No
Forced                                   : No

Text #6
ID                                       : 19
Format                                   : PGS
Muxing mode                              : zlib
Codec ID                                 : S_HDMV/PGS
Codec ID/Info                            : Picture based subtitle format used on BDs/HD-DVDs
Duration                                 : 2 h 19 min
Bit rate                                 : 28.0 kb/s
Count of elements                        : 2644
Stream size                              : 27.9 MiB (0%)
Title                                    : Danish-PGS
Language                                 : Danish
Default                                  : No
Forced                                   : No

Text #7
ID                                       : 20
Format                                   : PGS
Muxing mode                              : zlib
Codec ID                                 : S_HDMV/PGS
Codec ID/Info                            : Picture based subtitle format used on BDs/HD-DVDs
Duration                                 : 2 h 19 min
Bit rate                                 : 26.0 kb/s
Count of elements                        : 2758
Stream size                              : 26.0 MiB (0%)
Title                                    : Dutch-PGS
Language                                 : Dutch
Default                                  : No
Forced                                   : No

Text #8
ID                                       : 21
Format                                   : PGS
Muxing mode                              : zlib
Codec ID                                 : S_HDMV/PGS
Codec ID/Info                            : Picture based subtitle format used on BDs/HD-DVDs
Duration                                 : 2 h 19 min
Bit rate                                 : 27.9 kb/s
Count of elements                        : 3298
Stream size                              : 27.9 MiB (0%)
Title                                    : Finnish-PGS
Language                                 : Finnish
Default                                  : No
Forced                                   : No

Text #9
ID                                       : 22
Format                                   : PGS
Muxing mode                              : zlib
Codec ID                                 : S_HDMV/PGS
Codec ID/Info                            : Picture based subtitle format used on BDs/HD-DVDs
Duration                                 : 2 h 19 min
Bit rate                                 : 30.4 kb/s
Count of elements                        : 3264
Stream size                              : 30.4 MiB (0%)
Title                                    : German-PGS
Language                                 : German
Default                                  : No
Forced                                   : No

Text #10
ID                                       : 23
Format                                   : PGS
Muxing mode                              : zlib
Codec ID                                 : S_HDMV/PGS
Codec ID/Info                            : Picture based subtitle format used on BDs/HD-DVDs
Duration                                 : 2 h 19 min
Bit rate                                 : 30.4 kb/s
Count of elements                        : 3328
Stream size                              : 30.4 MiB (0%)
Title                                    : Italian-PGS
Language                                 : Italian
Default                                  : No
Forced                                   : No

Text #11
ID                                       : 24
Format                                   : PGS
Muxing mode                              : zlib
Codec ID                                 : S_HDMV/PGS
Codec ID/Info                            : Picture based subtitle format used on BDs/HD-DVDs
Duration                                 : 2 h 19 min
Bit rate                                 : 29.4 kb/s
Count of elements                        : 3376
Stream size                              : 29.4 MiB (0%)
Title                                    : Norwegian-PGS
Language                                 : Norwegian
Default                                  : No
Forced                                   : No

Text #12
ID                                       : 25
Format                                   : PGS
Muxing mode                              : zlib
Codec ID                                 : S_HDMV/PGS
Codec ID/Info                            : Picture based subtitle format used on BDs/HD-DVDs
Duration                                 : 2 h 19 min
Bit rate                                 : 31.5 kb/s
Count of elements                        : 3370
Stream size                              : 31.5 MiB (0%)
Title                                    : Swedish-PGS
Language                                 : Swedish
Default                                  : No
Forced                                   : No

Text #13
ID                                       : 26
Format                                   : PGS
Muxing mode                              : zlib
Codec ID                                 : S_HDMV/PGS
Codec ID/Info                            : Picture based subtitle format used on BDs/HD-DVDs
Duration                                 : 2 h 19 min
Bit rate                                 : 24.1 kb/s
Count of elements                        : 3488
Stream size                              : 24.2 MiB (0%)
Title                                    : Chinese-PGS
Language                                 : Chinese
Default                                  : No
Forced                                   : No

Text #14
ID                                       : 27
Format                                   : PGS
Muxing mode                              : zlib
Codec ID                                 : S_HDMV/PGS
Codec ID/Info                            : Picture based subtitle format used on BDs/HD-DVDs
Duration                                 : 2 h 19 min
Bit rate                                 : 25.2 kb/s
Count of elements                        : 3368
Stream size                              : 25.3 MiB (0%)
Title                                    : Czech-PGS
Language                                 : Czech
Default                                  : No
Forced                                   : No

Text #15
ID                                       : 28
Format                                   : PGS
Muxing mode                              : zlib
Codec ID                                 : S_HDMV/PGS
Codec ID/Info                            : Picture based subtitle format used on BDs/HD-DVDs
Duration                                 : 2 h 19 min
Bit rate                                 : 23.6 kb/s
Count of elements                        : 3268
Stream size                              : 23.6 MiB (0%)
Title                                    : Polish-PGS
Language                                 : Polish
Default                                  : No
Forced                                   : No

Text #16
ID                                       : 29
Format                                   : PGS
Muxing mode                              : zlib
Codec ID                                 : S_HDMV/PGS
Codec ID/Info                            : Picture based subtitle format used on BDs/HD-DVDs
Duration                                 : 1 h 0 min
Bit rate                                 : 98 b/s
Count of elements                        : 12
Stream size                              : 43.5 KiB (0%)
Title                                    : English-FORCED-PGS
Language                                 : English
Default                                  : No
Forced                                   : No

Text #17
ID                                       : 30
Format                                   : PGS
Muxing mode                              : zlib
Codec ID                                 : S_HDMV/PGS
Codec ID/Info                            : Picture based subtitle format used on BDs/HD-DVDs
Duration                                 : 2 h 19 min
Bit rate                                 : 29.9 kb/s
Count of elements                        : 3400
Stream size                              : 29.9 MiB (0%)
Title                                    : Spanish-PGS
Language                                 : Spanish
Default                                  : No
Forced                                   : No

Text #18
ID                                       : 31
Format                                   : PGS
Muxing mode                              : zlib
Codec ID                                 : S_HDMV/PGS
Codec ID/Info                            : Picture based subtitle format used on BDs/HD-DVDs
Duration                                 : 2 h 19 min
Bit rate                                 : 24.8 kb/s
Count of elements                        : 3634
Stream size                              : 24.8 MiB (0%)
Title                                    : Chinese-PGS
Language                                 : Chinese
Default                                  : No
Forced                                   : No

Menu
00:00:00.000                             : en:Chapter 1
00:04:51.958                             : en:Chapter 2
00:09:39.453                             : en:Chapter 3
00:13:36.607                             : en:Chapter 4
00:18:54.299                             : en:Chapter 5
00:24:57.287                             : en:Chapter 6
00:28:43.346                             : en:Chapter 7
00:32:52.303                             : en:Chapter 8
00:39:18.731                             : en:Chapter 9
00:43:21.849                             : en:Chapter 10
00:48:26.570                             : en:Chapter 11
00:53:54.105                             : en:Chapter 12
00:58:31.257                             : en:Chapter 13
01:05:04.901                             : en:Chapter 14
01:09:52.521                             : en:Chapter 15
01:13:34.743                             : en:Chapter 16
01:19:41.860                             : en:Chapter 17
01:23:45.103                             : en:Chapter 18
01:28:55.288                             : en:Chapter 19
01:33:25.224                             : en:Chapter 20
01:40:14.758                             : en:Chapter 21
01:45:03.255                             : en:Chapter 22
01:49:38.488                             : en:Chapter 23
01:55:15.992                             : en:Chapter 24
02:01:40.835                             : en:Chapter 25
02:05:44.036                             : en:Chapter 26
02:12:36.406                             : en:Chapter 27
02:15:15.273                             : en:Chapter 28

王牌特工2 / 皇家特工:金圈子(港) / 金牌特务:机密对决(台) / 王牌特工2:黄金圆环 / 王牌特工:黄金圈 /王牌特工2:黄金圈4k Kingsman.The.Golden.Circle.2017.2160p.BluRay.HEVC.TrueHD.7.1.Atmos-COASTER 4K UHD蓝光原盘电影资源信息

王牌特工2:黄金圈4k Kingsman.The.Golden.Circle.2017.2160p.BluRay.HEVC.TrueHD.7.1.Atmos-COASTER  (4K UHD 蓝光原盘破解版 2160p  51.99GB )
游客,如果您要查看本帖隐藏内容请回复

王牌特工2:黄金圈4k Kingsman.The.Golden.Circle.2017.2160p.BluRay.REMUX.HEVC.DTS-HD.MA.TrueHD.7.1.Atmos-FGT    (4K UHD 蓝光原盘破解版 2160p  51.27GB )
游客,如果您要查看本帖隐藏内容请回复

0

主题

19

帖子

0

K币

Rank: 1

威望
0
积分
23
Daisy 发表于 2018-1-10 13:00:15 | 显示全部楼层
额,看不懂在说神马~@_@

0

主题

379

帖子

14

K币

Rank: 2

签到达人

威望
0
积分
415
ellenma 发表于 2018-1-10 13:17:57 | 显示全部楼层
感谢楼主分享!

0

主题

18

帖子

7

K币

Rank: 1

威望
0
积分
26
1418194889 发表于 2018-1-10 13:30:45 | 显示全部楼层
珍惜生命、珍惜hao4k网站,果断回帖。

0

主题

18

帖子

7

K币

Rank: 1

威望
0
积分
26
1418194889 发表于 2018-1-10 13:31:20 | 显示全部楼层
啥也不说了,感谢楼主在hao4k分享4k视频内容哇!

0

主题

215

帖子

336

K币

Rank: 2

威望
0
积分
357
DGZ66 发表于 2018-1-10 13:38:22 | 显示全部楼层
啥也不说了,感谢楼主在hao4k分享4k视频内容哇!

1

主题

6

帖子

4

K币

Rank: 1

威望
0
积分
7
joshau 发表于 2018-1-10 13:42:48 | 显示全部楼层
Thanks for sharing

0

主题

26

帖子

10

K币

Rank: 1

威望
0
积分
51
yxc00001 发表于 2018-1-10 13:43:26 | 显示全部楼层
好电影 要支持

0

主题

36

帖子

141

K币

Rank: 1

威望
0
积分
114
stevechi 发表于 2018-1-10 13:46:42 | 显示全部楼层
啥也不说了,感谢楼主在hao4k分享4k视频内容哇!

0

主题

19

帖子

17

K币

Rank: 1

威望
0
积分
35
鑫灥12 发表于 2018-1-10 14:06:00 | 显示全部楼层
啥也不说了,感谢楼主在hao4k分享4k视频内容哇!
您需要登录后才可以回帖 登录 | 立即注册

本版积分规则

Copyright   ©2015-2016  hao4k  Powered by©Discuz!