发表于 2018-1-10 20:38 | 显示全部楼层 |阅读模式

片  名:我是传奇4k [下载地址在帖子底部]

  • 年  代:90年代  
  • 国  家:美国 
  • 类  别:科幻 恐怖 剧情 
  • 字  幕:英文原版
  • 上映日期:2007-12-14
  • 文件格式:mkv   
  • 视频效果:4K(3840x2160)    
  • 文件大小:53.90GB
  • 片  长:101分钟
  • 导  演:弗朗西斯·劳伦斯
  • 豆瓣链接:https://movie.douban.com/subject/1820156/
  • 主  演:威尔·史密斯 / 艾莉丝·布拉加 / Charlie Tahan / 达什·米霍克 / 莎莉·理查德森

剧情简介

 2012年,人类被不知名病毒感染,纽约成为一座空城。Robert Neville(Will Smith 饰)是为军方服务的科学家,也是对病毒有免疫力的幸存者。白天,他带着狗Sam在街道上寻找食物,用广播寻找幸存者,在实验室里研究治愈病毒的方法;晚上,他只能躲在屋子里,因为那些感染病毒而没有死亡的人们,成为了“夜魔”只能夜晚出来活动,丧失理智,会攻击所有的人。
  某天,Sam也感染病毒死去,Robert Neville陷入了前所未有的孤独。当他准备和“夜魔”们同归于尽的时候,另外一个幸存者Anna(Alice Braga 饰)救了他。Anna相信山上的隔离区还有幸存者,但是固执的Robert Neville却坚持守在纽约。
  又一个晚上,“夜魔”攻击Robert Neville的住所,此时他的研究已经获得成功,但是只有坚持到天亮,人类才能得以延存。

我是传奇4k I.Am.Legend.2007.2160p.BluRay.HEVC.DTS-HD.MA.5.1-TASTED 4K版下载[第二百零l六部破解4K U ...

我是传奇4k  I.Am.Legend.2007.2160p.BluRay.HEVC.DTS-HD.MA.5.1-TASTED   4K版下载[第二百零l六部破解4K U ...


末日传奇 / 魔间传奇/ 我是传奇4k  I.Am.Legend.2007.2160p.BluRay.HEVC.DTS-HD.MA.5.1-TASTED  4K UHD蓝光原盘电影资源信息


第二百零六部 4K UHD 蓝光原盘破解版,含完整的 BDMV 文件夹以及数据,AACS 2.0 协议已被完整破解。
DISC INFO:

Disc Title:     I.Am.Legend.2007.2160p.BluRay.HEVC.DTS-HD.MA.5.1-TASTED
Disc Size:      57,876,261,302 bytes
Protection:     AACS2
BD-Java:        Yes
Extras:         Ultra HD
BDInfo:         0.5.8.7 (compatible layout created by DVDFab 10.0.7.6)

PLAYLIST REPORT:

Name:                   00033.MPLS  
Length:                 1:40:26.937 (h:m:s.ms)
Size:                   57,164,347,392 bytes
Total Bitrate:          75.88 Mbps

VIDEO:

Codec                   Bitrate             Description     
-----                   -------             -----------     
MPEG-H HEVC Video       62168 kbps          2160p / 23.976 fps / 16:9 / Main 10 Profile 5.1 High / 4:2:0 / 10 bits / HDR / BT.2020 /

AUDIO:

Codec                           Language        Bitrate         Description     
-----                           --------        -------         -----------     
DTS-HD Master Audio             English         3623 kbps       5.1 / 48 kHz / 3623 kbps / 24-bit (DTS Core: 5.1 / 48 kHz / 1509 kbps / 24-bit)
Dolby Digital Audio             English         192 kbps        2.0 / 48 kHz / 192 kbps / Dolby Surround
Dolby Digital Audio             French          448 kbps        5.1 / 48 kHz / 448 kbps
Dolby Digital Audio             French          448 kbps        5.1 / 48 kHz / 448 kbps
Dolby Digital Audio             German          448 kbps        5.1 / 48 kHz / 448 kbps
Dolby Digital Audio             Italian         448 kbps        5.1 / 48 kHz / 448 kbps
Dolby Digital Audio             Spanish         448 kbps        5.1 / 48 kHz / 448 kbps
Dolby Digital Audio             Spanish         448 kbps        5.1 / 48 kHz / 448 kbps
Dolby Digital Audio             Portuguese      640 kbps        5.1 / 48 kHz / 640 kbps
Dolby Digital Audio             Czech           448 kbps        5.1 / 48 kHz / 448 kbps
Dolby Digital Audio             Hungarian       448 kbps        5.1 / 48 kHz / 448 kbps
Dolby Digital Audio             Polish          448 kbps        5.1 / 48 kHz / 448 kbps
Dolby Digital Audio             Russian         448 kbps        5.1 / 48 kHz / 448 kbps
Dolby Digital Audio             Japanese        448 kbps        5.1 / 48 kHz / 448 kbps
Dolby Digital Audio             English         192 kbps        2.0 / 48 kHz / 192 kbps / Dolby Surround

SUBTITLES:

Codec                           Language        Bitrate         Description     
-----                           --------        -------         -----------     
Presentation Graphics           English         19.253 kbps                     
Presentation Graphics           French          12.007 kbps                     
Presentation Graphics           German          21.354 kbps                     
Presentation Graphics           Italian         18.658 kbps                     
Presentation Graphics           Spanish         15.821 kbps                     
Presentation Graphics           Dutch           12.295 kbps                     
Presentation Graphics           Chinese         14.769 kbps                     
Presentation Graphics           Chinese         14.555 kbps                     
Presentation Graphics           Korean          8.968 kbps                     
Presentation Graphics           Spanish         16.303 kbps                     
Presentation Graphics           Portuguese      16.393 kbps                     
Presentation Graphics           Arabic          8.949 kbps                     
Presentation Graphics           Czech           12.085 kbps                     
Presentation Graphics           Danish          11.96 kbps                     
Presentation Graphics           Finnish         12.493 kbps                     
Presentation Graphics           Hungarian       13.692 kbps                     
Presentation Graphics           Norwegian       13.462 kbps                     
Presentation Graphics           Polish          15.435 kbps                     
Presentation Graphics           Portuguese      16.196 kbps                     
Presentation Graphics           Russian         18.193 kbps                     
Presentation Graphics           Swedish         13.317 kbps                     
Presentation Graphics           Japanese        12.246 kbps                     
Presentation Graphics           French          0.112 kbps                     
Presentation Graphics           German          0.224 kbps                     
Presentation Graphics           Italian         0.2 kbps                        
Presentation Graphics           Spanish         0.266 kbps                     
Presentation Graphics           Spanish         0.247 kbps                     
Presentation Graphics           Portuguese      0.108 kbps                     
Presentation Graphics           Czech           0.129 kbps                     
Presentation Graphics           Russian         0.295 kbps                     
Presentation Graphics           Japanese        1.335 kbps                     
Presentation Graphics           Japanese        40.578 kbps

REMUX

Video
ID                                       : 1
Format                                   : HEVC
Format/Info                              : High Efficiency Video Coding
Format profile                           : Main 10@L5.1@High
Codec ID                                 : V_MPEGH/ISO/HEVC
Duration                                 : 1 h 40 min
Bit rate                                 : 62.2 Mb/s
Width                                    : 3 840 pixels
Height                                   : 2 160 pixels
Display aspect ratio                     : 16:9
Frame rate mode                          : Constant
Frame rate                               : 23.976 (24000/1001) FPS
Color space                              : YUV
Chroma subsampling                       : 4:2:0 (Type 2)
Bit depth                                : 10 bits
Bits/(Pixel*Frame)                       : 0.313
Stream size                              : 43.6 GiB (86%)
Title                                    : I.Am.Legend.2007.2160p.BluRay.REMUX.HEVC.DTS-HD.MA.5.1-FGT
Default                                  : Yes
Forced                                   : No
Color range                              : Limited
Color primaries                          : BT.2020
Transfer characteristics                 : PQ
Matrix coefficients                      : BT.2020 non-constant
Mastering display color primaries        : Display P3
Mastering display luminance              : min: 0.0050 cd/m2, max: 4000 cd/m2
Maximum Content Light Level              : 1261 cd/m2
Maximum Frame-Average Light Level        : 512 cd/m2

Audio #1
ID                                       : 2
Format                                   : DTS
Format/Info                              : Digital Theater Systems
Format profile                           : MA / Core
Codec ID                                 : A_DTS
Duration                                 : 1 h 40 min
Bit rate mode                            : Variable / Constant
Bit rate                                 : 3 623 kb/s / 1 509 kb/s
Channel(s)                               : 6 channels
Channel positions                        : Front: L C R, Side: L R, LFE
Sampling rate                            : 48.0 kHz
Frame rate                               : 93.750 FPS (512 SPF)
Bit depth                                : 24 bits
Compression mode                         : Lossless / Lossy
Delay relative to video                  : 5 ms
Stream size                              : 2.54 GiB (5%)
Title                                    : I.Am.Legend.2007.2160p.BluRay.REMUX.HEVC.DTS-HD.MA.5.1-FGT
Language                                 : English
Default                                  : Yes
Forced                                   : No

Audio #2
ID                                       : 3
Format                                   : AC-3
Format/Info                              : Audio Coding 3
Codec ID                                 : A_AC3
Duration                                 : 1 h 40 min
Bit rate mode                            : Constant
Bit rate                                 : 192 kb/s
Channel(s)                               : 2 channels
Channel positions                        : Front: L R
Sampling rate                            : 48.0 kHz
Frame rate                               : 31.250 FPS (1536 SPF)
Bit depth                                : 16 bits
Compression mode                         : Lossy
Delay relative to video                  : 14 ms
Stream size                              : 138 MiB (0%)
Title                                    : I.Am.Legend.2007.2160p.BluRay.REMUX.HEVC.DTS-HD.MA.5.1-FGT
Language                                 : English
Service kind                             : Complete Main
Default                                  : No
Forced                                   : No

Audio #3
ID                                       : 4
Format                                   : AC-3
Format/Info                              : Audio Coding 3
Codec ID                                 : A_AC3
Duration                                 : 1 h 40 min
Bit rate mode                            : Constant
Bit rate                                 : 448 kb/s
Channel(s)                               : 6 channels
Channel positions                        : Front: L C R, Side: L R, LFE
Sampling rate                            : 48.0 kHz
Frame rate                               : 31.250 FPS (1536 SPF)
Bit depth                                : 16 bits
Compression mode                         : Lossy
Delay relative to video                  : 14 ms
Stream size                              : 322 MiB (1%)
Title                                    : I.Am.Legend.2007.2160p.BluRay.REMUX.HEVC.DTS-HD.MA.5.1-FGT
Language                                 : French
Service kind                             : Complete Main
Default                                  : No
Forced                                   : No

Audio #4
ID                                       : 5
Format                                   : AC-3
Format/Info                              : Audio Coding 3
Codec ID                                 : A_AC3
Duration                                 : 1 h 40 min
Bit rate mode                            : Constant
Bit rate                                 : 448 kb/s
Channel(s)                               : 6 channels
Channel positions                        : Front: L C R, Side: L R, LFE
Sampling rate                            : 48.0 kHz
Frame rate                               : 31.250 FPS (1536 SPF)
Bit depth                                : 16 bits
Compression mode                         : Lossy
Delay relative to video                  : 14 ms
Stream size                              : 322 MiB (1%)
Title                                    : I.Am.Legend.2007.2160p.BluRay.REMUX.HEVC.DTS-HD.MA.5.1-FGT
Language                                 : French
Service kind                             : Complete Main
Default                                  : No
Forced                                   : No

Audio #5
ID                                       : 6
Format                                   : AC-3
Format/Info                              : Audio Coding 3
Codec ID                                 : A_AC3
Duration                                 : 1 h 40 min
Bit rate mode                            : Constant
Bit rate                                 : 448 kb/s
Channel(s)                               : 6 channels
Channel positions                        : Front: L C R, Side: L R, LFE
Sampling rate                            : 48.0 kHz
Frame rate                               : 31.250 FPS (1536 SPF)
Bit depth                                : 16 bits
Compression mode                         : Lossy
Delay relative to video                  : 14 ms
Stream size                              : 322 MiB (1%)
Title                                    : I.Am.Legend.2007.2160p.BluRay.REMUX.HEVC.DTS-HD.MA.5.1-FGT
Language                                 : German
Service kind                             : Complete Main
Default                                  : No
Forced                                   : No

Audio #6
ID                                       : 7
Format                                   : AC-3
Format/Info                              : Audio Coding 3
Codec ID                                 : A_AC3
Duration                                 : 1 h 40 min
Bit rate mode                            : Constant
Bit rate                                 : 448 kb/s
Channel(s)                               : 6 channels
Channel positions                        : Front: L C R, Side: L R, LFE
Sampling rate                            : 48.0 kHz
Frame rate                               : 31.250 FPS (1536 SPF)
Bit depth                                : 16 bits
Compression mode                         : Lossy
Delay relative to video                  : 14 ms
Stream size                              : 322 MiB (1%)
Title                                    : I.Am.Legend.2007.2160p.BluRay.REMUX.HEVC.DTS-HD.MA.5.1-FGT
Language                                 : Italian
Service kind                             : Complete Main
Default                                  : No
Forced                                   : No

Audio #7
ID                                       : 8
Format                                   : AC-3
Format/Info                              : Audio Coding 3
Codec ID                                 : A_AC3
Duration                                 : 1 h 40 min
Bit rate mode                            : Constant
Bit rate                                 : 448 kb/s
Channel(s)                               : 6 channels
Channel positions                        : Front: L C R, Side: L R, LFE
Sampling rate                            : 48.0 kHz
Frame rate                               : 31.250 FPS (1536 SPF)
Bit depth                                : 16 bits
Compression mode                         : Lossy
Delay relative to video                  : 14 ms
Stream size                              : 322 MiB (1%)
Title                                    : I.Am.Legend.2007.2160p.BluRay.REMUX.HEVC.DTS-HD.MA.5.1-FGT
Language                                 : Spanish
Service kind                             : Complete Main
Default                                  : No
Forced                                   : No

Audio #8
ID                                       : 9
Format                                   : AC-3
Format/Info                              : Audio Coding 3
Codec ID                                 : A_AC3
Duration                                 : 1 h 40 min
Bit rate mode                            : Constant
Bit rate                                 : 448 kb/s
Channel(s)                               : 6 channels
Channel positions                        : Front: L C R, Side: L R, LFE
Sampling rate                            : 48.0 kHz
Frame rate                               : 31.250 FPS (1536 SPF)
Bit depth                                : 16 bits
Compression mode                         : Lossy
Delay relative to video                  : 14 ms
Stream size                              : 322 MiB (1%)
Title                                    : I.Am.Legend.2007.2160p.BluRay.REMUX.HEVC.DTS-HD.MA.5.1-FGT
Language                                 : Spanish
Service kind                             : Complete Main
Default                                  : No
Forced                                   : No

Audio #9
ID                                       : 10
Format                                   : AC-3
Format/Info                              : Audio Coding 3
Codec ID                                 : A_AC3
Duration                                 : 1 h 40 min
Bit rate mode                            : Constant
Bit rate                                 : 640 kb/s
Channel(s)                               : 6 channels
Channel positions                        : Front: L C R, Side: L R, LFE
Sampling rate                            : 48.0 kHz
Frame rate                               : 31.250 FPS (1536 SPF)
Bit depth                                : 16 bits
Compression mode                         : Lossy
Delay relative to video                  : 14 ms
Stream size                              : 460 MiB (1%)
Title                                    : I.Am.Legend.2007.2160p.BluRay.REMUX.HEVC.DTS-HD.MA.5.1-FGT
Language                                 : Portuguese
Service kind                             : Complete Main
Default                                  : No
Forced                                   : No

Audio #10
ID                                       : 11
Format                                   : AC-3
Format/Info                              : Audio Coding 3
Codec ID                                 : A_AC3
Duration                                 : 1 h 40 min
Bit rate mode                            : Constant
Bit rate                                 : 448 kb/s
Channel(s)                               : 6 channels
Channel positions                        : Front: L C R, Side: L R, LFE
Sampling rate                            : 48.0 kHz
Frame rate                               : 31.250 FPS (1536 SPF)
Bit depth                                : 16 bits
Compression mode                         : Lossy
Delay relative to video                  : 14 ms
Stream size                              : 322 MiB (1%)
Title                                    : I.Am.Legend.2007.2160p.BluRay.REMUX.HEVC.DTS-HD.MA.5.1-FGT
Language                                 : Czech
Service kind                             : Complete Main
Default                                  : No
Forced                                   : No

Audio #11
ID                                       : 12
Format                                   : AC-3
Format/Info                              : Audio Coding 3
Codec ID                                 : A_AC3
Duration                                 : 1 h 40 min
Bit rate mode                            : Constant
Bit rate                                 : 448 kb/s
Channel(s)                               : 6 channels
Channel positions                        : Front: L C R, Side: L R, LFE
Sampling rate                            : 48.0 kHz
Frame rate                               : 31.250 FPS (1536 SPF)
Bit depth                                : 16 bits
Compression mode                         : Lossy
Delay relative to video                  : 14 ms
Stream size                              : 322 MiB (1%)
Title                                    : I.Am.Legend.2007.2160p.BluRay.REMUX.HEVC.DTS-HD.MA.5.1-FGT
Language                                 : Hungarian
Service kind                             : Complete Main
Default                                  : No
Forced                                   : No

Audio #12
ID                                       : 13
Format                                   : AC-3
Format/Info                              : Audio Coding 3
Codec ID                                 : A_AC3
Duration                                 : 1 h 40 min
Bit rate mode                            : Constant
Bit rate                                 : 448 kb/s
Channel(s)                               : 6 channels
Channel positions                        : Front: L C R, Side: L R, LFE
Sampling rate                            : 48.0 kHz
Frame rate                               : 31.250 FPS (1536 SPF)
Bit depth                                : 16 bits
Compression mode                         : Lossy
Delay relative to video                  : 14 ms
Stream size                              : 322 MiB (1%)
Title                                    : I.Am.Legend.2007.2160p.BluRay.REMUX.HEVC.DTS-HD.MA.5.1-FGT
Language                                 : Polish
Service kind                             : Complete Main
Default                                  : No
Forced                                   : No

Audio #13
ID                                       : 14
Format                                   : AC-3
Format/Info                              : Audio Coding 3
Codec ID                                 : A_AC3
Duration                                 : 1 h 40 min
Bit rate mode                            : Constant
Bit rate                                 : 448 kb/s
Channel(s)                               : 6 channels
Channel positions                        : Front: L C R, Side: L R, LFE
Sampling rate                            : 48.0 kHz
Frame rate                               : 31.250 FPS (1536 SPF)
Bit depth                                : 16 bits
Compression mode                         : Lossy
Delay relative to video                  : 14 ms
Stream size                              : 322 MiB (1%)
Title                                    : I.Am.Legend.2007.2160p.BluRay.REMUX.HEVC.DTS-HD.MA.5.1-FGT
Language                                 : Russian
Service kind                             : Complete Main
Default                                  : No
Forced                                   : No

Audio #14
ID                                       : 15
Format                                   : AC-3
Format/Info                              : Audio Coding 3
Codec ID                                 : A_AC3
Duration                                 : 1 h 40 min
Bit rate mode                            : Constant
Bit rate                                 : 448 kb/s
Channel(s)                               : 6 channels
Channel positions                        : Front: L C R, Side: L R, LFE
Sampling rate                            : 48.0 kHz
Frame rate                               : 31.250 FPS (1536 SPF)
Bit depth                                : 16 bits
Compression mode                         : Lossy
Delay relative to video                  : 14 ms
Stream size                              : 322 MiB (1%)
Title                                    : I.Am.Legend.2007.2160p.BluRay.REMUX.HEVC.DTS-HD.MA.5.1-FGT
Language                                 : Japanese
Service kind                             : Complete Main
Default                                  : No
Forced                                   : No

Audio #15
ID                                       : 16
Format                                   : AC-3
Format/Info                              : Audio Coding 3
Codec ID                                 : A_AC3
Duration                                 : 1 h 40 min
Bit rate mode                            : Constant
Bit rate                                 : 192 kb/s
Channel(s)                               : 2 channels
Channel positions                        : Front: L R
Sampling rate                            : 48.0 kHz
Frame rate                               : 31.250 FPS (1536 SPF)
Bit depth                                : 16 bits
Compression mode                         : Lossy
Delay relative to video                  : 14 ms
Stream size                              : 138 MiB (0%)
Title                                    : I.Am.Legend.2007.2160p.BluRay.REMUX.HEVC.DTS-HD.MA.5.1-FGT
Language                                 : English
Service kind                             : Complete Main
Default                                  : No
Forced                                   : No

Text #1
ID                                       : 17
Format                                   : PGS
Muxing mode                              : zlib
Codec ID                                 : S_HDMV/PGS
Codec ID/Info                            : Picture based subtitle format used on BDs/HD-DVDs
Duration                                 : 1 h 40 min
Bit rate                                 : 19.3 kb/s
Count of elements                        : 1494
Stream size                              : 13.8 MiB (0%)
Title                                    : English-PGS
Language                                 : English
Default                                  : Yes
Forced                                   : No

Text #2
ID                                       : 18
Format                                   : PGS
Muxing mode                              : zlib
Codec ID                                 : S_HDMV/PGS
Codec ID/Info                            : Picture based subtitle format used on BDs/HD-DVDs
Duration                                 : 1 h 40 min
Bit rate                                 : 12.0 kb/s
Count of elements                        : 1096
Stream size                              : 8.63 MiB (0%)
Title                                    : French-PGS
Language                                 : French
Default                                  : No
Forced                                   : No

Text #3
ID                                       : 19
Format                                   : PGS
Muxing mode                              : zlib
Codec ID                                 : S_HDMV/PGS
Codec ID/Info                            : Picture based subtitle format used on BDs/HD-DVDs
Duration                                 : 1 h 40 min
Bit rate                                 : 21.4 kb/s
Count of elements                        : 1526
Stream size                              : 15.3 MiB (0%)
Title                                    : German-PGS
Language                                 : German
Default                                  : No
Forced                                   : No

Text #4
ID                                       : 20
Format                                   : PGS
Muxing mode                              : zlib
Codec ID                                 : S_HDMV/PGS
Codec ID/Info                            : Picture based subtitle format used on BDs/HD-DVDs
Duration                                 : 1 h 40 min
Bit rate                                 : 18.7 kb/s
Count of elements                        : 1440
Stream size                              : 13.4 MiB (0%)
Title                                    : Italian-PGS
Language                                 : Italian
Default                                  : No
Forced                                   : No

Text #5
ID                                       : 21
Format                                   : PGS
Muxing mode                              : zlib
Codec ID                                 : S_HDMV/PGS
Codec ID/Info                            : Picture based subtitle format used on BDs/HD-DVDs
Duration                                 : 1 h 40 min
Bit rate                                 : 15.8 kb/s
Count of elements                        : 1312
Stream size                              : 11.4 MiB (0%)
Title                                    : Spanish-PGS
Language                                 : Spanish
Default                                  : No
Forced                                   : No

Text #6
ID                                       : 22
Format                                   : PGS
Muxing mode                              : zlib
Codec ID                                 : S_HDMV/PGS
Codec ID/Info                            : Picture based subtitle format used on BDs/HD-DVDs
Duration                                 : 1 h 40 min
Bit rate                                 : 12.3 kb/s
Count of elements                        : 1004
Stream size                              : 8.83 MiB (0%)
Title                                    : Dutch-PGS
Language                                 : Dutch
Default                                  : No
Forced                                   : No

Text #7
ID                                       : 23
Format                                   : PGS
Muxing mode                              : zlib
Codec ID                                 : S_HDMV/PGS
Codec ID/Info                            : Picture based subtitle format used on BDs/HD-DVDs
Duration                                 : 1 h 40 min
Bit rate                                 : 14.8 kb/s
Count of elements                        : 1316
Stream size                              : 10.6 MiB (0%)
Title                                    : Chinese-PGS
Language                                 : Chinese
Default                                  : No
Forced                                   : No

Text #8
ID                                       : 24
Format                                   : PGS
Muxing mode                              : zlib
Codec ID                                 : S_HDMV/PGS
Codec ID/Info                            : Picture based subtitle format used on BDs/HD-DVDs
Duration                                 : 1 h 40 min
Bit rate                                 : 14.6 kb/s
Count of elements                        : 1340
Stream size                              : 10.5 MiB (0%)
Title                                    : Chinese-PGS
Language                                 : Chinese
Default                                  : No
Forced                                   : No

Text #9
ID                                       : 25
Format                                   : PGS
Muxing mode                              : zlib
Codec ID                                 : S_HDMV/PGS
Codec ID/Info                            : Picture based subtitle format used on BDs/HD-DVDs
Duration                                 : 1 h 39 min
Bit rate                                 : 9 052 b/s
Count of elements                        : 1180
Stream size                              : 6.44 MiB (0%)
Title                                    : Korean-PGS
Language                                 : Korean
Default                                  : No
Forced                                   : No

Text #10
ID                                       : 26
Format                                   : PGS
Muxing mode                              : zlib
Codec ID                                 : S_HDMV/PGS
Codec ID/Info                            : Picture based subtitle format used on BDs/HD-DVDs
Duration                                 : 1 h 40 min
Bit rate                                 : 16.3 kb/s
Count of elements                        : 1316
Stream size                              : 11.7 MiB (0%)
Title                                    : Spanish-PGS
Language                                 : Spanish
Default                                  : No
Forced                                   : No

Text #11
ID                                       : 27
Format                                   : PGS
Muxing mode                              : zlib
Codec ID                                 : S_HDMV/PGS
Codec ID/Info                            : Picture based subtitle format used on BDs/HD-DVDs
Duration                                 : 1 h 40 min
Bit rate                                 : 16.4 kb/s
Count of elements                        : 1276
Stream size                              : 11.8 MiB (0%)
Title                                    : Portuguese-PGS
Language                                 : Portuguese
Default                                  : No
Forced                                   : No

Text #12
ID                                       : 28
Format                                   : PGS
Muxing mode                              : zlib
Codec ID                                 : S_HDMV/PGS
Codec ID/Info                            : Picture based subtitle format used on BDs/HD-DVDs
Duration                                 : 1 h 40 min
Bit rate                                 : 8 959 b/s
Count of elements                        : 1330
Stream size                              : 6.43 MiB (0%)
Title                                    : Arabic-PGS
Language                                 : Arabic
Default                                  : No
Forced                                   : No

Text #13
ID                                       : 29
Format                                   : PGS
Muxing mode                              : zlib
Codec ID                                 : S_HDMV/PGS
Codec ID/Info                            : Picture based subtitle format used on BDs/HD-DVDs
Duration                                 : 1 h 40 min
Bit rate                                 : 12.1 kb/s
Count of elements                        : 1184
Stream size                              : 8.68 MiB (0%)
Title                                    : Czech-PGS
Language                                 : Czech
Default                                  : No
Forced                                   : No

Text #14
ID                                       : 30
Format                                   : PGS
Muxing mode                              : zlib
Codec ID                                 : S_HDMV/PGS
Codec ID/Info                            : Picture based subtitle format used on BDs/HD-DVDs
Duration                                 : 1 h 39 min
Bit rate                                 : 12.1 kb/s
Count of elements                        : 882
Stream size                              : 8.59 MiB (0%)
Title                                    : Danish-PGS
Language                                 : Danish
Default                                  : No
Forced                                   : No

Text #15
ID                                       : 31
Format                                   : PGS
Muxing mode                              : zlib
Codec ID                                 : S_HDMV/PGS
Codec ID/Info                            : Picture based subtitle format used on BDs/HD-DVDs
Duration                                 : 1 h 40 min
Bit rate                                 : 12.5 kb/s
Count of elements                        : 1008
Stream size                              : 8.98 MiB (0%)
Title                                    : Finnish-GPS
Language                                 : Finnish
Default                                  : No
Forced                                   : No

Text #16
ID                                       : 32
Format                                   : PGS
Muxing mode                              : zlib
Codec ID                                 : S_HDMV/PGS
Codec ID/Info                            : Picture based subtitle format used on BDs/HD-DVDs
Duration                                 : 1 h 40 min
Bit rate                                 : 13.7 kb/s
Count of elements                        : 1210
Stream size                              : 9.84 MiB (0%)
Title                                    : Hungarian-PGS
Language                                 : Hungarian
Default                                  : No
Forced                                   : No

Text #17
ID                                       : 33
Format                                   : PGS
Muxing mode                              : zlib
Codec ID                                 : S_HDMV/PGS
Codec ID/Info                            : Picture based subtitle format used on BDs/HD-DVDs
Duration                                 : 1 h 39 min
Bit rate                                 : 13.6 kb/s
Count of elements                        : 1120
Stream size                              : 9.67 MiB (0%)
Title                                    : Norwegian-PGS
Language                                 : Norwegian
Default                                  : No
Forced                                   : No

Text #18
ID                                       : 34
Format                                   : PGS
Muxing mode                              : zlib
Codec ID                                 : S_HDMV/PGS
Codec ID/Info                            : Picture based subtitle format used on BDs/HD-DVDs
Duration                                 : 1 h 40 min
Bit rate                                 : 15.5 kb/s
Count of elements                        : 1306
Stream size                              : 11.1 MiB (0%)
Title                                    : Polish_PGS
Language                                 : Polish
Default                                  : No
Forced                                   : No

Text #19
ID                                       : 35
Format                                   : PGS
Muxing mode                              : zlib
Codec ID                                 : S_HDMV/PGS
Codec ID/Info                            : Picture based subtitle format used on BDs/HD-DVDs
Duration                                 : 1 h 40 min
Bit rate                                 : 16.2 kb/s
Count of elements                        : 1292
Stream size                              : 11.6 MiB (0%)
Title                                    : Portuguese-PGS
Language                                 : Portuguese
Default                                  : No
Forced                                   : No

Text #20
ID                                       : 36
Format                                   : PGS
Muxing mode                              : zlib
Codec ID                                 : S_HDMV/PGS
Codec ID/Info                            : Picture based subtitle format used on BDs/HD-DVDs
Duration                                 : 1 h 40 min
Bit rate                                 : 18.2 kb/s
Count of elements                        : 1388
Stream size                              : 13.1 MiB (0%)
Title                                    : Russian-PGS
Language                                 : Russian
Default                                  : No
Forced                                   : No

Text #21
ID                                       : 37
Format                                   : PGS
Muxing mode                              : zlib
Codec ID                                 : S_HDMV/PGS
Codec ID/Info                            : Picture based subtitle format used on BDs/HD-DVDs
Duration                                 : 1 h 40 min
Bit rate                                 : 13.3 kb/s
Count of elements                        : 976
Stream size                              : 9.57 MiB (0%)
Title                                    : Swedish-PGS
Language                                 : Swedish
Default                                  : No
Forced                                   : No

Text #22
ID                                       : 38
Format                                   : PGS
Muxing mode                              : zlib
Codec ID                                 : S_HDMV/PGS
Codec ID/Info                            : Picture based subtitle format used on BDs/HD-DVDs
Duration                                 : 1 h 33 min
Bit rate                                 : 13.1 kb/s
Count of elements                        : 1894
Stream size                              : 8.80 MiB (0%)
Title                                    : Japanese-PGS
Language                                 : Japanese
Default                                  : No
Forced                                   : No

Text #23
ID                                       : 39
Format                                   : PGS
Muxing mode                              : zlib
Codec ID                                 : S_HDMV/PGS
Codec ID/Info                            : Picture based subtitle format used on BDs/HD-DVDs
Duration                                 : 1 h 38 min
Bit rate                                 : 114 b/s
Count of elements                        : 10
Stream size                              : 82.6 KiB (0%)
Title                                    : French-FORCED-PGS
Language                                 : French
Default                                  : No
Forced                                   : No

Text #24
ID                                       : 40
Format                                   : PGS
Muxing mode                              : zlib
Codec ID                                 : S_HDMV/PGS
Codec ID/Info                            : Picture based subtitle format used on BDs/HD-DVDs
Duration                                 : 1 h 39 min
Bit rate                                 : 226 b/s
Count of elements                        : 16
Stream size                              : 165 KiB (0%)
Title                                    : German-FORCED-PGS
Language                                 : German
Default                                  : No
Forced                                   : No

Text #25
ID                                       : 41
Format                                   : PGS
Muxing mode                              : zlib
Codec ID                                 : S_HDMV/PGS
Codec ID/Info                            : Picture based subtitle format used on BDs/HD-DVDs
Duration                                 : 1 h 39 min
Bit rate                                 : 202 b/s
Count of elements                        : 16
Stream size                              : 147 KiB (0%)
Title                                    : Italian-FORCED-PGS
Language                                 : Italian
Default                                  : No
Forced                                   : No

Text #26
ID                                       : 42
Format                                   : PGS
Muxing mode                              : zlib
Codec ID                                 : S_HDMV/PGS
Codec ID/Info                            : Picture based subtitle format used on BDs/HD-DVDs
Duration                                 : 1 h 39 min
Bit rate                                 : 269 b/s
Count of elements                        : 18
Stream size                              : 196 KiB (0%)
Title                                    : Spanish-FORCED-PGS
Language                                 : Spanish
Default                                  : No
Forced                                   : No

Text #27
ID                                       : 43
Format                                   : PGS
Muxing mode                              : zlib
Codec ID                                 : S_HDMV/PGS
Codec ID/Info                            : Picture based subtitle format used on BDs/HD-DVDs
Duration                                 : 1 h 39 min
Bit rate                                 : 250 b/s
Count of elements                        : 20
Stream size                              : 182 KiB (0%)
Title                                    : Spanish-FORCED-PGS
Language                                 : Spanish
Default                                  : No
Forced                                   : No

Text #28
ID                                       : 44
Format                                   : PGS
Muxing mode                              : zlib
Codec ID                                 : S_HDMV/PGS
Codec ID/Info                            : Picture based subtitle format used on BDs/HD-DVDs
Duration                                 : 1 h 38 min
Bit rate                                 : 110 b/s
Count of elements                        : 10
Stream size                              : 79.3 KiB (0%)
Title                                    : Portuguese-FORCED-PGS
Language                                 : Portuguese
Default                                  : No
Forced                                   : No

Text #29
ID                                       : 45
Format                                   : PGS
Muxing mode                              : zlib
Codec ID                                 : S_HDMV/PGS
Codec ID/Info                            : Picture based subtitle format used on BDs/HD-DVDs
Duration                                 : 1 h 38 min
Bit rate                                 : 132 b/s
Count of elements                        : 14
Stream size                              : 95.0 KiB (0%)
Title                                    : Czech-FORCED-GPS
Language                                 : Czech
Default                                  : No
Forced                                   : No

Text #30
ID                                       : 46
Format                                   : PGS
Muxing mode                              : zlib
Codec ID                                 : S_HDMV/PGS
Codec ID/Info                            : Picture based subtitle format used on BDs/HD-DVDs
Duration                                 : 1 h 39 min
Bit rate                                 : 299 b/s
Count of elements                        : 24
Stream size                              : 217 KiB (0%)
Title                                    : Russian-FORCED-PGS
Language                                 : Russian
Default                                  : No
Forced                                   : No

Text #31
ID                                       : 47
Format                                   : PGS
Muxing mode                              : zlib
Codec ID                                 : S_HDMV/PGS
Codec ID/Info                            : Picture based subtitle format used on BDs/HD-DVDs
Duration                                 : 1 h 31 min
Bit rate                                 : 1 461 b/s
Count of elements                        : 746
Stream size                              : 982 KiB (0%)
Title                                    : Japanese-FORCED-PGS
Language                                 : Japanese
Default                                  : No
Forced                                   : No

Text #32
ID                                       : 48
Format                                   : PGS
Muxing mode                              : zlib
Codec ID                                 : S_HDMV/PGS
Codec ID/Info                            : Picture based subtitle format used on BDs/HD-DVDs
Duration                                 : 1 h 33 min
Bit rate                                 : 43.4 kb/s
Count of elements                        : 3186
Stream size                              : 29.2 MiB (0%)
Title                                    : Japanese-PGS
Language                                 : Japanese
Default                                  : No
Forced                                   : No

Menu
00:00:00.000                             : en:Chapter 1
00:02:14.134                             : en:Chapter 2
00:07:56.476                             : en:Chapter 3
00:12:07.393                             : en:Chapter 4
00:15:15.706                             : en:Chapter 5
00:18:20.099                             : en:Chapter 6
00:23:22.526                             : en:Chapter 7
00:26:42.183                             : en:Chapter 8
00:31:49.282                             : en:Chapter 9
00:34:15.595                             : en:Chapter 10
00:37:45.805                             : en:Chapter 11
00:39:16.145                             : en:Chapter 12
00:44:06.644                             : en:Chapter 13
00:48:50.928                             : en:Chapter 14
00:53:12.731                             : en:Chapter 15
00:56:54.786                             : en:Chapter 16
00:59:41.452                             : en:Chapter 17
01:02:41.090                             : en:Chapter 18
01:04:30.658                             : en:Chapter 19
01:09:18.487                             : en:Chapter 20
01:11:21.902                             : en:Chapter 21
01:17:38.779                             : en:Chapter 22
01:20:14.935                             : en:Chapter 23
01:24:10.920                             : en:Chapter 24
01:27:59.691                             : en:Chapter 25
01:29:48.049                             : en:Chapter 26
01:31:48.002                             : en:Chapter 27

末日传奇 / 魔间传奇/ 我是传奇4k  I.Am.Legend.2007.2160p.BluRay.HEVC.DTS-HD.MA.5.1-TASTED  4K UHD蓝光原盘电影资源下载

我是传奇4k  I.Am.Legend.2007.2160p.BluRay.HEVC.DTS-HD.MA.5.1-TASTED  (4K UHD 蓝光原盘破解版 2160p 53.90GB )
游客,如果您要查看本帖隐藏内容请回复

我是传奇4k I.Am.Legend.2007.2160p.BluRay.REMUX.HEVC.DTS-HD.MA.5.1-FGT  (4K UHD 蓝光原盘破解版 2160p 50.47GB )
游客,如果您要查看本帖隐藏内容请回复

发表于 2018-1-10 20:45 | 显示全部楼层
前排,哇咔咔
发表于 2018-1-10 20:52 | 显示全部楼层
支持hao4k,支持楼主大人发布4k资源!
发表于 2018-1-10 21:00 | 显示全部楼层
感谢楼主分享!
发表于 2018-1-10 21:01 | 显示全部楼层
感谢楼主
发表于 2018-1-10 21:12 | 显示全部楼层
感谢楼主分享!
发表于 2018-1-10 21:17 | 显示全部楼层
真是太好了
发表于 2018-1-10 21:34 | 显示全部楼层
威爾史密斯
真的演技很好
只有一個人也能演
感謝下載
发表于 2018-1-10 21:39 | 显示全部楼层
謝謝分享影片
发表于 2018-1-10 22:16 | 显示全部楼层
谢谢分享
您需要登录后才可以回帖 登录 | 立即注册

本版积分规则

返回顶部 联系我们