streamer 发表于 2018-1-11 21:06 | 显示全部楼层 |阅读模式

片  名:美国刺客 [下载地址在帖子底部]

  • 导  演:迈克尔·科斯塔 Michael Cuesta
  • 年  代:2017    
  • 国  家:美国   
  • 电影分类:动作   惊悚   
  • 电影格式:MKV|REMUX   
  • 分 辨 率: 4K(3840x2160)    
  • 画质标准: 
  • 音质编码: 
  • 电影声道:
  • 电影语言:无字幕     
  • 资源大小:66GB
  • 中文字幕:

剧情简介

米奇·拉普(迪伦·欧布莱恩 Dylan O\'Brien 饰)是一个普通的美国青年,他在14岁时在一场悲剧性的车祸中失去了双亲,而与他刚刚订婚的女友也死在了恐怖分子的手中,一心寻求复仇的他被中情局副主管爱琳·肯尼迪(桑娜·莱瑟 Sanaa Lathan 饰)招募进入了黑色行动,由冷战时期的精英斯坦·赫利(迈克尔·基顿 Michael Keaton 饰)。米奇的天赋令人惊叹,而斯坦也必须与初出茅庐的米奇共同化解一次可能发起第三次世界大战的致命阴谋......
Video #1
ID                                       : 1
Format                                   : HEVC
Format/Info                              : High Efficiency Video Coding
Format profile                           : Main 10@L5.1@High
Codec ID                                 : V_MPEGH/ISO/HEVC
Duration                                 : 1 h 51 min
Bit rate                                 : 66.3 Mb/s
Width                                    : 3 840 pixels
Height                                   : 2 160 pixels
Display aspect ratio                     : 16:9
Frame rate mode                          : Constant
Frame rate                               : 23.976 (24000/1001) FPS
Color space                              : YUV
Chroma subsampling                       : 4:2:0 (Type 2)
Bit depth                                : 10 bits
Bits/(Pixel*Frame)                       : 0.334
Stream size                              : 51.8 GiB (78%)
Title                                    : American.Assassin.2017.2160p.BluRay.REMUX.HEVC.DTS-HD.MA.TrueHD.7.1.Atmos-FGT
Default                                  : Yes
Forced                                   : No
Color range                              : Limited
Color primaries                          : BT.2020
Transfer characteristics                 : PQ
Matrix coefficients                      : BT.2020 non-constant
Mastering display color primaries        : Display P3
Mastering display luminance              : min: 0.0050 cd/m2, max: 1000 cd/m2
Maximum Content Light Level              : 1000 cd/m2
Maximum Frame-Average Light Level        : 607 cd/m2
Video #2
ID                                       : 2
Format                                   : HEVC
Format/Info                              : High Efficiency Video Coding
Format profile                           : Main 10@L5.1@High
Codec ID                                 : V_MPEGH/ISO/HEVC
Duration                                 : 1 h 51 min
Bit rate                                 : 7 974 kb/s
Width                                    : 1 920 pixels
Height                                   : 1 080 pixels
Display aspect ratio                     : 16:9
Frame rate mode                          : Constant
Frame rate                               : 23.976 (24000/1001) FPS
Color space                              : YUV
Chroma subsampling                       : 4:2:0 (Type 2)
Bit depth                                : 10 bits
Bits/(Pixel*Frame)                       : 0.160
Stream size                              : 6.22 GiB (9%)
Title                                    : American.Assassin.2017.2160p.BluRay.REMUX.HEVC.DTS-HD.MA.TrueHD.7.1.Atmos-FGT
Default                                  : No
Forced                                   : No
Color range                              : Limited
Color primaries                          : BT.2020
Transfer characteristics                 : PQ
Matrix coefficients                      : BT.2020 non-constant
Mastering display color primaries        : Display P3
Mastering display luminance              : min: 0.0050 cd/m2, max: 1000 cd/m2
Audio #1
ID                                       : 3
Format                                   : DTS
Format/Info                              : Digital Theater Systems
Format profile                           : MA / Core
Codec ID                                 : A_DTS
Duration                                 : 1 h 51 min
Bit rate mode                            : Variable / Constant
Bit rate                                 : 3 840 kb/s / 1 509 kb/s
Channel(s)                               : 8 channels / 6 channels
Channel positions                        : Front: L C R, Side: L R, Back: L R, LFE / Front: L C R, Side: L R, LFE
Sampling rate                            : 48.0 kHz
Frame rate                               : 93.750 FPS (512 SPF)
Bit depth                                : 24 bits
Compression mode                         : Lossless / Lossy
Stream size                              : 3.03 GiB (5%)
Title                                    : American.Assassin.2017.2160p.BluRay.REMUX.HEVC.DTS-HD.MA.TrueHD.7.1.Atmos-FGT
Language                                 : English
Default                                  : Yes
Forced                                   : No
Audio #2
ID                                       : 4
Format                                   : TrueHD
Format profile                           : TrueHD+Atmos / TrueHD
Codec ID                                 : A_TRUEHD
Duration                                 : 1 h 51 min
Bit rate mode                            : Variable
Bit rate                                 : 4 467 kb/s
Maximum bit rate                         : 8 019 kb/s
Channel(s)                               : Object Based / 8 channels
Channel positions                        : Object Based / Front: L C R, Side: L R, Back: L R, LFE
Sampling rate                            :  / 48.0 kHz
Frame rate                               : 1 200.000 FPS (40 SPF)
Compression mode                         : Lossless
Stream size                              : 3.49 GiB (5%)
Title                                    : American.Assassin.2017.2160p.BluRay.REMUX.HEVC.DTS-HD.MA.TrueHD.7.1.Atmos-FGT
Language                                 : English
Default                                  : No
Forced                                   : No
Audio #3
ID                                       : 5
Format                                   : AC-3
Format/Info                              : Audio Coding 3
Codec ID                                 : A_AC3
Duration                                 : 1 h 51 min
Bit rate mode                            : Constant
Bit rate                                 : 640 kb/s
Channel(s)                               : 6 channels
Channel positions                        : Front: L C R, Side: L R, LFE
Sampling rate                            : 48.0 kHz
Frame rate                               : 31.250 FPS (1536 SPF)
Bit depth                                : 16 bits
Compression mode                         : Lossy
Stream size                              : 512 MiB (1%)
Title                                    : American.Assassin.2017.2160p.BluRay.REMUX.HEVC.DTS-HD.MA.TrueHD.7.1.Atmos-FGT
Language                                 : English
Service kind                             : Complete Main
Default                                  : No
Forced                                   : No
Audio #4
ID                                       : 6
Format                                   : AC-3
Format/Info                              : Audio Coding 3
Codec ID                                 : A_AC3
Duration                                 : 1 h 51 min
Bit rate mode                            : Constant
Bit rate                                 : 640 kb/s
Channel(s)                               : 6 channels
Channel positions                        : Front: L C R, Side: L R, LFE
Sampling rate                            : 48.0 kHz
Frame rate                               : 31.250 FPS (1536 SPF)
Bit depth                                : 16 bits
Compression mode                         : Lossy
Stream size                              : 512 MiB (1%)
Title                                    : American.Assassin.2017.2160p.BluRay.REMUX.HEVC.DTS-HD.MA.TrueHD.7.1.Atmos-FGT
Language                                 : Spanish
Service kind                             : Complete Main
Default                                  : No
Forced                                   : No
Audio #5
ID                                       : 7
Format                                   : AC-3
Format/Info                              : Audio Coding 3
Codec ID                                 : A_AC3
Duration                                 : 1 h 51 min
Bit rate mode                            : Constant
Bit rate                                 : 640 kb/s
Channel(s)                               : 6 channels
Channel positions                        : Front: L C R, Side: L R, LFE
Sampling rate                            : 48.0 kHz
Frame rate                               : 31.250 FPS (1536 SPF)
Bit depth                                : 16 bits
Compression mode                         : Lossy
Stream size                              : 512 MiB (1%)
Title                                    : American.Assassin.2017.2160p.BluRay.REMUX.HEVC.DTS-HD.MA.TrueHD.7.1.Atmos-FGT
Language                                 : French
Service kind                             : Complete Main
Default                                  : No
Forced                                   : No
Audio #6
ID                                       : 8
Format                                   : AC-3
Format/Info                              : Audio Coding 3
Codec ID                                 : A_AC3
Duration                                 : 1 h 51 min
Bit rate mode                            : Constant
Bit rate                                 : 224 kb/s
Channel(s)                               : 2 channels
Channel positions                        : Front: L R
Sampling rate                            : 48.0 kHz
Frame rate                               : 31.250 FPS (1536 SPF)
Bit depth                                : 16 bits
Compression mode                         : Lossy
Stream size                              : 179 MiB (0%)
Title                                    : American.Assassin.2017.2160p.BluRay.REMUX.HEVC.DTS-HD.MA.TrueHD.7.1.Atmos-FGT
Language                                 : English
Service kind                             : Complete Main
Default                                  : No
Forced                                   : No
Audio #7
ID                                       : 9
Format                                   : AC-3
Format/Info                              : Audio Coding 3
Codec ID                                 : A_AC3
Duration                                 : 1 h 51 min
Bit rate mode                            : Constant
Bit rate                                 : 224 kb/s
Channel(s)                               : 2 channels
Channel positions                        : Front: L R
Sampling rate                            : 48.0 kHz
Frame rate                               : 31.250 FPS (1536 SPF)
Bit depth                                : 16 bits
Compression mode                         : Lossy
Stream size                              : 179 MiB (0%)
Title                                    : American.Assassin.2017.2160p.BluRay.REMUX.HEVC.DTS-HD.MA.TrueHD.7.1.Atmos-FGT
Language                                 : English
Service kind                             : Complete Main
Default                                  : No
Forced                                   : No
Text #1
ID                                       : 10
Format                                   : PGS
Muxing mode                              : zlib
Codec ID                                 : S_HDMV/PGS
Codec ID/Info                            : Picture based subtitle format used on BDs/HD-DVDs
Duration                                 : 1 h 42 min
Bit rate                                 : 28.7 kb/s
Count of elements                        : 2578
Stream size                              : 21.0 MiB (0%)
Title                                    : English-PGS
Language                                 : English
Default                                  : Yes
Forced                                   : No
Text #2
ID                                       : 11
Format                                   : PGS
Muxing mode                              : zlib
Codec ID                                 : S_HDMV/PGS
Codec ID/Info                            : Picture based subtitle format used on BDs/HD-DVDs
Duration                                 : 1 h 42 min
Bit rate                                 : 25.4 kb/s
Count of elements                        : 2198
Stream size                              : 18.7 MiB (0%)
Title                                    : Spanish-PGS
Language                                 : Spanish
Default                                  : No
Forced                                   : No
Text #3
ID                                       : 12
Format                                   : PGS
Muxing mode                              : zlib
Codec ID                                 : S_HDMV/PGS
Codec ID/Info                            : Picture based subtitle format used on BDs/HD-DVDs
Duration                                 : 1 h 37 min
Bit rate                                 : 2 030 b/s
Count of elements                        : 154
Stream size                              : 1.42 MiB (0%)
Title                                    : Spanish-FORCED-PGS
Language                                 : Spanish
Default                                  : No
Forced                                   : No
Text #4
ID                                       : 13
Format                                   : PGS
Muxing mode                              : zlib
Codec ID                                 : S_HDMV/PGS
Codec ID/Info                            : Picture based subtitle format used on BDs/HD-DVDs
Duration                                 : 1 h 37 min
Bit rate                                 : 2 143 b/s
Count of elements                        : 130
Stream size                              : 1.50 MiB (0%)
Title                                    : French-FORCED-PGS
Language                                 : French
Default                                  : No
Forced                                   : No
Menu
00:00:00.000                             : en:Chapter 1
00:05:32.623                             : en:Chapter 2
00:11:18.386                             : en:Chapter 3
00:16:10.552                             : en:Chapter 4
00:20:39.321                             : en:Chapter 5
00:29:17.172                             : en:Chapter 6
00:40:31.971                             : en:Chapter 7
00:52:33.400                             : en:Chapter 8
00:57:10.760                             : en:Chapter 9
01:07:09.066                             : en:Chapter 10
01:12:53.494                             : en:Chapter 11
01:17:45.535                             : en:Chapter 12
01:22:38.119                             : en:Chapter 13
01:28:33.057                             : en:Chapter 14
01:33:14.797                             : en:Chapter 15
01:41:12.858                             : en:Chapter 16

游客,如果您要查看本帖隐藏内容请回复

评分

参与人数 1K币 +20 收起 理由
hao4k + 20 赞一个!

查看全部评分

释怀的情绪ヽ 发表于 2018-1-11 21:12 | 显示全部楼层
额,看不懂在说神马~@_@
13911089997 发表于 2018-1-11 22:19 | 显示全部楼层
啥也不说了,感谢楼主在hao4k分享4k视频内容哇!
ldwxyp 发表于 2018-1-11 22:49 | 显示全部楼层
啥也不说了,感谢楼主在hao4k分享4k视频内容哇!
tanjieming1 发表于 2018-1-11 23:02 | 显示全部楼层
谢谢楼主分享
jk2326 发表于 2018-1-11 23:28 | 显示全部楼层
看一下,谢谢提供
Tkevin 发表于 2018-1-11 23:44 | 显示全部楼层
啥也不说了,感谢楼主在hao4k分享4k视频内容哇!
tac007 发表于 2018-1-12 00:17 | 显示全部楼层
thanks for share
ringotang 发表于 2018-1-12 00:55 | 显示全部楼层
确实是难得4k好帖啊,顶先
hickman 发表于 2018-1-12 02:30 | 显示全部楼层
多谢分享电影~~~~~~~~~~~~~
hickman 发表于 2018-1-12 02:31 | 显示全部楼层
支持hao4k,支持楼主大人发布4k资源!
xtssyvi 发表于 2018-1-12 08:29 | 显示全部楼层
啥也不说了,感谢楼主在hao4k分享4k视频内容哇!
xtssyvi 发表于 2018-1-12 08:31 | 显示全部楼层
啥也不说了,感谢楼主在hao4k分享4k视频内容哇!
drch_dragon 发表于 2018-1-12 08:35 | 显示全部楼层
啥也不说了,感谢楼主在hao4k分享4k视频内容哇
gdmzwh 发表于 2018-1-12 10:27 | 显示全部楼层
确实是难得4k好帖啊,顶先
wilburgao 发表于 2018-1-12 10:53 | 显示全部楼层
是哦手机号手机号发是的v
xbblueblood 发表于 2018-1-12 12:36 | 显示全部楼层
感谢楼主分享!
ENZO 发表于 2018-1-12 13:43 | 显示全部楼层
啥也不说了,感谢楼主在hao4k分享4k视频内容哇!
您需要登录后才可以回帖 登录 | 立即注册

本版积分规则

返回顶部 联系我们