lili 发表于 2018-2-7 16:34 | 显示全部楼层 |阅读模式

片  名:大骚乱4K [下载地址在帖子底部]

  • 导  演:乔·林奇
  • 年  代:2017    
  • 国  家:美国   
  • 电影分类:动作   恐怖   
  • 电影格式:MKV|REMUX   
  • 分 辨 率: 4K(3840x2160)    
  • 画质标准:
  • 音质编码: 
  • 电影声道:
  • 电影语言:英文原版     
  • 资源大小:50.60GB
  • 中文字幕:https://www.hao4k.com/thread-29419-1-1.html

剧情简介

 剧本由马蒂亚斯·卡鲁索创作,故事讲述一种病毒感染了一个公司的法务部,而在同一天律师德里克·桑德斯被同事陷害并且被不公平地开除。这种感染会使人们表现出最原始和野性的冲动。被困在被隔离的大楼里,我们的英雄主人公只能竭尽全力通过野蛮地拼斗,夺回属于自己的工作和人生。

大骚乱4K Mayhem.2017.2160p.BluRay.HEVC.DTS-HD.MA.5.1 4K UHD蓝光原盘电影信息

大骚乱4K Mayhem.2017.2160p.BluRay.HEVC.DTS-HD.MA.5.1 4K  UHD蓝光原盘电影信息


大骚乱4K Mayhem.2017.2160p.BluRay.HEVC.DTS-HD.MA.5.1 4K  UHD蓝光原盘电影信息


第268部 4K UHD 蓝光原盘破解版,含完整的 BDMV 文件夹以及数据,AACS 2.0 协议已被完整破解

REMUX
Video
ID                                       : 1
Format                                   : HEVC
Format/Info                              : High Efficiency Video Coding
Format profile                           : Main 10@L5.1@High
Codec ID                                 : V_MPEGH/ISO/HEVC
Duration                                 : 1 h 27 min
Bit rate                                 : 69.6 Mb/s
Width                                    : 3 840 pixels
Height                                   : 2 160 pixels
Display aspect ratio                     : 16:9
Frame rate mode                          : Constant
Frame rate                               : 23.976 (24000/1001) FPS
Color space                              : YUV
Chroma subsampling                       : 4:2:0
Bit depth                                : 10 bits
Bits/(Pixel*Frame)                       : 0.350
Stream size                              : 42.6 GiB (95%)
Title                                    : Mayhem.2017.2160p.BluRay.REMUX.HEVC.DTS-HD.MA.5.1-FGT
Default                                  : Yes
Forced                                   : No
Color range                              : Limited
Color primaries                          : BT.709
Transfer characteristics                 : BT.709
Matrix coefficients                      : BT.709

Audio #1
ID                                       : 2
Format                                   : DTS
Format/Info                              : Digital Theater Systems
Format profile                           : MA / Core
Codec ID                                 : A_DTS
Duration                                 : 1 h 27 min
Bit rate mode                            : Variable / Constant
Bit rate                                 : 2 048 kb/s / 1 509 kb/s
Channel(s)                               : 6 channels
Channel positions                        : Front: L C R, Side: L R, LFE
Sampling rate                            : 48.0 kHz
Frame rate                               : 93.750 FPS (512 SPF)
Bit depth                                : 24 bits
Compression mode                         : Lossless / Lossy
Stream size                              : 1.24 GiB (3%)
Title                                    : Mayhem.2017.2160p.BluRay.REMUX.HEVC.DTS-HD.MA.5.1-FGT
Language                                 : English
Default                                  : Yes
Forced                                   : No

Audio #2
ID                                       : 3
Format                                   : DTS
Format/Info                              : Digital Theater Systems
Format profile                           : MA / Core
Codec ID                                 : A_DTS
Duration                                 : 1 h 27 min
Bit rate mode                            : Variable / Constant
Bit rate                                 : 1 569 kb/s / 1 509 kb/s
Channel(s)                               : 2 channels
Channel positions                        : Front: L R
Sampling rate                            : 48.0 kHz
Frame rate                               : 93.750 FPS (512 SPF)
Bit depth                                : 16 bits
Compression mode                         : Lossless / Lossy
Stream size                              : 982 MiB (2%)
Title                                    : Mayhem.2017.2160p.BluRay.REMUX.HEVC.DTS-HD.MA.5.1-FGT
Language                                 : English
Default                                  : No
Forced                                   : No

Text #1
ID                                       : 4
Format                                   : PGS
Muxing mode                              : zlib
Codec ID                                 : S_HDMV/PGS
Codec ID/Info                            : Picture based subtitle format used on BDs/HD-DVDs
Duration                                 : 1 h 26 min
Bit rate                                 : 58.2 kb/s
Count of elements                        : 3609
Stream size                              : 36.1 MiB (0%)
Title                                    : English-PGS
Language                                 : English
Default                                  : Yes
Forced                                   : No

Text #2
ID                                       : 5
Format                                   : PGS
Muxing mode                              : zlib
Codec ID                                 : S_HDMV/PGS
Codec ID/Info                            : Picture based subtitle format used on BDs/HD-DVDs
Duration                                 : 1 h 22 min
Bit rate                                 : 49.0 kb/s
Count of elements                        : 2537
Stream size                              : 29.0 MiB (0%)
Title                                    : Spanish-PGS
Language                                 : Spanish
Default                                  : No
Forced                                   : No

Text #3
ID                                       : 6
Format                                   : PGS
Muxing mode                              : zlib
Codec ID                                 : S_HDMV/PGS
Codec ID/Info                            : Picture based subtitle format used on BDs/HD-DVDs
Duration                                 : 1 h 22 min
Bit rate                                 : 55.6 kb/s
Count of elements                        : 2619
Stream size                              : 32.9 MiB (0%)
Title                                    : French-PGS
Language                                 : French
Default                                  : No
Forced                                   : No

Menu
00:00:00.000                             : en:Chapter 1
00:10:06.188                             : en:Chapter 2
00:19:52.566                             : en:Chapter 3
00:34:24.896                             : en:Chapter 4
00:39:10.222                             : en:Chapter 5
00:56:05.278                             : en:Chapter 6
01:04:28.572                             : en:Chapter 7
01:13:04.838                             : en:Chapter 8
01:18:07.974                             : en:Chapter 9
01:23:36.428                             : en:Chapter 10
DISC INFO:

Disc Title:     Mayhem.2017.2160p.BluRay.HEVC.DTS-HD.MA.5.1-TERMiNAL
Disc Size:      54,326,316,130 bytes
Protection:     AACS2
BD-Java:        Yes
Extras:         Ultra HD
BDInfo:         0.5.8.7 (compatible layout created by DVDFab 10.0.7.9)

PLAYLIST REPORT:

Name:                   00020.MPLS  
Length:                 1:27:32.789 (h:m:s.ms)
Size:                   50,700,120,831 bytes
Total Bitrate:          77.22 Mbps

VIDEO:

Codec                   Bitrate             Description     
-----                   -------             -----------     
MPEG-H HEVC Video       69638 kbps          2160p / 23.976 fps / 16:9 / Main 10 Profile 5.1 High / SDR / BT.709 /

AUDIO:

Codec                           Language        Bitrate         Description     
-----                           --------        -------         -----------     
DTS-HD Master Audio             English         2031 kbps       5.1 / 48 kHz / 2031 kbps / 24-bit (DTS Core: 5.1 / 48 kHz / 1509 kbps / 24-bit)
DTS-HD Master Audio             English         1569 kbps       2.0 / 48 kHz / 1569 kbps / 16-bit (DTS Core: 2.0 / 48 kHz / 1509 kbps / 16-bit)

SUBTITLES:

Codec                           Language        Bitrate         Description     
-----                           --------        -------         -----------     
Presentation Graphics           English         57.685 kbps                     
Presentation Graphics           Spanish         46.322 kbps                     
Presentation Graphics           French          52.608 kbps

大骚乱4K Mayhem.2017.2160p.BluRay.HEVC.DTS-HD.MA.5.1 4K  UHD蓝光原盘电影下载


大骚乱4K Mayhem.2017.2160p.BluRay.HEVC.DTS-HD.MA.5.1-TERMiNAL  (4K UHD 蓝光蓝光破解版 2160p 50.60GB )
游客,如果您要查看本帖隐藏内容请回复


大骚乱4KMayhem.2017.2160p.BluRay.REMUX.HEVC.DTS-HD.MA.5.1-FGT  (4K UHD 蓝光蓝光破解版 2160p 44.81GB )
游客,如果您要查看本帖隐藏内容请回复


大骚乱Mayhem.2017.2160p.BluRay.x264.8bit.SDR.DTS-HD.MA.5.1-SWTYBLZ (4K UHD 蓝光蓝光破解版 2160p 18.21GB )
游客,如果您要查看本帖隐藏内容请回复


大骚乱4K Mayhem.2017.2160p.BluRay.x265.10bit.SDR.DTS-HD.MA.5.1-WhiteRhino  (4K UHD 蓝光蓝光破解版 2160p 17.86GB )
游客,如果您要查看本帖隐藏内容请回复
霸道小男人ゞ 发表于 2018-2-7 16:51 | 显示全部楼层
果断回帖!!!
一个老兵 发表于 2018-2-7 16:53 | 显示全部楼层
新片喜欢,值得收藏,谢谢楼主
paul1792278 发表于 2018-2-7 18:02 | 显示全部楼层
感谢hao4k这个网站提供这么多4K视频资源,太棒了!
finaliver 发表于 2018-2-7 18:15 | 显示全部楼层
感谢楼主分享!
cfjcfjcfj 发表于 2018-2-7 18:17 | 显示全部楼层
看標題好像很好看耶
不下載不行啦
感恩收下先囉
ninjabae 发表于 2018-2-7 18:20 | 显示全部楼层
thanks for sharing
13764218087 发表于 2018-2-7 18:22 | 显示全部楼层
支持hao4k发展,支持楼主在Hao4k发布4K视频资源。
mcy 发表于 2018-2-7 18:27 | 显示全部楼层
真是太好了
javacafe 发表于 2018-2-7 18:44 | 显示全部楼层
感谢楼主分享!
ruanxihai 发表于 2018-2-7 20:16 | 显示全部楼层
珍惜生命、珍惜hao4k网站,果断回帖。
shyjyok 发表于 2018-2-7 20:25 | 显示全部楼层
支持hao4k发展,支持楼主在Hao4k发布4K视频资源。
linxi1711 发表于 2018-2-7 20:27 | 显示全部楼层
可以下载吗
tronx 发表于 2018-2-7 20:29 | 显示全部楼层
感谢hao4k这个网站提供这么多4K视频资源,太棒了!
lhc0227 发表于 2018-2-7 22:26 | 显示全部楼层
感谢hao4k这个网站提供这么多4K视频资源,太棒了!
new0055 发表于 2018-2-7 23:59 | 显示全部楼层
谢谢楼主分享
ja97329 发表于 2018-2-8 00:42 | 显示全部楼层
谢谢分享!!!!!
zuanjiebaoshi 发表于 2018-2-8 01:40 | 显示全部楼层
感谢hao4k这个网站提供这么多4K视频资源,太棒了!
您需要登录后才可以回帖 登录 | 立即注册

本版积分规则

返回顶部 联系我们