662

主题

830

帖子

2209

K币

Rank: 9Rank: 9Rank: 9

威望
995
积分
21680
发表于 2018-2-7 16:58:48 | 显示全部楼层 |阅读模式

片  名:母女大战4k [下载地址在帖子底部]

  • 年  代:2017  
  • 国  家:美国
  • 类  别:喜剧 
  • 字  幕:英文原版
  • 上映日期:2017-05-12
  • 文件格式:mkv   
  • 视频效果:4K(3840x2160)    
  • 文件大小:31.36GB
  • 片  长:90分钟
  • 导  演:乔纳森·莱文
  • 豆瓣链接:https://movie.douban.com/subject/26647125/
  • 主  演:艾米·舒默 / 歌蒂·韩 / 伊克·巴里霍尔兹 / 瑞雯·古德温 / 兰道尔·朴 / 婉妲·塞克丝 / 琼·库萨克 / 奥斯卡·贾恩那达 / 克里斯托弗·米洛尼 / 吉姆·卡拉梅尔勒 / 凯迪·迪波德 / 丹尼尔·贝斯 / 汤姆·巴特曼 / 卡洛斯·迪亚兹 / 阿图罗·卡斯特罗 / 汤姆·蔡

剧情简介

母女两人于夏威夷度假冒险,期间矛盾频发,更可怕的是她们遭遇了一系列飞来横祸。

抢救千金(台) / 带着老母去旅行(港)/ 母女大战4k Snatched.2017.2160p.BluRay.HEVC.DTS-HD.MA.7.1

抢救千金(台) / 带着老母去旅行(港)/ 母女大战4k Snatched.2017.2160p.BluRay.HEVC.DTS-HD.MA.7.1


抢救千金(台) / 带着老母去旅行(港)/ 母女大战4k Snatched.2017.2160p.BluRay.HEVC.DTS-HD.MA.7.1 4K  UHD蓝光原盘电影信息


第二百七十二部 4K UHD 蓝光原盘破解版,含完整的 BDMV 文件夹以及数据,AACS 2.0 协议已被完整破解
DISC INFO:

Disc Title:     Snatched.2017.2160p.BluRay.HEVC.DTS-HD.MA.7.1-COASTER
Disc Size:      33,658,963,795 bytes
Protection:     AACS2
BD-Java:        Yes
Extras:         Ultra HD
BDInfo:         0.5.8.7 (compatible layout created by DVDFab 10.0.7.9)

PLAYLIST REPORT:

Name:                   00800.MPLS  
Length:                 1:30:30.967 (h:m:s.ms)
Size:                   32,407,805,952 bytes
Total Bitrate:          47.74 Mbps

VIDEO:

Codec                   Bitrate             Description     
-----                   -------             -----------     
MPEG-H HEVC Video       34985 kbps          2160p / 23.976 fps / 16:9 / Main 10 Profile 5.1 High / 4:2:0 / 10 bits / HDR / BT.2020 /

AUDIO:

Codec                           Language        Bitrate         Description     
-----                           --------        -------         -----------     
DTS-HD Master Audio             English         4780 kbps       7.1 / 48 kHz / 4780 kbps / 24-bit (DTS Core: 5.1-ES / 48 kHz / 1509 kbps / 24-bit)
Dolby Digital Audio             English         448 kbps        5.1 / 48 kHz / 448 kbps
Dolby Digital Audio             Spanish         448 kbps        5.1 / 48 kHz / 448 kbps
DTS Audio                       French          768 kbps        5.1 / 48 kHz / 768 kbps / 24-bit
DTS Audio                       Spanish         768 kbps        5.1 / 48 kHz / 768 kbps / 24-bit
DTS Audio                       German          768 kbps        5.1 / 48 kHz / 768 kbps / 24-bit
DTS Audio                       Italian         768 kbps        5.1 / 48 kHz / 768 kbps / 24-bit
Dolby Digital Audio             English         224 kbps        2.0 / 48 kHz / 224 kbps

SUBTITLES:

Codec                           Language        Bitrate         Description     
-----                           --------        -------         -----------     
Presentation Graphics           English         57.741 kbps                     
Presentation Graphics           Spanish         44.209 kbps                     
Presentation Graphics           French          40.74 kbps                     
Presentation Graphics           Spanish         43.878 kbps                     
Presentation Graphics           Danish          40.373 kbps                     
Presentation Graphics           Dutch           35.975 kbps                     
Presentation Graphics           Finnish         38.62 kbps                     
Presentation Graphics           German          43.808 kbps                     
Presentation Graphics           Italian         45.31 kbps                     
Presentation Graphics           Norwegian       41.343 kbps                     
Presentation Graphics           Swedish         41.186 kbps                     
Presentation Graphics           Chinese         34.425 kbps                     
Presentation Graphics           Chinese         32.654 kbps                     
Presentation Graphics           English         62.611 kbps                     
Presentation Graphics           Spanish         58.032 kbps                     
Presentation Graphics           French          51.7 kbps                       
Presentation Graphics           Spanish         53.108 kbps                     
Presentation Graphics           Danish          54.136 kbps                     
Presentation Graphics           Dutch           52.308 kbps                     
Presentation Graphics           Finnish         48.65 kbps                     
Presentation Graphics           German          56.344 kbps                     
Presentation Graphics           Italian         53.181 kbps                     
Presentation Graphics           Norwegian       50.579 kbps                     
Presentation Graphics           Swedish         56.609 kbps   

REMUX
Video
ID                                       : 1
Format                                   : AVC
Format/Info                              : Advanced Video Codec
Format profile                           : High@L5.1
Format settings                          : CABAC / 5 Ref Frames
Format settings, CABAC                   : Yes
Format settings, RefFrames               : 5 frames
Codec ID                                 : V_MPEG4/ISO/AVC
Duration                                 : 1 h 30 min
Bit rate                                 : 42.0 Mb/s
Width                                    : 3 840 pixels
Height                                   : 1 600 pixels
Display aspect ratio                     : 2.40:1
Frame rate mode                          : Constant
Frame rate                               : 23.976 (24000/1001) FPS
Color space                              : YUV
Chroma subsampling                       : 4:2:0
Bit depth                                : 8 bits
Scan type                                : Progressive
Bits/(Pixel*Frame)                       : 0.285
Stream size                              : 26.6 GiB (88%)
Title                                    : Snatched.2017.2160p.BluRay.x264.8bit.SDR.DTS-HD.MA.7.1-SWTYBLZ
Writing library                          : x264 core 148 r2748 97eaef2
Encoding settings                        : cabac=1 / ref=5 / deblock=1:-1:-1 / analyse=0x3:0x113 / me=umh / subme=10 / psy=1 / psy_rd=1.00:0.15 / mixed_ref=1 / me_range=48 / chroma_me=1 / trellis=2 / 8x8dct=1 / cqm=0 / deadzone=21,11 / fast_pskip=1 / chroma_qp_offset=-3 / threads=50 / lookahead_threads=4 / sliced_threads=0 / nr=0 / decimate=0 / interlaced=0 / bluray_compat=0 / constrained_intra=0 / bframes=3 / b_pyramid=2 / b_adapt=2 / b_bias=0 / direct=3 / weightb=1 / open_gop=0 / weightp=2 / keyint=250 / keyint_min=23 / scenecut=40 / intra_refresh=0 / rc_lookahead=50 / rc=crf / mbtree=1 / crf=18.0 / qcomp=0.60 / qpmin=0 / qpmax=69 / qpstep=4 / ip_ratio=1.40 / aq=1:1.00
Language                                 : English
Default                                  : Yes
Forced                                   : No

Audio #1
ID                                       : 2
Format                                   : DTS
Format/Info                              : Digital Theater Systems
Format profile                           : MA / ES Matrix / Core
Codec ID                                 : A_DTS
Duration                                 : 1 h 30 min
Bit rate mode                            : Variable / Constant / Constant
Bit rate                                 : 4 780 kb/s / 1 509 kb/s / 1 509 kb/s
Channel(s)                               : 8 channels / 7 channels / 6 channels
Channel positions                        : Front: L C R, Side: L R, Back: L R, LFE / Front: L C R, Side: L R, Back: C, LFE / Front: L C R, Side: L R, LFE
Sampling rate                            : 48.0 kHz
Frame rate                               : 93.750 FPS (512 SPF)
Bit depth                                : 24 bits
Compression mode                         : Lossless / Lossy / Lossy
Stream size                              : 3.02 GiB (10%)
Title                                    : Snatched.2017.2160p.BluRay.x264.8bit.SDR.DTS-HD.MA.7.1-SWTYBLZ
Language                                 : English
Default                                  : Yes
Forced                                   : No

Audio #2
ID                                       : 3
Format                                   : AC-3
Format/Info                              : Audio Coding 3
Codec ID                                 : A_AC3
Duration                                 : 1 h 30 min
Bit rate mode                            : Constant
Bit rate                                 : 640 kb/s
Channel(s)                               : 6 channels
Channel positions                        : Front: L C R, Side: L R, LFE
Sampling rate                            : 48.0 kHz
Frame rate                               : 31.250 FPS (1536 SPF)
Bit depth                                : 16 bits
Compression mode                         : Lossy
Stream size                              : 414 MiB (1%)
Title                                    : Snatched.2017.2160p.BluRay.x264.8bit.SDR.DTS-HD.MA.7.1-SWTYBLZ
Language                                 : English
Service kind                             : Complete Main
Default                                  : No
Forced                                   : No

Text #1
ID                                       : 4
Format                                   : UTF-8
Codec ID                                 : S_TEXT/UTF8
Codec ID/Info                            : UTF-8 Plain Text
Duration                                 : 1 h 24 min
Bit rate                                 : 79 b/s
Count of elements                        : 1846
Stream size                              : 48.8 KiB (0%)
Title                                    : English-SRT
Language                                 : English
Default                                  : Yes
Forced                                   : No

Text #2
ID                                       : 5
Format                                   : PGS
Muxing mode                              : zlib
Codec ID                                 : S_HDMV/PGS
Codec ID/Info                            : Picture based subtitle format used on BDs/HD-DVDs
Duration                                 : 1 h 24 min
Bit rate                                 : 61.7 kb/s
Count of elements                        : 4188
Stream size                              : 37.4 MiB (0%)
Title                                    : English-PGS
Language                                 : English
Default                                  : No
Forced                                   : No

Text #3
ID                                       : 6
Format                                   : PGS
Muxing mode                              : zlib
Codec ID                                 : S_HDMV/PGS
Codec ID/Info                            : Picture based subtitle format used on BDs/HD-DVDs
Duration                                 : 1 h 29 min
Bit rate                                 : 44.7 kb/s
Count of elements                        : 3408
Stream size                              : 28.6 MiB (0%)
Title                                    : Spanish-PGS
Language                                 : Spanish
Default                                  : No
Forced                                   : No

Text #4
ID                                       : 7
Format                                   : PGS
Muxing mode                              : zlib
Codec ID                                 : S_HDMV/PGS
Codec ID/Info                            : Picture based subtitle format used on BDs/HD-DVDs
Duration                                 : 1 h 29 min
Bit rate                                 : 41.2 kb/s
Count of elements                        : 3410
Stream size                              : 26.4 MiB (0%)
Title                                    : French-PGS
Language                                 : French
Default                                  : No
Forced                                   : No

Text #5
ID                                       : 8
Format                                   : PGS
Muxing mode                              : zlib
Codec ID                                 : S_HDMV/PGS
Codec ID/Info                            : Picture based subtitle format used on BDs/HD-DVDs
Duration                                 : 1 h 29 min
Bit rate                                 : 44.4 kb/s
Count of elements                        : 3418
Stream size                              : 28.4 MiB (0%)
Title                                    : Spanish-PGS
Language                                 : Spanish
Default                                  : No
Forced                                   : No

Text #6
ID                                       : 9
Format                                   : PGS
Muxing mode                              : zlib
Codec ID                                 : S_HDMV/PGS
Codec ID/Info                            : Picture based subtitle format used on BDs/HD-DVDs
Duration                                 : 1 h 29 min
Bit rate                                 : 40.8 kb/s
Count of elements                        : 2156
Stream size                              : 26.1 MiB (0%)
Title                                    : Danish-PGS
Language                                 : Danish
Default                                  : No
Forced                                   : No

Text #7
ID                                       : 10
Format                                   : PGS
Muxing mode                              : zlib
Codec ID                                 : S_HDMV/PGS
Codec ID/Info                            : Picture based subtitle format used on BDs/HD-DVDs
Duration                                 : 1 h 29 min
Bit rate                                 : 36.4 kb/s
Count of elements                        : 2430
Stream size                              : 23.3 MiB (0%)
Title                                    : Dutch-PGS
Language                                 : Dutch
Default                                  : No
Forced                                   : No

Text #8
ID                                       : 11
Format                                   : PGS
Muxing mode                              : zlib
Codec ID                                 : S_HDMV/PGS
Codec ID/Info                            : Picture based subtitle format used on BDs/HD-DVDs
Duration                                 : 1 h 29 min
Bit rate                                 : 39.0 kb/s
Count of elements                        : 2934
Stream size                              : 25.0 MiB (0%)
Title                                    : Finnish-PGS
Language                                 : Finnish
Default                                  : No
Forced                                   : No

Text #9
ID                                       : 12
Format                                   : PGS
Muxing mode                              : zlib
Codec ID                                 : S_HDMV/PGS
Codec ID/Info                            : Picture based subtitle format used on BDs/HD-DVDs
Duration                                 : 1 h 29 min
Bit rate                                 : 44.3 kb/s
Count of elements                        : 3206
Stream size                              : 28.4 MiB (0%)
Title                                    : German-PGS
Language                                 : German
Default                                  : No
Forced                                   : No

Text #10
ID                                       : 13
Format                                   : PGS
Muxing mode                              : zlib
Codec ID                                 : S_HDMV/PGS
Codec ID/Info                            : Picture based subtitle format used on BDs/HD-DVDs
Duration                                 : 1 h 29 min
Bit rate                                 : 45.8 kb/s
Count of elements                        : 3420
Stream size                              : 29.3 MiB (0%)
Title                                    : Italian-PGS
Language                                 : Italian
Default                                  : No
Forced                                   : No

Text #11
ID                                       : 14
Format                                   : PGS
Muxing mode                              : zlib
Codec ID                                 : S_HDMV/PGS
Codec ID/Info                            : Picture based subtitle format used on BDs/HD-DVDs
Duration                                 : 1 h 29 min
Bit rate                                 : 41.8 kb/s
Count of elements                        : 3408
Stream size                              : 26.8 MiB (0%)
Title                                    : Norwegian-PGS
Language                                 : Norwegian
Default                                  : No
Forced                                   : No

Text #12
ID                                       : 15
Format                                   : PGS
Muxing mode                              : zlib
Codec ID                                 : S_HDMV/PGS
Codec ID/Info                            : Picture based subtitle format used on BDs/HD-DVDs
Duration                                 : 1 h 29 min
Bit rate                                 : 41.6 kb/s
Count of elements                        : 3416
Stream size                              : 26.7 MiB (0%)
Title                                    : Swedish-PGS
Language                                 : Swedish
Default                                  : No
Forced                                   : No

Text #13
ID                                       : 16
Format                                   : PGS
Muxing mode                              : zlib
Codec ID                                 : S_HDMV/PGS
Codec ID/Info                            : Picture based subtitle format used on BDs/HD-DVDs
Duration                                 : 1 h 29 min
Bit rate                                 : 34.8 kb/s
Count of elements                        : 3442
Stream size                              : 22.3 MiB (0%)
Title                                    : Chinese-PGS
Language                                 : Chinese
Default                                  : No
Forced                                   : No

Text #14
ID                                       : 17
Format                                   : PGS
Muxing mode                              : zlib
Codec ID                                 : S_HDMV/PGS
Codec ID/Info                            : Picture based subtitle format used on BDs/HD-DVDs
Duration                                 : 1 h 29 min
Bit rate                                 : 33.0 kb/s
Count of elements                        : 3422
Stream size                              : 21.1 MiB (0%)
Title                                    : Chinese-PGS
Language                                 : Chinese
Default                                  : No
Forced                                   : No

Menu
00:00:00.000                             : en:Chapter 1
00:03:27.832                             : en:Chapter 2
00:05:44.218                             : en:Chapter 3
00:08:34.096                             : en:Chapter 4
00:12:26.120                             : en:Chapter 5
00:16:27.403                             : en:Chapter 6
00:21:22.281                             : en:Chapter 7
00:25:15.597                             : en:Chapter 8
00:29:30.810                             : en:Chapter 9
00:33:22.333                             : en:Chapter 10
00:38:31.142                             : en:Chapter 11
00:42:01.185                             : en:Chapter 12
00:46:11.977                             : en:Chapter 13
00:49:14.201                             : en:Chapter 14
00:53:37.797                             : en:Chapter 15
00:56:13.036                             : en:Chapter 16
00:58:52.904                             : en:Chapter 17
01:00:59.697                             : en:Chapter 18
01:03:53.996                             : en:Chapter 19
01:06:53.342                             : en:Chapter 20
01:14:02.104                             : en:Chapter 21
01:17:14.838                             : en:Chapter 22
01:19:43.612                             : en:Chapter 23
01:22:43.833                             : en:Chapter 24


抢救千金(台) / 带着老母去旅行(港)/ 母女大战4k Snatched.2017.2160p.BluRay.HEVC.DTS-HD.MA.7.1 4K  UHD蓝光原盘电影下载

母女大战4k Snatched.2017.2160p.BluRay.HEVC.DTS-HD.MA.7.1-COASTER (4K UHD 蓝光蓝光破解版 2160p 31.36GB )
游客,如果您要查看本帖隐藏内容请回复


母女大战4k Snatched.2017.2160p.BluRay.REMUX.HEVC.DTS-HD.MA.7.1-FGT (4K UHD 蓝光蓝光破解版 2160p 28.03GB )
游客,如果您要查看本帖隐藏内容请回复


母女大战4k Snatched.2017.2160p.BluRay.x264.8bit.SDR.DTS-HD.MA.7.1-SWTYBLZ (4K UHD 蓝光蓝光破解版 2160p 30.32GB )
游客,如果您要查看本帖隐藏内容请回复


母女大战4k Snatched.2017.2160p.BluRay.x265.10bit.HDR.DTS-HD.MA.7.1-IAMABLE(4K UHD 蓝光蓝光破解版 2160p 15.99GB )
游客,如果您要查看本帖隐藏内容请回复


母女大战4k Snatched.2017.2160p.BluRay.x265.10bit.SDR.DTS-HD.MA.7.1-SWTYBLZ (4K UHD 蓝光蓝光破解版 2160p 26.86GB )
游客,如果您要查看本帖隐藏内容请回复

0

主题

13

帖子

0

K币

Rank: 1

威望
0
积分
15
发表于 2018-2-7 17:16:51 | 显示全部楼层
么有分,谁能送我点 K币啊::>_<::

0

主题

52

帖子

500

K币

Rank: 1

签到达人

威望
1
积分
264
发表于 2018-2-7 17:51:06 | 显示全部楼层
应该是勇敢的女人,看封面还是值得看看,谢谢楼主

1

主题

259

帖子

102

K币

Rank: 2

威望
0
积分
435
发表于 2018-2-7 18:04:01 | 显示全部楼层
感谢hao4k这个网站提供这么多4K视频资源,太棒了!

0

主题

94

帖子

12

K币

Rank: 8Rank: 8

威望
0
积分
141
发表于 2018-2-7 18:15:00 | 显示全部楼层
搶救千金耶
這一片好像沒有看過
下載來試試看
感恩收下

0

主题

234

帖子

2

K币

Rank: 8Rank: 8

威望
0
积分
300
发表于 2018-2-7 18:25:02 | 显示全部楼层
真是太好了

0

主题

158

帖子

11

K币

Rank: 8Rank: 8

威望
0
积分
277
发表于 2018-2-7 18:32:31 | 显示全部楼层
看图片画质应该不错

0

主题

1

帖子

12

K币

Rank: 1

威望
0
积分
34
发表于 2018-2-7 20:57:14 | 显示全部楼层
感谢发片,支持!!!

0

主题

73

帖子

19

K币

Rank: 8Rank: 8

威望
0
积分
127
发表于 2018-2-7 21:19:18 | 显示全部楼层
支持hao4k发展,支持楼主在Hao4k发布4K视频资源。

0

主题

43

帖子

24

K币

Rank: 1

威望
0
积分
120
发表于 2018-2-7 22:33:21 | 显示全部楼层
谢谢,论坛。收藏了。
您需要登录后才可以回帖 登录 | 立即注册

本版积分规则

返回顶部 联系我们