658

主题

824

帖子

2203

K币

Rank: 9Rank: 9Rank: 9

威望
995
积分
21656
发表于 2018-2-9 10:21:29 | 显示全部楼层 |阅读模式

片  名:没有极限4k [下载地址在帖子底部]

  • 年  代:2015  
  • 国  家:德国
  • 类  别:纪录片 
  • 字  幕:英文原版
  • 上映日期:2015
  • 文件格式:mkv   
  • 视频效果:4K(3840x2160)    
  • 文件大小:42.10GB
  • 片  长:60分钟
  • 导  演:Tim Hahne
  • 豆瓣链接:https://movie.douban.com/subject/26744660/
  • 主  演:Alex Zanardi / Olaf Bulgrin / Timo Glock / Jens Marquardt / Bruno Spengler

剧情简介

His new adventure takes Zanardi to one of the most famous endurance races in the world: The 24 Hours of Spa-Francorchamps. He shares the cockpit of the BMW GT race car with two of the fastest men in the sport: Ex-Formula 1 driver Timo Glock and touring-car champ Bruno Spengler. They form nothing less than an all-star team of race-track pioneers, going beyond limits and limitations. Never before has a handicapped driver competed in a 24 hour race on this level with able-bodied drivers. The documentary covers the whole story: From their first get-together at BMW headquarters in Munich until the lights turn green in Belgium and the Iron Man with plastic legs limps into his racing car, changing seat and steering wheel with his teammate. But for Alex Zanardi, even after the marathon race, his mission is not over. Only four days later, he is eager to defend his white jersey at the Handcycle World Championship in Switzerland - an outrageous challenge, even for the man with no limits.

没有极限4k No.Limits.2015.DOCU.2160p.BluRay.REMUX.HEVC.DTS-HD.MA.5.1 4K版下载[第二百七十四部破解4K U ...

没有极限4k No.Limits.2015.DOCU.2160p.BluRay.REMUX.HEVC.DTS-HD.MA.5.1 4K版下载[第二百七十四部破解4K U ...


没有极限4k No.Limits.2015.DOCU.2160p.BluRay.REMUX.HEVC.DTS-HD.MA.5.1 4K  UHD蓝光原盘电影信息

第二百七十四部 4K UHD 蓝光原盘破解版,含完整的 BDMV 文件夹以及数据,AACS 2.0 协议已被完整破解
DISC INFO:

Disc Title:     No.Limits.2015.DOCU.2160p.BluRay.HEVC.DTS-HD.MA.5.1-SharpHD
Disc Size:      45,202,959,934 bytes
Protection:     AACS2
BD-Java:        No
Extras:         Ultra HD
BDInfo:         0.5.8.7 (compatible layout created by DVDFab 10.0.7.9)

PLAYLIST REPORT:

Name:                   00006.MPLS  
Length:                 1:02:29.958 (h:m:s.ms)
Size:                   31,421,792,256 bytes
Total Bitrate:          67.03 Mbps

VIDEO:

Codec                   Bitrate             Description     
-----                   -------             -----------     
MPEG-H HEVC Video       59851 kbps          2160p / 24 fps / 16:9 / Main 10 Profile 5.1 High / 4:2:0 / 10 bits / SDR / BT.709 /

AUDIO:

Codec                           Language        Bitrate         Description     
-----                           --------        -------         -----------     
DTS-HD Master Audio             English         2021 kbps       5.1 / 48 kHz / 2021 kbps / 16-bit (DTS Core: 5.1 / 48 kHz / 1509 kbps / 16-bit)
DTS-HD Master Audio             English         1741 kbps       2.0 / 48 kHz / 1741 kbps / 24-bit (DTS Core: 2.0 / 48 kHz / 896 kbps / 24-bit)

SUBTITLES:

Codec                           Language        Bitrate         Description     
-----                           --------        -------         -----------     
Presentation Graphics           German          24.498 kbps                     
Presentation Graphics           English         13.18 kbps
REMUX
Video
ID                                       : 1
Format                                   : HEVC
Format/Info                              : High Efficiency Video Coding
Format profile                           : Main 10@L5.1@High
Codec ID                                 : V_MPEGH/ISO/HEVC
Duration                                 : 1 h 2 min
Bit rate                                 : 59.8 Mb/s
Width                                    : 3 840 pixels
Height                                   : 2 160 pixels
Display aspect ratio                     : 16:9
Frame rate mode                          : Constant
Frame rate                               : 24.000 FPS
Standard                                 : Component
Color space                              : YUV
Chroma subsampling                       : 4:2:0
Bit depth                                : 10 bits
Bits/(Pixel*Frame)                       : 0.301
Stream size                              : 26.1 GiB (94%)
Title                                    : No.Limits.2015.DOCU.2160p.BluRay.REMUX.HEVC.DTS-HD.MA.5.1-FGT
Default                                  : Yes
Forced                                   : No
Color range                              : Limited
Color primaries                          : BT.709
Transfer characteristics                 : BT.709
Matrix coefficients                      : BT.709

Audio #1
ID                                       : 2
Format                                   : DTS
Format/Info                              : Digital Theater Systems
Format profile                           : MA / Core
Codec ID                                 : A_DTS
Duration                                 : 1 h 2 min
Bit rate mode                            : Variable / Constant
Bit rate                                 : 2 048 kb/s / 1 509 kb/s
Channel(s)                               : 6 channels
Channel positions                        : Front: L C R, Side: L R, LFE
Sampling rate                            : 48.0 kHz
Frame rate                               : 93.750 FPS (512 SPF)
Bit depth                                : 16 bits
Compression mode                         : Lossless / Lossy
Stream size                              : 904 MiB (3%)
Title                                    : No.Limits.2015.DOCU.2160p.BluRay.REMUX.HEVC.DTS-HD.MA.5.1-FGT
Language                                 : English
Default                                  : Yes
Forced                                   : No

Audio #2
ID                                       : 3
Format                                   : DTS
Format/Info                              : Digital Theater Systems
Format profile                           : MA / Core
Codec ID                                 : A_DTS
Duration                                 : 1 h 2 min
Bit rate mode                            : Variable / Constant
Bit rate                                 : 1 741 kb/s / 960 kb/s
Channel(s)                               : 2 channels
Channel positions                        : Front: L R
Sampling rate                            : 48.0 kHz
Frame rate                               : 93.750 FPS (512 SPF)
Bit depth                                : 24 bits
Compression mode                         : Lossless / Lossy
Stream size                              : 778 MiB (3%)
Title                                    : No.Limits.2015.DOCU.2160p.BluRay.REMUX.HEVC.DTS-HD.MA.5.1-FGT
Language                                 : English
Default                                  : No
Forced                                   : No

Text #1
ID                                       : 4
Format                                   : PGS
Muxing mode                              : zlib
Codec ID                                 : S_HDMV/PGS
Codec ID/Info                            : Picture based subtitle format used on BDs/HD-DVDs
Duration                                 : 56 min 2 s
Bit rate                                 : 14.7 kb/s
Count of elements                        : 348
Stream size                              : 5.89 MiB (0%)
Title                                    : English-PGS
Language                                 : English
Default                                  : Yes
Forced                                   : No

Text #2
ID                                       : 5
Format                                   : PGS
Muxing mode                              : zlib
Codec ID                                 : S_HDMV/PGS
Codec ID/Info                            : Picture based subtitle format used on BDs/HD-DVDs
Duration                                 : 1 h 1 min
Bit rate                                 : 24.9 kb/s
Count of elements                        : 592
Stream size                              : 11.0 MiB (0%)
Title                                    : German-PGS
Language                                 : German
Default                                  : No
Forced                                   : No

Menu
00:00:00.000                             : en:Chapter 1
00:02:26.875                             : en:Chapter 2
00:06:57.333                             : en:Chapter 3
00:15:25.833                             : en:Chapter 4
00:21:04.583                             : en:Chapter 5
00:26:29.708                             : en:Chapter 6
00:27:45.375                             : en:Chapter 7
00:29:30.291                             : en:Chapter 8
00:31:42.500                             : en:Chapter 9
00:33:49.541                             : en:Chapter 10
00:36:27.041                             : en:Chapter 11
00:38:56.833                             : en:Chapter 12
00:41:10.458                             : en:Chapter 13
00:45:46.541                             : en:Chapter 14
00:58:12.916                             : en:Chapter 15
01:01:36.458                             : en:Chapter 16

没有极限4k No.Limits.2015.DOCU.2160p.BluRay.REMUX.HEVC.DTS-HD.MA.5.1 4K  UHD蓝光原盘电影下载

没有极限4k No.Limits.2015.DOCU.2160p.BluRay.HEVC.DTS-HD.MA.5.1-SharpHD (4K UHD 蓝光蓝光破解版 2160p 42.10GB )
游客,如果您要查看本帖隐藏内容请回复

没有极限4k No.Limits.2015.DOCU.2160p.BluRay.REMUX.HEVC.DTS-HD.MA.5.1-FGT (4K UHD 蓝光蓝光破解版 2160p 27.28GB )
游客,如果您要查看本帖隐藏内容请回复

0

主题

20

帖子

0

K币

Rank: 1

威望
0
积分
24
发表于 2018-2-9 10:28:37 | 显示全部楼层
求沙发

0

主题

54

帖子

24

K币

Rank: 1

威望
0
积分
83
发表于 2018-2-9 11:02:50 | 显示全部楼层
看不懂鸟语,就不知道介绍的什么

0

主题

11

帖子

4

K币

Rank: 1

威望
0
积分
26
发表于 2018-2-9 11:03:04 | 显示全部楼层
感谢楼主的无私分享。

0

主题

11

帖子

4

K币

Rank: 1

威望
0
积分
26
发表于 2018-2-9 11:50:18 | 显示全部楼层
没有资源,迅雷和比特精灵都下载不了。

0

主题

27

帖子

0

K币

Rank: 1

威望
0
积分
79
发表于 2018-2-9 12:01:55 | 显示全部楼层
谢谢楼主,喜欢纪录片。

0

主题

284

帖子

35

K币

Rank: 2

威望
0
积分
381
发表于 2018-2-9 12:58:17 | 显示全部楼层
支持hao4k发展,支持楼主在Hao4k发布4K视频资源。

1

主题

94

帖子

83

K币

Rank: 1

威望
0
积分
167
发表于 2018-2-9 13:43:49 | 显示全部楼层
回的人少,我来小顶一下。支持hao4k发展

0

主题

302

帖子

175

K币

Rank: 2

签到达人

威望
0
积分
355
发表于 2018-2-9 14:07:58 | 显示全部楼层
感谢hao4k这个网站提供这么多4K视频资源,太棒了!

0

主题

38

帖子

0

K币

Rank: 8Rank: 8

威望
0
积分
74
发表于 2018-2-9 14:17:26 | 显示全部楼层
珍惜生命、珍惜hao4k网站,果断回帖。
您需要登录后才可以回帖 登录 | 立即注册

本版积分规则

返回顶部 联系我们