658

主题

824

帖子

2203

K币

Rank: 9Rank: 9Rank: 9

威望
995
积分
21656
发表于 2018-2-10 22:15:21 | 显示全部楼层 |阅读模式

片  名:蝙蝠侠:煤气灯下的哥谭4k [下载地址在帖子底部]

  • 年  代:2018年  
  • 国  家:美国
  • 类  别:动画 
  • 字  幕:英文原版
  • 上映日期:2018-01-23
  • 文件格式:mp4    mkv   
  • 视频效果:4K(3840x2160)    
  • 文件大小:52.36GB
  • 片  长:78分钟
  • 导  演:刘山姆
  • 豆瓣链接:https://movie.douban.com/subject/27090813/
  • 主  演:詹妮弗·卡朋特 / 塔拉·斯特朗 / 布鲁斯·格林伍德 / 斯科特·帕特森 / 格蕾·德丽斯勒 / 卡瑞·伍尔 / 约翰·迪·玛吉欧 / 安东尼·海德 / 尤里·洛文塔尔 / 林肯·梅尔彻 / 布鲁斯·提姆 / 威廉·赛莱耶 / Chris Cox / Bob Joles / David Forseth

剧情简介

  DC动画电影,改编自《煤气灯下的歌谭市》,《蝙蝠侠:煤气灯下的哥谭》是DC“异世界”系列作品,而且是该系列第一部作品,同系列还有“西部蝙蝠侠”。《蝙蝠侠:煤气灯下的哥谭》处于“夏洛克福尔摩斯”的背景,除了设定为19世纪外,仍然是土豪布鲁斯韦恩与管家阿福的配置,蝙蝠侠最大的对手就是令伦敦警局闻风丧胆的“开膛手杰克”。本作与原版漫画一样,设定为19世纪,讲述蝙蝠侠追踪“开膛手杰克”的故事,充满了蒸汽朋克风。
蝙蝠侠:煤气灯下的哥谭4k.jpg

蝙蝠侠:煤气灯下的哥谭4k Batman Gotham by Gaslight 2018 2160p UHD Blu-ray HEVC DTS-HD MA 5.1 4K  UHD蓝光原盘电影信息

第二百七十五部 4K UHD 蓝光原盘破解版,含完整的 BDMV 文件夹以及数据,AACS 2.0 协议已被完整破解


DISC INFO:

Disc Title:     Batman.Gotham.By.Gaslight.2018.2160p.BluRay.HEVC.DTS-HD.MA.5.1-FGT-OMFUG
Disc Size:      55,949,422,673 bytes
Protection:     AACS2
BD-Java:        Yes
Extras:         Ultra HD
BDInfo:         0.5.8.7 (compatible layout created by DVDFab 10.0.7.9)

PLAYLIST REPORT:

Name:                   00800.MPLS  
Length:                 1:17:04.244 (h:m:s.ms)
Size:                   55,278,059,520 bytes
Total Bitrate:          95.63 Mbps

VIDEO:

Codec                   Bitrate             Description     
-----                   -------             -----------     
MPEG-H HEVC Video       87292 kbps          2160p / 23.976 fps / 16:9 / Main 10 Profile 5.1 High / 4:2:0 / 10 bits / HDR / BT.2020 /

AUDIO:

Codec                           Language        Bitrate         Description     
-----                           --------        -------         -----------     
DTS-HD Master Audio             English         2568 kbps       5.1 / 48 kHz / 2568 kbps / 24-bit (DTS Core: 5.1 / 48 kHz / 1509 kbps / 24-bit)
Dolby Digital Audio             French          640 kbps        5.1 / 48 kHz / 640 kbps
Dolby Digital Audio             Spanish         640 kbps        5.1 / 48 kHz / 640 kbps

SUBTITLES:

Codec                           Language        Bitrate         Description     
-----                           --------        -------         -----------     
Presentation Graphics           English         35.04 kbps                     
Presentation Graphics           French          31.955 kbps                     
Presentation Graphics           Spanish         31.628 kbps                     
Presentation Graphics           French          0.903 kbps                     
Presentation Graphics           Spanish         0.948 kbps      

REMUX
Video
ID                                       : 1
Format                                   : HEVC
Format/Info                              : High Efficiency Video Coding
Format profile                           : Main 10@L5.1@High
Codec ID                                 : V_MPEGH/ISO/HEVC
Duration                                 : 1 h 17 min
Bit rate                                 : 87.3 Mb/s
Width                                    : 3 840 pixels
Height                                   : 2 160 pixels
Display aspect ratio                     : 16:9
Frame rate mode                          : Constant
Frame rate                               : 23.976 (24000/1001) FPS
Color space                              : YUV
Chroma subsampling                       : 4:2:0 (Type 2)
Bit depth                                : 10 bits
Bits/(Pixel*Frame)                       : 0.439
Stream size                              : 47.0 GiB (96%)
Title                                    : Batman.Gotham.By.Gaslight.2018.2160p.BluRay.REMUX.HEVC.DTS-HD.MA.5.1-FGT
Writing library                          : ATEME Titan File 3.8.3 (4.8.3.0)        
Default                                  : Yes
Forced                                   : No
Color range                              : Limited
Color primaries                          : BT.2020
Transfer characteristics                 : PQ
Matrix coefficients                      : BT.2020 non-constant
Mastering display color primaries        : Display P3
Mastering display luminance              : min: 0.0050 cd/m2, max: 4000 cd/m2
Maximum Content Light Level              : 1085 cd/m2
Maximum Frame-Average Light Level        : 287 cd/m2

Audio #1
ID                                       : 2
Format                                   : DTS
Format/Info                              : Digital Theater Systems
Format profile                           : MA / Core
Codec ID                                 : A_DTS
Duration                                 : 1 h 17 min
Bit rate mode                            : Variable / Constant
Bit rate                                 : 2 568 kb/s / 1 509 kb/s
Channel(s)                               : 6 channels
Channel positions                        : Front: L C R, Side: L R, LFE
Sampling rate                            : 48.0 kHz
Frame rate                               : 93.750 FPS (512 SPF)
Bit depth                                : 24 bits
Compression mode                         : Lossless / Lossy
Stream size                              : 1.38 GiB (3%)
Title                                    : Batman.Gotham.By.Gaslight.2018.2160p.BluRay.REMUX.HEVC.DTS-HD.MA.5.1-FGT
Language                                 : English
Default                                  : Yes
Forced                                   : No

Audio #2
ID                                       : 3
Format                                   : AC-3
Format/Info                              : Audio Coding 3
Codec ID                                 : A_AC3
Duration                                 : 1 h 17 min
Bit rate mode                            : Constant
Bit rate                                 : 640 kb/s
Channel(s)                               : 6 channels
Channel positions                        : Front: L C R, Side: L R, LFE
Sampling rate                            : 48.0 kHz
Frame rate                               : 31.250 FPS (1536 SPF)
Bit depth                                : 16 bits
Compression mode                         : Lossy
Stream size                              : 353 MiB (1%)
Title                                    : Batman.Gotham.By.Gaslight.2018.2160p.BluRay.REMUX.HEVC.DTS-HD.MA.5.1-FGT
Language                                 : French
Service kind                             : Complete Main
Default                                  : No
Forced                                   : No

Audio #3
ID                                       : 4
Format                                   : AC-3
Format/Info                              : Audio Coding 3
Codec ID                                 : A_AC3
Duration                                 : 1 h 17 min
Bit rate mode                            : Constant
Bit rate                                 : 640 kb/s
Channel(s)                               : 6 channels
Channel positions                        : Front: L C R, Side: L R, LFE
Sampling rate                            : 48.0 kHz
Frame rate                               : 31.250 FPS (1536 SPF)
Bit depth                                : 16 bits
Compression mode                         : Lossy
Stream size                              : 353 MiB (1%)
Title                                    : Batman.Gotham.By.Gaslight.2018.2160p.BluRay.REMUX.HEVC.DTS-HD.MA.5.1-FGT
Language                                 : Spanish
Service kind                             : Complete Main
Default                                  : No
Forced                                   : No

Text #1
ID                                       : 5
Format                                   : PGS
Muxing mode                              : zlib
Codec ID                                 : S_HDMV/PGS
Codec ID/Info                            : Picture based subtitle format used on BDs/HD-DVDs
Duration                                 : 1 h 16 min
Bit rate                                 : 35.1 kb/s
Count of elements                        : 2040
Stream size                              : 19.3 MiB (0%)
Title                                    : English-PGS
Language                                 : English
Default                                  : Yes
Forced                                   : No

Text #2
ID                                       : 6
Format                                   : PGS
Muxing mode                              : zlib
Codec ID                                 : S_HDMV/PGS
Codec ID/Info                            : Picture based subtitle format used on BDs/HD-DVDs
Duration                                 : 1 h 16 min
Bit rate                                 : 32.3 kb/s
Count of elements                        : 1708
Stream size                              : 17.6 MiB (0%)
Title                                    : French-PGS
Language                                 : French
Default                                  : No
Forced                                   : No

Text #3
ID                                       : 7
Format                                   : PGS
Muxing mode                              : zlib
Codec ID                                 : S_HDMV/PGS
Codec ID/Info                            : Picture based subtitle format used on BDs/HD-DVDs
Duration                                 : 1 h 16 min
Bit rate                                 : 31.9 kb/s
Count of elements                        : 1726
Stream size                              : 17.4 MiB (0%)
Title                                    : Spanish-PGS
Language                                 : Spanish
Default                                  : No
Forced                                   : No

Text #4
ID                                       : 8
Format                                   : PGS
Muxing mode                              : zlib
Codec ID                                 : S_HDMV/PGS
Codec ID/Info                            : Picture based subtitle format used on BDs/HD-DVDs
Duration                                 : 53 min 46 s
Bit rate                                 : 1 293 b/s
Count of elements                        : 46
Stream size                              : 509 KiB (0%)
Title                                    : French-FORCED-PGS
Language                                 : French
Default                                  : No
Forced                                   : No

Text #5
ID                                       : 9
Format                                   : PGS
Muxing mode                              : zlib
Codec ID                                 : S_HDMV/PGS
Codec ID/Info                            : Picture based subtitle format used on BDs/HD-DVDs
Duration                                 : 1 h 16 min
Bit rate                                 : 959 b/s
Count of elements                        : 48
Stream size                              : 535 KiB (0%)
Title                                    : Spanish-FORCED-PGS
Language                                 : Spanish
Default                                  : No
Forced                                   : No

Menu
00:00:00.000                             : en:Chapter 1
00:13:23.177                             : en:Chapter 2
00:21:15.315                             : en:Chapter 3
00:33:37.890                             : en:Chapter 4
00:45:00.864                             : en:Chapter 5
00:53:28.872                             : en:Chapter 6
01:04:41.002                             : en:Chapter 7
01:14:02.271                             : en:Chapter 8


破解4K UHD蓝光 蝙蝠侠:煤气灯下的哥谭4k Batman Gotham by Gaslight 2018 2160p UHD Blu-ray HEVC DTS-HD MA 5.1 4K  UHD蓝光原盘电影下载


蝙蝠侠:煤气灯下的哥谭4k Batman Gotham by Gaslight 2018 2160p UHD Blu-ray HEVC DTS-HD MA 5.1-OMFUG(4K UHD 蓝光蓝光破解版 2160p 52.36GB )
游客,如果您要查看本帖隐藏内容请回复

蝙蝠侠:煤气灯下的哥谭4k Batman Gotham by Gaslight 2018.2160p.BluRay.REMUX.HEVC.DTS-HD.MA.5.1-FGT(4K UHD 蓝光蓝光破解版 2160p 49.08GB )
游客,如果您要查看本帖隐藏内容请回复

0

主题

11

帖子

0

K币

Rank: 1

威望
0
积分
14
发表于 2018-2-10 22:19:55 来自手机 | 显示全部楼层
不错 支持下

0

主题

105

帖子

9

K币

Rank: 8Rank: 8

威望
0
积分
224
发表于 2018-2-10 23:43:13 | 显示全部楼层
感谢楼主的无私分享。

0

主题

75

帖子

4

K币

Rank: 8Rank: 8

威望
0
积分
141
发表于 2018-2-11 00:35:32 | 显示全部楼层
谢谢分享!!!!

2

主题

58

帖子

33

K币

Rank: 1

签到达人

威望
0
积分
231
发表于 2018-2-11 01:05:44 | 显示全部楼层
占前排来支持!好资源!支持支持!

0

主题

33

帖子

95

K币

Rank: 1

签到达人

威望
0
积分
148
发表于 2018-2-11 02:12:06 | 显示全部楼层
thx for sharing

0

主题

96

帖子

72

K币

Rank: 1

签到达人

威望
0
积分
154
发表于 2018-2-11 07:05:14 | 显示全部楼层
感谢hao4k这个网站提供这么多4K视频资源,太棒了!

0

主题

19

帖子

4

K币

Rank: 1

威望
0
积分
64
发表于 2018-2-11 08:39:54 | 显示全部楼层
感谢hao4k这个网站提供这么多4K视频资源,太棒了!

0

主题

54

帖子

98

K币

Rank: 1

威望
0
积分
181
发表于 2018-2-11 08:51:02 | 显示全部楼层
支持hao4k发展,支持楼主在Hao4k发布4K视频资源。

1

主题

143

帖子

158

K币

Rank: 1

威望
0
积分
240
发表于 2018-2-11 09:13:37 | 显示全部楼层
资源不错,Hao4k果然是最大4K资源网站,感激Hao4k论坛。
您需要登录后才可以回帖 登录 | 立即注册

本版积分规则

返回顶部 联系我们