发表于 2018-2-13 19:19 | 显示全部楼层 |阅读模式

片  名:魅力之地印度4K [下载地址在帖子底部]

  • 年  代:
  • 国  家:印度 
  • 类  别:纪录片 
  • 字  幕:英文原版
  • 上映日期:
  • 文件格式: 
  • 视频效果:
  • 文件大小:20.01GB
  • 片  长:分钟
  • 导  演:
  • 豆瓣链接:
  • 主  演:

剧情简介

魅力之地印度4K India.4K.2013.DOCU.2160p.BluRay.REMUX.AVC.DTS-HD.MA.5.1-FGT

魅力之地印度4K India.4K.2013.DOCU.2160p.BluRay.REMUX.AVC.DTS-HD.MA.5.1-FGT


魅力之地印度4K India.4K.2013.DOCU.2160p.BluRay.REMUX.AVC.DTS-HD.MA.5.1-FGT  4K  UHD蓝光原盘电影信息

第二百七十八部 4K UHD 蓝光原盘破解版,含完整的 BDMV 文件夹以及数据,AACS 2.0 协议已被完整破解
Video
ID                                       : 1
Format                                   : HEVC
Format/Info                              : High Efficiency Video Coding
Format profile                           : Main 10@L5.1@High
Codec ID                                 : V_MPEGH/ISO/HEVC
Duration                                 : 42 min 19 s
Bit rate                                 : 59.4 Mb/s
Width                                    : 3 840 pixels
Height                                   : 2 160 pixels
Display aspect ratio                     : 16:9
Frame rate mode                          : Constant
Frame rate                               : 24.000 FPS
Standard                                 : Component
Color space                              : YUV
Chroma subsampling                       : 4:2:0
Bit depth                                : 10 bits
Bits/(Pixel*Frame)                       : 0.298
Stream size                              : 17.6 GiB (88%)
Title                                    : India.4K.2013.2160p.BluRay.REMUX.AVC.DTS-HD.MA.5.1-FGT
Default                                  : Yes
Forced                                   : No
Color range                              : Limited
Color primaries                          : BT.709
Transfer characteristics                 : BT.709
Matrix coefficients                      : BT.709

Audio #1
ID                                       : 2
Format                                   : DTS
Format/Info                              : Digital Theater Systems
Format profile                           : MA / Core
Codec ID                                 : A_DTS
Duration                                 : 42 min 19 s
Bit rate mode                            : Variable / Constant
Bit rate                                 : 4 149 kb/s / 1 509 kb/s
Channel(s)                               : 6 channels
Channel positions                        : Front: L C R, Side: L R, LFE
Sampling rate                            : 48.0 kHz
Frame rate                               : 93.750 FPS (512 SPF)
Bit depth                                : 24 bits
Compression mode                         : Lossless / Lossy
Stream size                              : 1.23 GiB (6%)
Title                                    : India.4K.2013.2160p.BluRay.REMUX.AVC.DTS-HD.MA.5.1-FGT
Language                                 : English
Default                                  : Yes
Forced                                   : No

Audio #2
ID                                       : 3
Format                                   : DTS
Format/Info                              : Digital Theater Systems
Format profile                           : MA / Core
Codec ID                                 : A_DTS
Duration                                 : 42 min 19 s
Bit rate mode                            : Variable / Constant
Bit rate                                 : 4 157 kb/s / 1 509 kb/s
Channel(s)                               : 6 channels
Channel positions                        : Front: L C R, Side: L R, LFE
Sampling rate                            : 48.0 kHz
Frame rate                               : 93.750 FPS (512 SPF)
Bit depth                                : 24 bits
Compression mode                         : Lossless / Lossy
Stream size                              : 1.23 GiB (6%)
Title                                    : India.4K.2013.2160p.BluRay.REMUX.AVC.DTS-HD.MA.5.1-FGT
Language                                 : German
Default                                  : No
Forced                                   : No

Menu
00:00:00.000                             : en:Chapter 1
00:01:41.958                             : en:Chapter 2
00:06:50.833                             : en:Chapter 3
00:13:01.333                             : en:Chapter 4
00:20:09.458                             : en:Chapter 5
00:25:01.041                             : en:Chapter 6
00:32:35.916                             : en:Chapter 7
00:39:17.625                             : en:Chapter 8

魅力之地印度4K India.4K.2013.DOCU.2160p.BluRay.REMUX.AVC.DTS-HD.MA.5.1-FGT  4K  UHD蓝光原盘电影下载

魅力之地印度4K India.4K.2013.DOCU.2160p.BluRay.REMUX.AVC.DTS-HD.MA.5.1-FGT  (4K UHD 蓝光蓝光破解版 2160p 20.01GB )
游客,如果您要查看本帖隐藏内容请回复
发表于 2018-2-13 19:24 | 显示全部楼层
求沙发
发表于 2018-2-13 21:08 | 显示全部楼层
顶下,感恩分享
发表于 2018-2-13 21:41 | 显示全部楼层
感谢hao4k这个网站提供这么多4K视频资源,太棒了!
发表于 2018-2-13 22:00 | 显示全部楼层
謝謝分享
发表于 2018-2-13 22:08 | 显示全部楼层
感谢hao4k这个网站提供这么多4K视频资源,太棒了!
发表于 2018-2-13 22:08 | 显示全部楼层
感谢hao4k这个网站提供这么多4K视频资源,太棒了!
发表于 2018-2-13 23:03 | 显示全部楼层
这个质量4k视频一般般,还可以哦。
发表于 2018-2-13 23:12 | 显示全部楼层
支持hao4k发展,支持楼主在Hao4k发布4K视频资源。
发表于 2018-2-14 00:22 | 显示全部楼层
感谢hao4k这个网站提供这么多4K视频资源,太棒了!
发表于 2018-2-14 00:57 | 显示全部楼层
支持hao4k发展,支持楼主在Hao4k发布4K视频资源。
发表于 2018-2-14 04:41 | 显示全部楼层
好牛逼 太棒了
发表于 2018-2-14 06:01 | 显示全部楼层
一个神秘而又自负的地方
发表于 2018-2-14 06:32 | 显示全部楼层
感谢hao4k这个网站提供这么多4K视频资源,太棒了!
发表于 2018-2-14 07:52 | 显示全部楼层
感谢hao4k这个网站提供这么多4K视频资源,太棒了!
发表于 2018-2-14 08:25 | 显示全部楼层
谢谢共享,期待
发表于 2018-2-14 08:52 | 显示全部楼层
支持hao4k发展,支持楼主在Hao4k发布4K视频资源。
发表于 2018-2-14 09:40 | 显示全部楼层
感谢发布!
您需要登录后才可以回帖 登录 | 立即注册

本版积分规则

返回顶部 联系我们