你所知道的4K资源这里全部都有 4K电影 | 4K视频 | 4K壁纸 | 4K MV 怎么播放4K视频 | 4K电视演示片▼

教你玩转4K私人与家庭影院存储 NAS组装 | 黑群辉 家庭/影院Nas论坛

4K家庭影院信号源与视频设备知识 4K蓝光高清播放机 - 那个品牌好? 4K投影机论坛 | 4K电视机论坛

手把手教你搭建属于自己的家庭影院 4K家庭影院案例 | 家庭影院音频 4K家庭影院论坛

发表于 2018-3-10 19:35 | 显示全部楼层 |阅读模式

片  名:大堡礁 4k [下载地址在帖子底部]

  • 年  代:90年代  
  • 国  家:美国 
  • 类  别:纪录片 短片 
  • 字  幕:英文原版
  • 上映日期:
  • 文件格式:mkv   
  • 视频效果:4K(3840x2160)    
  • 文件大小:42.3GB
  • 片  长:45分钟
  • 导  演:
  • 豆瓣链接:
  • 主  演:

剧情简介

The.Great.Barrier.Reef.1999 4k 浏览片.png

大堡礁4k The.Great.Barrier.Reef.1999  .DOCU.2160p.BluRay.REMUX.HEVC.DTS-HD.MA.5.1 4K  UHD蓝光原盘电影信息

第312部4K UHD 蓝光原盘破解版,含完整的 BDMV 文件夹以及数据,AACS 2.0 协议已被完整破解
Video
ID                                       : 1
Format                                   : HEVC
Format/Info                              : High Efficiency Video Coding
Format profile                           : Main 10@L5.1@High
Codec ID                                 : V_MPEGH/ISO/HEVC
Duration                                 : 45 min 1 s
Bit rate                                 : 58.8 Mb/s
Width                                    : 3 840 pixels
Height                                   : 2 160 pixels
Display aspect ratio                     : 16:9
Frame rate mode                          : Constant
Frame rate                               : 25.000 FPS
Color space                              : YUV
Chroma subsampling                       : 4:2:0
Bit depth                                : 10 bits
Bits/(Pixel*Frame)                       : 0.283
Stream size                              : 18.5 GiB (93%)
Title                                    : The.Great.Barrier.Reef.1999.2160p.BluRay.REMUX.HEVC.DTS-HD.MA.5.1-FGT
Writing library                          : x265 2.3+18-88fd9082764c:[Windows][GCC 5.3.1][64 bit] 10bit
Encoding settings                        : cpuid=1050111 / frame-threads=8 / numa-pools=20,20 / wpp / no-pmode / no-pme / no-psnr / no-ssim / log-level=2 / input-csp=1 / input-res=3840x2160 / interlace=0 / total-frames=0 / level-idc=51 / high-tier=1 / uhd-bd=1 / ref=3 / no-allow-non-conformance / repeat-headers / annexb / aud / hrd / info / hash=0 / no-temporal-layers / no-open-gop / min-keyint=1 / keyint=24 / bframes=4 / b-adapt=2 / no-b-pyramid / bframe-bias=0 / rc-lookahead=20 / lookahead-slices=8 / scenecut=40 / no-intra-refresh / ctu=64 / min-cu-size=8 / no-rect / no-amp / max-tu-size=32 / tu-inter-depth=1 / tu-intra-depth=1 / limit-tu=0 / rdoq-level=0 / dynamic-rd=0.00 / signhide / no-tskip / nr-intra=0 / nr-inter=0 / no-constrained-intra / strong-intra-smoothing / max-merge=2 / limit-refs=3 / no-limit-modes / me=1 / subme=2 / merange=57 / temporal-mvp / weightp / no-weightb / no-analyze-src-pics / deblock=0:0 / sao / no-sao-non-deblock / rd=1 / no-early-skip / rskip / no-fast-intra / no-tskip-fast / no-cu-lossless / no-b-intra / rdpenalty=0 / psy-rd=0.00 / psy-rdoq=0.00 / no-rd-refine / analysis-mode=0 / no-lossless / cbqpoffs=0 / crqpoffs=0 / rc=abr / bitrate=60000 / qcomp=0.60 / qpstep=4 / stats-write=0 / stats-read=0 / vbv-maxrate=70000 / vbv-bufsize=60000 / vbv-init=0.9 / ipratio=1.40 / pbratio=1.30 / aq-mode=1 / aq-strength=1.00 / cutree / zone-count=0 / no-strict-cbr / qg-size=32 / no-rc-grain / qpmax=69 / qpmin=0 / sar=1 / overscan=0 / videoformat=5 / range=0 / colorprim=1 / transfer=1 / colormatrix=1 / chromaloc=0 / display-window=0 / max-cll=0,0 / min-luma=0 / max-luma=1023 / log2-max-poc-lsb=8 / vui-timing-info / vui-hrd-info / slices=1 / opt-qp-pps / opt-ref-list-length-pps / no-multi-pass-opt-rps / scenecut-bias=0.05 / no-opt-cu-delta-qp / no-aq-motion / no-HDR / no-hdr-opt / refine-level=5
Default                                  : Yes
Forced                                   : No
Color range                              : Limited
Color primaries                          : BT.709
Transfer characteristics                 : BT.709
Matrix coefficients                      : BT.709

Audio #1
ID                                       : 2
Format                                   : DTS
Format/Info                              : Digital Theater Systems
Format profile                           : MA / Core
Codec ID                                 : A_DTS
Duration                                 : 45 min 1 s
Bit rate mode                            : Variable / Constant
Bit rate                                 : 2 462 kb/s / 1 509 kb/s
Channel(s)                               : 6 channels
Channel positions                        : Front: L C R, Side: L R, LFE
Sampling rate                            : 48.0 kHz
Frame rate                               : 93.750 FPS (512 SPF)
Bit depth                                : 16 bits
Compression mode                         : Lossless / Lossy
Stream size                              : 793 MiB (4%)
Title                                    : The.Great.Barrier.Reef.1999.2160p.BluRay.REMUX.HEVC.DTS-HD.MA.5.1-FGT
Language                                 : German
Default                                  : Yes
Forced                                   : No

Audio #2
ID                                       : 3
Format                                   : DTS
Format/Info                              : Digital Theater Systems
Format profile                           : MA / Core
Codec ID                                 : A_DTS
Duration                                 : 45 min 1 s
Bit rate mode                            : Variable / Constant
Bit rate                                 : 2 208 kb/s / 1 509 kb/s
Channel(s)                               : 6 channels
Channel positions                        : Front: L C R, Side: L R, LFE
Sampling rate                            : 48.0 kHz
Frame rate                               : 93.750 FPS (512 SPF)
Bit depth                                : 16 bits
Compression mode                         : Lossless / Lossy
Stream size                              : 711 MiB (3%)
Title                                    : The.Great.Barrier.Reef.1999.2160p.BluRay.REMUX.HEVC.DTS-HD.MA.5.1-FGT
Language                                 : English
Default                                  : No
Forced                                   : No

Menu
00:00:00.000                             : en:Chapter 1
00:02:45.280                             : en:Chapter 2
00:13:53.560                             : en:Chapter 3
00:22:15.960                             : en:Chapter 4
00:33:44.200                             : en:Chapter 5

大堡礁4k The.Great.Barrier.Reef.1999 .DOCU.2160p.BluRay.REMUX.HEVC.DTS-HD.MA.5.1 4K  UHD蓝光原盘电影下载

大堡礁4k The.Great.Barrier.Reef.1999.DOCU.2160p.BluRay.HEVC.DTS-HD.MA.5.1-BDGRP (4K UHD 蓝光原盘破解版 2160p  42.3GB)
[hao4k.com]The.Great.Barrier.Reef.1999.DOCU.2160p.BluRay.HEVC.DTS-HD.MA.5.1-BDGRP.torrent (109.03 KB, 下载次数: 2, 资源售价: 6 K币)
发表于 2018-3-10 19:40 | 显示全部楼层
报告!别开枪,我就是路过来看看的。。。
发表于 2018-3-10 20:07 | 显示全部楼层
感谢hao4k这个网站提供这么多4K视频资源,太棒了!
发表于 2018-3-10 20:44 | 显示全部楼层
感谢hao4k分享IMAX4K纪录片!!!!!
发表于 2018-3-10 21:18 | 显示全部楼层
感谢hao4k这个网站提供这么多4K视频资源,太棒了!
发表于 2018-3-10 22:05 | 显示全部楼层
谢谢分享
发表于 2018-3-10 22:05 | 显示全部楼层
感谢hao4k这个网站提供这么多4K视频资源,太棒了!
发表于 2018-3-10 22:26 | 显示全部楼层
资源不错,Hao4k果然是最大4K资源网站,感激Hao4k论坛。
发表于 2018-3-10 22:42 | 显示全部楼层
资源不错,Hao4k果然是最大4K资源网站,感激Hao4k论坛。
发表于 2018-3-10 23:05 | 显示全部楼层
感谢hao4k这个网站提供这么多4K视频资源,太棒了!
发表于 2018-3-11 00:56 | 显示全部楼层
楼主能不能多发一点4k电影啊。跪拜 ~~~
发表于 2018-3-11 02:32 | 显示全部楼层
感谢hao4k这个网站提供这么多4K视频资源,太棒了
发表于 2018-3-11 07:06 | 显示全部楼层
么有分,谁能送我点 K币啊::>_<::
发表于 2018-3-11 09:14 | 显示全部楼层
謝謝分享
发表于 2018-3-11 09:38 | 显示全部楼层
感谢hao4k这个网站提供这么多4K视频资源,太棒了!
发表于 2018-3-11 10:10 | 显示全部楼层
不错的纪录片
发表于 2018-3-11 10:12 | 显示全部楼层
感谢hao4k这个网站提供这么多4K视频资源,太棒了!
发表于 2018-3-11 11:29 | 显示全部楼层
感谢hao4k这个网站提供这么多4K视频资源,太棒了!
您需要登录后才可以回帖 登录 | 立即注册

本版积分规则

返回顶部 联系我们