发表于 2018-4-6 02:16 | 显示全部楼层 |阅读模式

片  名:无敌浩克4k [下载地址在帖子底部]

  • 年  代:00年代  
  • 国  家:美国 
  • 类  别:动作 科幻 惊悚 
  • 字  幕:英文原版
  • 上映日期:2008-06-13
  • 文件格式:mkv   m2ts   
  • 视频效果:4K(3840x2160)    
  • 文件大小:57.60GB
  • 片  长:112分钟
  • 导  演:路易斯·莱特里尔
  • 豆瓣链接:https://movie.douban.com/subject/1866475/
  • 主  演:爱德华·诺顿 / 丽芙·泰勒 / 蒂姆·罗斯 / 威廉·赫特 / 蒂姆·布雷克·尼尔森

剧情简介

 在高华大学变异的经历总在重演,关于军方通缉的亦围绕在脑海,科学家Bruce Banner(爱德华·诺顿 Edward Norton 饰)就在这样的梦魇下在巴西一边控制着体内的伽马辐射带来的异常,一边努力和纽约的蓝先生寻求解决办法。
  在汽水生产厂房的他一日不小心割伤手指,让血滴入了汽水瓶,远销到美国的这瓶汽水暴露了他的行踪。美国军方穷尽能力追捕他,还找来求胜心切的英国霹雳将军Emil Blonsky(蒂姆·罗斯 Tim Roth 饰)。被逼到绝路的Bruce变身为绿巨人,Emil和其他军人都大吃一惊。为了亲手擒住Bruce,Emil建议给自己注入可使基因变异的样本。
  Bruce在美国隐匿时遇到旧女友Betty Ross(丽芙·泰勒 Liv Tyler 饰),Betty义无反顾地站在他一边,同时发现,她拥有令他体内绿巨人安稳的力量。
  那边Emil已经被求胜蒙蔽了眼睛,他的寻衅加上美国军方极度想利用Bruce体内异能作为残暴行径的决心,一场大战已经避无可避。

无敌浩克4k The.Incredible.Hulk.2008.2160p.BluRay.HEVC.DTS-X.7.1 4K版下载[第三百三十四部破解4K UHD蓝 ...

无敌浩克4k The.Incredible.Hulk.2008.2160p.BluRay.HEVC.DTS-X.7.1 4K版下载[第三百三十四部破解4K UHD蓝  ...


神奇绿巨人 / 绿巨人2 / 不可思议的绿巨人 / 新变形侠医 /无敌浩克4k The.Incredible.Hulk.2008.2160p.BluRay.HEVC.DTS-X.7.1 4K  UHD蓝光原盘电影信息

第三百三十四部4K UHD 蓝光原盘破解版,含完整的 BDMV 文件夹以及数据,AACS 2.0 协议已被完整破解
DISC INFO:

Disc Title:     The.Incredible.Hulk.2008.2160p.BluRay.HEVC.DTS-X.7.1-COASTER
Disc Size:      61,847,484,263 bytes
Protection:     AACS2
BD-Java:        Yes
Extras:         Ultra HD
BDInfo:         0.5.8.7 (compatible layout created by DVDFab 10.0.8.4)

PLAYLIST REPORT:

Name:                   00001.MPLS  
Length:                 1:52:12.016 (h:m:s.ms)
Size:                   60,590,874,624 bytes
Total Bitrate:          72.00 Mbps

VIDEO:

Codec                   Bitrate             Description     
-----                   -------             -----------     
MPEG-H HEVC Video       57477 kbps          2160p / 23.976 fps / 16:9 / Main 10 Profile 5.1 High / 4:2:0 / 10 bits / HDR / BT.2020 /

AUDIO:

Codec                           Language        Bitrate         Description     
-----                           --------        -------         -----------     
DTS:X/DTS-HD Master Audio       English         6787 kbps       7.1-X / 48 kHz / 6787 kbps / 24-bit (DTS Core: 5.1 / 48 kHz / 1509 kbps / 24-bit)
DTS Audio                       Italian         768 kbps        5.1 / 48 kHz / 768 kbps / 24-bit
DTS Audio                       Russian         768 kbps        5.1 / 48 kHz / 768 kbps / 24-bit
DTS Audio                       Czech           768 kbps        5.1 / 48 kHz / 768 kbps / 24-bit
DTS Audio                       Polish          768 kbps        5.1 / 48 kHz / 768 kbps / 24-bit
Dolby Digital Audio             English         192 kbps        2.0 / 48 kHz / 192 kbps / Dolby Surround

SUBTITLES:

Codec                           Language        Bitrate         Description     
-----                           --------        -------         -----------     
Presentation Graphics           English         21.061 kbps                     
Presentation Graphics           Italian         18.938 kbps                     
Presentation Graphics           Dutch           12.606 kbps                     
Presentation Graphics           Danish          15.454 kbps                     
Presentation Graphics           Finnish         13.94 kbps                     
Presentation Graphics           Norwegian       18.428 kbps                     
Presentation Graphics           Swedish         15.706 kbps                     
Presentation Graphics           Portuguese      16.338 kbps                     
Presentation Graphics           Turkish         19.445 kbps                     
Presentation Graphics           Czech           17.08 kbps                     
Presentation Graphics           Chinese         13.161 kbps                     
Presentation Graphics           Korean          13.304 kbps                     
Presentation Graphics           Greek           18.911 kbps                     
Presentation Graphics           English         81.444 kbps                     
Presentation Graphics           Italian         64.975 kbps                     
Presentation Graphics           Dutch           69.61 kbps                     
Presentation Graphics           Danish          68.961 kbps                     
Presentation Graphics           Finnish         65.397 kbps                     
Presentation Graphics           Norwegian       64.05 kbps                     
Presentation Graphics           Swedish         65.426 kbps                     
Presentation Graphics           Portuguese      69.598 kbps                     
Presentation Graphics           Korean          48.941 kbps                     
Presentation Graphics           Italian         1.973 kbps                     
Presentation Graphics           Russian         2.848 kbps                     
Presentation Graphics           Czech           2.621 kbps                     
Presentation Graphics           Polish          16.597 kbps                     
REMUX
Video
ID                                       : 1
Format                                   : HEVC
Format/Info                              : High Efficiency Video Coding
Format profile                           : Main 10@L5.1@High
Codec ID                                 : V_MPEGH/ISO/HEVC
Duration                                 : 1 h 52 min
Bit rate                                 : 57.5 Mb/s
Width                                    : 3 840 pixels
Height                                   : 2 160 pixels
Display aspect ratio                     : 16:9
Frame rate mode                          : Constant
Frame rate                               : 23.976 (24000/1001) FPS
Color space                              : YUV
Chroma subsampling                       : 4:2:0 (Type 2)
Bit depth                                : 10 bits
Bits/(Pixel*Frame)                       : 0.289
Stream size                              : 45.0 GiB (85%)
Title                                    : The.Incredible.Hulk.2008.2160p.BluRay.REMUX.HEVC.DTS-X.7.1-FGT
Default                                  : Yes
Forced                                   : No
Color range                              : Limited
Color primaries                          : BT.2020
Transfer characteristics                 : PQ
Matrix coefficients                      : BT.2020 non-constant
Mastering display color primaries        : Display P3
Mastering display luminance              : min: 0.0050 cd/m2, max: 1000 cd/m2
Maximum Content Light Level              : 915 cd/m2
Maximum Frame-Average Light Level        : 258 cd/m2

Audio #1
ID                                       : 2
Format                                   : DTS
Format/Info                              : Digital Theater Systems
Format profile                           : X / MA / Core
Codec ID                                 : A_DTS
Duration                                 : 1 h 52 min
Bit rate mode                            : Variable / Variable / Constant
Bit rate                                 : 6 787 kb/s / 6 787 kb/s / 1 509 kb/s
Channel(s)                               : Object Based / 8 channels / 6 channels
Channel positions                        : Object Based / Front: L C R, Side: L R, Back: L R, LFE / Front: L C R, Side: L R, LFE
Sampling rate                            :  / 48.0 kHz / 48.0 kHz
Frame rate                               : 93.750 FPS (512 SPF)
Bit depth                                :  / 24 bits / 24 bits
Compression mode                         :  / Lossless / Lossy
Stream size                              : 5.32 GiB (10%)
Title                                    : The.Incredible.Hulk.2008.2160p.BluRay.REMUX.HEVC.DTS-X.7.1-FGT
Language                                 : English
Default                                  : Yes
Forced                                   : No

Audio #2
ID                                       : 3
Format                                   : DTS
Format/Info                              : Digital Theater Systems
Codec ID                                 : A_DTS
Duration                                 : 1 h 52 min
Bit rate mode                            : Constant
Bit rate                                 : 768 kb/s
Channel(s)                               : 6 channels
Channel positions                        : Front: L C R, Side: L R, LFE
Sampling rate                            : 48.0 kHz
Frame rate                               : 93.750 FPS (512 SPF)
Bit depth                                : 24 bits
Compression mode                         : Lossy
Stream size                              : 616 MiB (1%)
Title                                    : The.Incredible.Hulk.2008.2160p.BluRay.REMUX.HEVC.DTS-X.7.1-FGT
Language                                 : Italian
Default                                  : No
Forced                                   : No

Audio #3
ID                                       : 4
Format                                   : DTS
Format/Info                              : Digital Theater Systems
Codec ID                                 : A_DTS
Duration                                 : 1 h 52 min
Bit rate mode                            : Constant
Bit rate                                 : 768 kb/s
Channel(s)                               : 6 channels
Channel positions                        : Front: L C R, Side: L R, LFE
Sampling rate                            : 48.0 kHz
Frame rate                               : 93.750 FPS (512 SPF)
Bit depth                                : 24 bits
Compression mode                         : Lossy
Stream size                              : 616 MiB (1%)
Title                                    : The.Incredible.Hulk.2008.2160p.BluRay.REMUX.HEVC.DTS-X.7.1-FGT
Language                                 : Russian
Default                                  : No
Forced                                   : No

Audio #4
ID                                       : 5
Format                                   : DTS
Format/Info                              : Digital Theater Systems
Codec ID                                 : A_DTS
Duration                                 : 1 h 52 min
Bit rate mode                            : Constant
Bit rate                                 : 768 kb/s
Channel(s)                               : 6 channels
Channel positions                        : Front: L C R, Side: L R, LFE
Sampling rate                            : 48.0 kHz
Frame rate                               : 93.750 FPS (512 SPF)
Bit depth                                : 24 bits
Compression mode                         : Lossy
Stream size                              : 616 MiB (1%)
Title                                    : The.Incredible.Hulk.2008.2160p.BluRay.REMUX.HEVC.DTS-X.7.1-FGT
Language                                 : Czech
Default                                  : No
Forced                                   : No

Audio #5
ID                                       : 6
Format                                   : DTS
Format/Info                              : Digital Theater Systems
Codec ID                                 : A_DTS
Duration                                 : 1 h 52 min
Bit rate mode                            : Constant
Bit rate                                 : 768 kb/s
Channel(s)                               : 6 channels
Channel positions                        : Front: L C R, Side: L R, LFE
Sampling rate                            : 48.0 kHz
Frame rate                               : 93.750 FPS (512 SPF)
Bit depth                                : 24 bits
Compression mode                         : Lossy
Stream size                              : 616 MiB (1%)
Title                                    : The.Incredible.Hulk.2008.2160p.BluRay.REMUX.HEVC.DTS-X.7.1-FGT
Language                                 : Polish
Default                                  : No
Forced                                   : No

Audio #6
ID                                       : 7
Format                                   : AC-3
Format/Info                              : Audio Coding 3
Codec ID                                 : A_AC3
Duration                                 : 1 h 52 min
Bit rate mode                            : Constant
Bit rate                                 : 192 kb/s
Channel(s)                               : 2 channels
Channel positions                        : Front: L R
Sampling rate                            : 48.0 kHz
Frame rate                               : 31.250 FPS (1536 SPF)
Bit depth                                : 16 bits
Compression mode                         : Lossy
Stream size                              : 154 MiB (0%)
Title                                    : The.Incredible.Hulk.2008.2160p.BluRay.REMUX.HEVC.DTS-X.7.1-FGT
Language                                 : English
Service kind                             : Complete Main
Default                                  : No
Forced                                   : No

Text #1
ID                                       : 8
Format                                   : PGS
Muxing mode                              : zlib
Codec ID                                 : S_HDMV/PGS
Codec ID/Info                            : Picture based subtitle format used on BDs/HD-DVDs
Duration                                 : 1 h 44 min
Bit rate                                 : 22.7 kb/s
Count of elements                        : 1763
Stream size                              : 16.9 MiB (0%)
Title                                    : English-PGS
Language                                 : English
Default                                  : Yes
Forced                                   : No

Text #2
ID                                       : 9
Format                                   : PGS
Muxing mode                              : zlib
Codec ID                                 : S_HDMV/PGS
Codec ID/Info                            : Picture based subtitle format used on BDs/HD-DVDs
Duration                                 : 1 h 50 min
Bit rate                                 : 19.3 kb/s
Count of elements                        : 1580
Stream size                              : 15.2 MiB (0%)
Title                                    : Italian-PGS
Language                                 : Italian
Default                                  : No
Forced                                   : No

Text #3
ID                                       : 10
Format                                   : PGS
Muxing mode                              : zlib
Codec ID                                 : S_HDMV/PGS
Codec ID/Info                            : Picture based subtitle format used on BDs/HD-DVDs
Duration                                 : 1 h 50 min
Bit rate                                 : 12.8 kb/s
Count of elements                        : 1282
Stream size                              : 10.1 MiB (0%)
Title                                    : Dutch-PGS
Language                                 : Dutch
Default                                  : No
Forced                                   : No

Text #4
ID                                       : 11
Format                                   : PGS
Muxing mode                              : zlib
Codec ID                                 : S_HDMV/PGS
Codec ID/Info                            : Picture based subtitle format used on BDs/HD-DVDs
Duration                                 : 1 h 50 min
Bit rate                                 : 15.7 kb/s
Count of elements                        : 1383
Stream size                              : 12.4 MiB (0%)
Title                                    : Danish-PGS
Language                                 : Danish
Default                                  : No
Forced                                   : No

Text #5
ID                                       : 12
Format                                   : PGS
Muxing mode                              : zlib
Codec ID                                 : S_HDMV/PGS
Codec ID/Info                            : Picture based subtitle format used on BDs/HD-DVDs
Duration                                 : 1 h 50 min
Bit rate                                 : 14.1 kb/s
Count of elements                        : 1356
Stream size                              : 11.2 MiB (0%)
Title                                    : Finnish-PGS
Language                                 : Finnish
Default                                  : No
Forced                                   : No

Text #6
ID                                       : 13
Format                                   : PGS
Muxing mode                              : zlib
Codec ID                                 : S_HDMV/PGS
Codec ID/Info                            : Picture based subtitle format used on BDs/HD-DVDs
Duration                                 : 1 h 50 min
Bit rate                                 : 18.8 kb/s
Count of elements                        : 1578
Stream size                              : 14.8 MiB (0%)
Title                                    : Norwegian-PGS
Language                                 : Norwegian
Default                                  : No
Forced                                   : No

Text #7
ID                                       : 14
Format                                   : PGS
Muxing mode                              : zlib
Codec ID                                 : S_HDMV/PGS
Codec ID/Info                            : Picture based subtitle format used on BDs/HD-DVDs
Duration                                 : 1 h 50 min
Bit rate                                 : 16.0 kb/s
Count of elements                        : 1458
Stream size                              : 12.6 MiB (0%)
Title                                    : Swedish-PGS
Language                                 : Swedish
Default                                  : No
Forced                                   : No

Text #8
ID                                       : 15
Format                                   : PGS
Muxing mode                              : zlib
Codec ID                                 : S_HDMV/PGS
Codec ID/Info                            : Picture based subtitle format used on BDs/HD-DVDs
Duration                                 : 1 h 44 min
Bit rate                                 : 17.5 kb/s
Count of elements                        : 1402
Stream size                              : 13.1 MiB (0%)
Title                                    : Portuguese-PGS
Language                                 : Portuguese
Default                                  : No
Forced                                   : No

Text #9
ID                                       : 16
Format                                   : PGS
Muxing mode                              : zlib
Codec ID                                 : S_HDMV/PGS
Codec ID/Info                            : Picture based subtitle format used on BDs/HD-DVDs
Duration                                 : 1 h 50 min
Bit rate                                 : 19.8 kb/s
Count of elements                        : 1588
Stream size                              : 15.6 MiB (0%)
Title                                    : Turkish-PGS
Language                                 : Turkish
Default                                  : No
Forced                                   : No

Text #10
ID                                       : 17
Format                                   : PGS
Muxing mode                              : zlib
Codec ID                                 : S_HDMV/PGS
Codec ID/Info                            : Picture based subtitle format used on BDs/HD-DVDs
Duration                                 : 1 h 50 min
Bit rate                                 : 17.4 kb/s
Count of elements                        : 1586
Stream size                              : 13.7 MiB (0%)
Title                                    : Czech-PGS
Language                                 : Czech
Default                                  : No
Forced                                   : No

Text #11
ID                                       : 18
Format                                   : PGS
Muxing mode                              : zlib
Codec ID                                 : S_HDMV/PGS
Codec ID/Info                            : Picture based subtitle format used on BDs/HD-DVDs
Duration                                 : 1 h 50 min
Bit rate                                 : 13.3 kb/s
Count of elements                        : 1519
Stream size                              : 10.6 MiB (0%)
Title                                    : Chinese-PGS
Language                                 : Chinese
Default                                  : No
Forced                                   : No

Text #12
ID                                       : 19
Format                                   : PGS
Muxing mode                              : zlib
Codec ID                                 : S_HDMV/PGS
Codec ID/Info                            : Picture based subtitle format used on BDs/HD-DVDs
Duration                                 : 1 h 51 min
Bit rate                                 : 13.4 kb/s
Count of elements                        : 1594
Stream size                              : 10.7 MiB (0%)
Title                                    : Korean-PGS
Language                                 : Korean
Default                                  : No
Forced                                   : No

Text #13
ID                                       : 20
Format                                   : PGS
Muxing mode                              : zlib
Codec ID                                 : S_HDMV/PGS
Codec ID/Info                            : Picture based subtitle format used on BDs/HD-DVDs
Duration                                 : 1 h 50 min
Bit rate                                 : 19.1 kb/s
Count of elements                        : 1456
Stream size                              : 15.2 MiB (0%)
Title                                    : Greek-PGS
Language                                 : Greek
Default                                  : No
Forced                                   : No

Text #14
ID                                       : 21
Format                                   : PGS
Muxing mode                              : zlib
Codec ID                                 : S_HDMV/PGS
Codec ID/Info                            : Picture based subtitle format used on BDs/HD-DVDs
Duration                                 : 1 h 51 min
Bit rate                                 : 82.1 kb/s
Count of elements                        : 4213
Stream size                              : 65.4 MiB (0%)
Title                                    : English-COMMENTARY-PGS
Language                                 : English
Default                                  : No
Forced                                   : No

Text #15
ID                                       : 22
Format                                   : PGS
Muxing mode                              : zlib
Codec ID                                 : S_HDMV/PGS
Codec ID/Info                            : Picture based subtitle format used on BDs/HD-DVDs
Duration                                 : 1 h 51 min
Bit rate                                 : 65.3 kb/s
Count of elements                        : 4213
Stream size                              : 52.1 MiB (0%)
Title                                    : Italian-COMMENTARY-PGS
Language                                 : Italian
Default                                  : No
Forced                                   : No

Text #16
ID                                       : 23
Format                                   : PGS
Muxing mode                              : zlib
Codec ID                                 : S_HDMV/PGS
Codec ID/Info                            : Picture based subtitle format used on BDs/HD-DVDs
Duration                                 : 1 h 51 min
Bit rate                                 : 69.9 kb/s
Count of elements                        : 4205
Stream size                              : 55.9 MiB (0%)
Title                                    : Dutch-COMMENTARY-PGS
Language                                 : Dutch
Default                                  : No
Forced                                   : No

Text #17
ID                                       : 24
Format                                   : PGS
Muxing mode                              : zlib
Codec ID                                 : S_HDMV/PGS
Codec ID/Info                            : Picture based subtitle format used on BDs/HD-DVDs
Duration                                 : 1 h 51 min
Bit rate                                 : 69.3 kb/s
Count of elements                        : 4211
Stream size                              : 55.3 MiB (0%)
Title                                    : Danish-COMMENTARY-PGS
Language                                 : Danish
Default                                  : No
Forced                                   : No

Text #18
ID                                       : 25
Format                                   : PGS
Muxing mode                              : zlib
Codec ID                                 : S_HDMV/PGS
Codec ID/Info                            : Picture based subtitle format used on BDs/HD-DVDs
Duration                                 : 1 h 51 min
Bit rate                                 : 65.7 kb/s
Count of elements                        : 4209
Stream size                              : 52.5 MiB (0%)
Title                                    : Finnish-COMMENTARY-PGS
Language                                 : Finnish
Default                                  : No
Forced                                   : No

Text #19
ID                                       : 26
Format                                   : PGS
Muxing mode                              : zlib
Codec ID                                 : S_HDMV/PGS
Codec ID/Info                            : Picture based subtitle format used on BDs/HD-DVDs
Duration                                 : 1 h 51 min
Bit rate                                 : 64.3 kb/s
Count of elements                        : 4213
Stream size                              : 51.4 MiB (0%)
Title                                    : Norwegian-COMMENTARY-PGS
Language                                 : Norwegian
Default                                  : No
Forced                                   : No

Text #20
ID                                       : 27
Format                                   : PGS
Muxing mode                              : zlib
Codec ID                                 : S_HDMV/PGS
Codec ID/Info                            : Picture based subtitle format used on BDs/HD-DVDs
Duration                                 : 1 h 51 min
Bit rate                                 : 65.7 kb/s
Count of elements                        : 4213
Stream size                              : 52.5 MiB (0%)
Title                                    : Swedish-COMMENTARY-PGS
Language                                 : Swedish
Default                                  : No
Forced                                   : No

Text #21
ID                                       : 28
Format                                   : PGS
Muxing mode                              : zlib
Codec ID                                 : S_HDMV/PGS
Codec ID/Info                            : Picture based subtitle format used on BDs/HD-DVDs
Duration                                 : 1 h 51 min
Bit rate                                 : 69.9 kb/s
Count of elements                        : 4209
Stream size                              : 55.9 MiB (0%)
Title                                    : Portuguese-COMMENTARY-PGS
Language                                 : Portuguese
Default                                  : No
Forced                                   : No

Text #22
ID                                       : 29
Format                                   : PGS
Muxing mode                              : zlib
Codec ID                                 : S_HDMV/PGS
Codec ID/Info                            : Picture based subtitle format used on BDs/HD-DVDs
Duration                                 : 1 h 51 min
Bit rate                                 : 49.2 kb/s
Count of elements                        : 4213
Stream size                              : 39.3 MiB (0%)
Title                                    : Korean-COMMENTARY-PGS
Language                                 : Korean
Default                                  : No
Forced                                   : No

Text #23
ID                                       : 30
Format                                   : PGS
Muxing mode                              : zlib
Codec ID                                 : S_HDMV/PGS
Codec ID/Info                            : Picture based subtitle format used on BDs/HD-DVDs
Duration                                 : 1 h 50 min
Bit rate                                 : 2 008 b/s
Count of elements                        : 178
Stream size                              : 1.58 MiB (0%)
Title                                    : Italian-FORCED-PGS
Language                                 : Italian
Default                                  : No
Forced                                   : No

Text #24
ID                                       : 31
Format                                   : PGS
Muxing mode                              : zlib
Codec ID                                 : S_HDMV/PGS
Codec ID/Info                            : Picture based subtitle format used on BDs/HD-DVDs
Duration                                 : 1 h 50 min
Bit rate                                 : 2 899 b/s
Count of elements                        : 244
Stream size                              : 2.29 MiB (0%)
Title                                    : Russian-FORCED-PGS
Language                                 : Russian
Default                                  : No
Forced                                   : No

Text #25
ID                                       : 32
Format                                   : PGS
Muxing mode                              : zlib
Codec ID                                 : S_HDMV/PGS
Codec ID/Info                            : Picture based subtitle format used on BDs/HD-DVDs
Duration                                 : 1 h 50 min
Bit rate                                 : 2 668 b/s
Count of elements                        : 248
Stream size                              : 2.10 MiB (0%)
Title                                    : Czech-FORCED-PGS
Language                                 : Czech
Default                                  : No
Forced                                   : No

Text #26
ID                                       : 33
Format                                   : PGS
Muxing mode                              : zlib
Codec ID                                 : S_HDMV/PGS
Codec ID/Info                            : Picture based subtitle format used on BDs/HD-DVDs
Duration                                 : 1 h 50 min
Bit rate                                 : 16.9 kb/s
Count of elements                        : 1523
Stream size                              : 13.3 MiB (0%)
Title                                    : Polish-FORCED-PGS
Language                                 : Polish
Default                                  : No
Forced                                   : No

Menu
00:00:00.000                             : en:Chapter 1
00:05:47.638                             : en:Chapter 2
00:12:50.311                             : en:Chapter 3
00:16:08.759                             : en:Chapter 4
00:21:15.023                             : en:Chapter 5
00:26:25.792                             : en:Chapter 6
00:30:40.880                             : en:Chapter 7
00:34:09.547                             : en:Chapter 8
00:40:20.167                             : en:Chapter 9
00:47:31.306                             : en:Chapter 10
00:55:55.185                             : en:Chapter 11
01:02:25.450                             : en:Chapter 12
01:07:54.779                             : en:Chapter 13
01:12:18.917                             : en:Chapter 14
01:19:51.077                             : en:Chapter 15
01:24:01.036                             : en:Chapter 16
01:30:25.545                             : en:Chapter 17
01:37:01.982                             : en:Chapter 18
01:42:39.111                             : en:Chapter 19
01:45:33.160                             : en:Chapter 20


神奇绿巨人 / 绿巨人2 / 不可思议的绿巨人 / 新变形侠医 /无敌浩克4k The.Incredible.Hulk.2008.2160p.BluRay.HEVC.DTS-X.7.1 4K  UHD蓝光原盘电影下载

无敌浩克4k The.Incredible.Hulk.2008.2160p.BluRay.HEVC.DTS-X.7.1 (4K UHD 蓝光破解版 2160p 57.60GB )
游客,如果您要查看本帖隐藏内容请回复

无敌浩克4k The.Incredible.Hulk.2008.2160p.BluRay.HEVC.DTS-X.7.1 (4K UHD 蓝光破解版 2160p 57.60GB )
游客,如果您要查看本帖隐藏内容请回复

无敌浩克4k The.Incredible.Hulk.2008.2160p.BluRay.REMUX.HEVC.DTS-X.7.1 (4K UHD 蓝光破解版 2160p 53.14GB )
游客,如果您要查看本帖隐藏内容请回复

发表于 2018-4-6 02:18 | 显示全部楼层
额,看不懂在说神马~@_@
发表于 2018-4-6 03:06 | 显示全部楼层
Thanks a lot !
发表于 2018-4-6 03:06 | 显示全部楼层
Thanks a lot !
发表于 2018-4-6 03:14 | 显示全部楼层
感谢hao4k这个网站提供这么多4K视频资源,太棒了!
发表于 2018-4-6 03:14 | 显示全部楼层
支持hao4k发展,支持楼主在Hao4k发布4K视频资源。
发表于 2018-4-6 03:15 | 显示全部楼层
感谢hao4k这个网站提供这么多4K视频资源,太棒了!
发表于 2018-4-6 05:24 | 显示全部楼层
这个看看看也还行的
发表于 2018-4-6 06:03 | 显示全部楼层
感谢hao4k这个网站提供这么多4K视频资源,太棒了!
发表于 2018-4-6 06:03 | 显示全部楼层
感谢hao4k这个网站提供这么多4K视频资源,太棒了!
您需要登录后才可以回帖 登录 | 立即注册

本版积分规则

返回顶部 联系我们