发表于 2018-4-7 13:00 | 显示全部楼层 |阅读模式

片  名:马戏之王4k [下载地址在帖子底部]

  • 年  代:2017  
  • 国  家:美国 
  • 类  别:剧情 传记 歌舞 
  • 字  幕:英文原版
  • 上映日期:2017-12-20
  • 文件格式:mkv   m2ts   
  • 视频效果:4K(3840x2160)    
  • 文件大小:58.49GB
  • 片  长:105分钟
  • 导  演:迈克尔·格雷西
  • 豆瓣链接:https://movie.douban.com/subject/3914513/
  • 主  演:休·杰克曼 / 米歇尔·威廉姆斯 / 扎克·埃夫隆 / 赞达亚 / 丽贝卡·弗格森 / 奥丝汀·约翰森 / 卡梅伦·丝蕾 / 基拉·塞特尔 / 萨姆·汉弗莱 / 叶海亚·阿卜杜勒-迈丁 / 埃里克·安德森 / 伊利斯·鲁宾 / 斯凯勒·杜恩 / 丹尼尔·埃维里奇 / 拉杜·斯平格尔 / 小森优作 / 丹尼尔·松 / 保罗·斯帕克斯 / 威尔·斯文森

剧情简介

《马戏之王》取材自真人真事,好莱坞全能巨星休·杰克曼在片中饰演“马戏团鼻祖”、传奇人物P.T.巴纳姆。故事讲述了身处社会底层的巴纳姆依靠自己无穷想象力和锲而不舍的精神,从经营博物馆到一手开创世界上第一家马戏团的故事。巴纳姆的奇思妙想最开始并不被大众所认可,几乎没人花钱欣赏,他的家人好友帮他度过一次次绝境。在经历了一系列挫折、与合作伙伴的分歧之后,秉持梦想的他终于成为全美甚至全世界最为知名的“造梦大师”。

大娱乐家(港/台) / 地球最强秀 / 地球最强马戏演员 / 全球最伟大的马戏演员 / 大秀之王 / 马戏之王4k The. ...

大娱乐家(港/台) / 地球最强秀 / 地球最强马戏演员 / 全球最伟大的马戏演员 / 大秀之王 / 马戏之王4k  The. ...



大娱乐家(港/台) / 地球最强秀 / 地球最强马戏演员 / 全球最伟大的马戏演员 / 大秀之王 / 马戏之王4k  The.Greatest.Showman.2017.2160p.BluRay.HEVC.TrueHD.7.1.Atmos 4K  UHD蓝光原盘电影信息

第三百三十五部4K UHD 蓝光原盘破解版,含完整的 BDMV 文件夹以及数据,AACS 2.0 协议已被完整破解
DISC INFO:

Disc Title:     The.Greatest.Showman.2017.COMPLETE.UHD.BLURAY-OMFUG
Disc Size:      62,806,981,256 bytes
Protection:     AACS2
BD-Java:        Yes
Extras:         Ultra HD
BDInfo:         0.5.8.7 (compatible layout created by DVDFab 10.0.8.4)

PLAYLIST REPORT:

Name:                   00852.MPLS  
Length:                 1:44:49.282 (h:m:s.ms)
Size:                   61,183,358,976 bytes
Total Bitrate:          77.83 Mbps

VIDEO:

Codec                   Bitrate             Description     
-----                   -------             -----------     
MPEG-H HEVC Video       58156 kbps          2160p / 23.976 fps / 16:9 / Main 10 Profile 5.1 High / 4:2:0 / 10 bits / HDR / BT.2020 /

AUDIO:

Codec                           Language        Bitrate         Description     
-----                           --------        -------         -----------     
Dolby Atmos/TrueHD Audio        English         5212 kbps       7.1-Atmos / 48 kHz / 5212 kbps / 24-bit (AC3 Core: 5.1 / 48 kHz / 640 kbps)
DTS-HD Master Audio             English         2114 kbps       2.0 / 48 kHz / 2114 kbps / 24-bit (DTS Core: 2.0 / 48 kHz / 1509 kbps / 24-bit)
Dolby Digital Audio             English         448 kbps        5.1 / 48 kHz / 448 kbps
Dolby Digital Audio             Spanish         448 kbps        5.1 / 48 kHz / 448 kbps
DTS Audio                       French          768 kbps        5.1 / 48 kHz / 768 kbps / 24-bit
DTS Audio                       Spanish         768 kbps        5.1 / 48 kHz / 768 kbps / 24-bit
DTS Audio                       German          768 kbps        5.1 / 48 kHz / 768 kbps / 24-bit
DTS Audio                       Italian         768 kbps        5.1 / 48 kHz / 768 kbps / 24-bit
Dolby Digital Audio             Czech           448 kbps        5.1 / 48 kHz / 448 kbps
Dolby Digital Audio             Polish          448 kbps        5.1 / 48 kHz / 448 kbps
DTS Audio                       Japanese        768 kbps        5.1 / 48 kHz / 768 kbps / 24-bit
Dolby Digital Audio             English         224 kbps        2.0 / 48 kHz / 224 kbps

SUBTITLES:

Codec                           Language        Bitrate         Description     
-----                           --------        -------         -----------     
Presentation Graphics           English         50.869 kbps                     
Presentation Graphics           Spanish         38.544 kbps                     
Presentation Graphics           French          41.77 kbps                     
Presentation Graphics           French          32.673 kbps                     
Presentation Graphics           Spanish         37.66 kbps                     
Presentation Graphics           Danish          33.507 kbps                     
Presentation Graphics           Dutch           35.605 kbps                     
Presentation Graphics           Finnish         36.062 kbps                     
Presentation Graphics           German          40.826 kbps                     
Presentation Graphics           Italian         40.587 kbps                     
Presentation Graphics           Norwegian       38.891 kbps                     
Presentation Graphics           Swedish         39.338 kbps                     
Presentation Graphics           Chinese         30.205 kbps                     
Presentation Graphics           Czech           39.295 kbps                     
Presentation Graphics           Chinese         28.93 kbps                     
Presentation Graphics           Polish          33.984 kbps                     
Presentation Graphics           English         50.056 kbps                     
Presentation Graphics           Spanish         50.332 kbps                     
Presentation Graphics           French          46.88 kbps                     
Presentation Graphics           Spanish         47.925 kbps                     
Presentation Graphics           Danish          41.72 kbps                     
Presentation Graphics           Dutch           47.912 kbps                     
Presentation Graphics           Finnish         44.404 kbps                     
Presentation Graphics           German          50.6 kbps                       
Presentation Graphics           Italian         47.157 kbps                     
Presentation Graphics           Norwegian       45.846 kbps                     
Presentation Graphics           Swedish         46.555 kbps                     
Presentation Graphics           Japanese        22.411 kbps                     
Presentation Graphics           Japanese        9.659 kbps                     
Presentation Graphics           Japanese        28.906 kbps                     
Presentation Graphics           English         164.996 kbps            
REMUX
Video
ID                                       : 1
Format                                   : HEVC
Format/Info                              : High Efficiency Video Coding
Format profile                           : Main 10@L5.1@High
Codec ID                                 : V_MPEGH/ISO/HEVC
Duration                                 : 1 h 44 min
Bit rate                                 : 58.2 Mb/s
Width                                    : 3 840 pixels
Height                                   : 2 160 pixels
Display aspect ratio                     : 16:9
Frame rate mode                          : Constant
Frame rate                               : 23.976 (24000/1001) FPS
Color space                              : YUV
Chroma subsampling                       : 4:2:0 (Type 2)
Bit depth                                : 10 bits
Bits/(Pixel*Frame)                       : 0.292
Stream size                              : 42.6 GiB (76%)
Title                                    : The.Greatest.Showman.2017.2160p.BluRay.REMUX.HEVC.DTS-HD.MA.TrueHD.7.1.Atmos-FGT
Default                                  : Yes
Forced                                   : No
Color range                              : Limited
Color primaries                          : BT.2020
Transfer characteristics                 : PQ
Matrix coefficients                      : BT.2020 non-constant
Mastering display color primaries        : Display P3
Mastering display luminance              : min: 0.0050 cd/m2, max: 1000 cd/m2

Audio #1
ID                                       : 2
Format                                   : TrueHD
Format profile                           : TrueHD+Atmos / TrueHD
Codec ID                                 : A_TRUEHD
Duration                                 : 1 h 44 min
Bit rate mode                            : Variable
Bit rate                                 : 4 572 kb/s
Maximum bit rate                         : 7 779 kb/s
Channel(s)                               : Object Based / 8 channels
Channel positions                        : Object Based / Front: L C R, Side: L R, Back: L R, LFE
Sampling rate                            :  / 48.0 kHz
Frame rate                               : 1 200.000 FPS (40 SPF)
Compression mode                         : Lossless
Stream size                              : 3.35 GiB (6%)
Title                                    : The.Greatest.Showman.2017.2160p.BluRay.REMUX.HEVC.DTS-HD.MA.TrueHD.7.1.Atmos-FGT
Language                                 : English
Default                                  : Yes
Forced                                   : No

Audio #2
ID                                       : 3
Format                                   : DTS
Format/Info                              : Digital Theater Systems
Format profile                           : MA / Core
Codec ID                                 : A_DTS
Duration                                 : 1 h 44 min
Bit rate mode                            : Variable / Constant
Bit rate                                 : 4 427 kb/s / 1 509 kb/s
Channel(s)                               : 8 channels / 6 channels
Channel positions                        : Front: L C R, Side: L R, Back: L R, LFE / Front: L C R, Side: L R, LFE
Sampling rate                            : 48.0 kHz
Frame rate                               : 93.750 FPS (512 SPF)
Bit depth                                : 24 bits
Compression mode                         : Lossless / Lossy
Stream size                              : 3.24 GiB (6%)
Title                                    : The.Greatest.Showman.2017.2160p.BluRay.REMUX.HEVC.DTS-HD.MA.TrueHD.7.1.Atmos-FGT
Language                                 : English
Default                                  : No
Forced                                   : No

Audio #3
ID                                       : 4
Format                                   : AC-3
Format/Info                              : Audio Coding 3
Codec ID                                 : A_AC3
Duration                                 : 1 h 44 min
Bit rate mode                            : Constant
Bit rate                                 : 640 kb/s
Channel(s)                               : 6 channels
Channel positions                        : Front: L C R, Side: L R, LFE
Sampling rate                            : 48.0 kHz
Frame rate                               : 31.250 FPS (1536 SPF)
Bit depth                                : 16 bits
Compression mode                         : Lossy
Stream size                              : 480 MiB (1%)
Title                                    : The.Greatest.Showman.2017.2160p.BluRay.REMUX.HEVC.DTS-HD.MA.TrueHD.7.1.Atmos-FGT
Language                                 : English
Service kind                             : Complete Main
Default                                  : No
Forced                                   : No

Audio #4
ID                                       : 5
Format                                   : DTS
Format/Info                              : Digital Theater Systems
Format profile                           : MA / Core
Codec ID                                 : A_DTS
Duration                                 : 1 h 44 min
Bit rate mode                            : Variable / Constant
Bit rate                                 : 2 114 kb/s / 1 509 kb/s
Channel(s)                               : 2 channels
Channel positions                        : Front: L R
Sampling rate                            : 48.0 kHz
Frame rate                               : 93.750 FPS (512 SPF)
Bit depth                                : 24 bits
Compression mode                         : Lossless / Lossy
Stream size                              : 1.55 GiB (3%)
Title                                    : The.Greatest.Showman.2017.2160p.BluRay.REMUX.HEVC.DTS-HD.MA.TrueHD.7.1.Atmos-FGT
Language                                 : English
Default                                  : No
Forced                                   : No

Audio #5
ID                                       : 6
Format                                   : AC-3
Format/Info                              : Audio Coding 3
Codec ID                                 : A_AC3
Duration                                 : 1 h 44 min
Bit rate mode                            : Constant
Bit rate                                 : 448 kb/s
Channel(s)                               : 6 channels
Channel positions                        : Front: L C R, Side: L R, LFE
Sampling rate                            : 48.0 kHz
Frame rate                               : 31.250 FPS (1536 SPF)
Bit depth                                : 16 bits
Compression mode                         : Lossy
Delay relative to video                  : 14 ms
Stream size                              : 336 MiB (1%)
Title                                    : The.Greatest.Showman.2017.2160p.BluRay.REMUX.HEVC.DTS-HD.MA.TrueHD.7.1.Atmos-FGT
Language                                 : English
Service kind                             : Complete Main
Default                                  : No
Forced                                   : No

Audio #6
ID                                       : 7
Format                                   : AC-3
Format/Info                              : Audio Coding 3
Codec ID                                 : A_AC3
Duration                                 : 1 h 44 min
Bit rate mode                            : Constant
Bit rate                                 : 448 kb/s
Channel(s)                               : 6 channels
Channel positions                        : Front: L C R, Side: L R, LFE
Sampling rate                            : 48.0 kHz
Frame rate                               : 31.250 FPS (1536 SPF)
Bit depth                                : 16 bits
Compression mode                         : Lossy
Delay relative to video                  : 14 ms
Stream size                              : 336 MiB (1%)
Title                                    : The.Greatest.Showman.2017.2160p.BluRay.REMUX.HEVC.DTS-HD.MA.TrueHD.7.1.Atmos-FGT
Language                                 : Spanish
Service kind                             : Complete Main
Default                                  : No
Forced                                   : No

Audio #7
ID                                       : 8
Format                                   : DTS
Format/Info                              : Digital Theater Systems
Codec ID                                 : A_DTS
Duration                                 : 1 h 44 min
Bit rate mode                            : Constant
Bit rate                                 : 768 kb/s
Channel(s)                               : 6 channels
Channel positions                        : Front: L C R, Side: L R, LFE
Sampling rate                            : 48.0 kHz
Frame rate                               : 93.750 FPS (512 SPF)
Bit depth                                : 24 bits
Compression mode                         : Lossy
Stream size                              : 576 MiB (1%)
Title                                    : The.Greatest.Showman.2017.2160p.BluRay.REMUX.HEVC.DTS-HD.MA.TrueHD.7.1.Atmos-FGT
Language                                 : French
Default                                  : No
Forced                                   : No

Audio #8
ID                                       : 9
Format                                   : DTS
Format/Info                              : Digital Theater Systems
Codec ID                                 : A_DTS
Duration                                 : 1 h 44 min
Bit rate mode                            : Constant
Bit rate                                 : 768 kb/s
Channel(s)                               : 6 channels
Channel positions                        : Front: L C R, Side: L R, LFE
Sampling rate                            : 48.0 kHz
Frame rate                               : 93.750 FPS (512 SPF)
Bit depth                                : 24 bits
Compression mode                         : Lossy
Stream size                              : 576 MiB (1%)
Title                                    : The.Greatest.Showman.2017.2160p.BluRay.REMUX.HEVC.DTS-HD.MA.TrueHD.7.1.Atmos-FGT
Language                                 : Spanish
Default                                  : No
Forced                                   : No

Audio #9
ID                                       : 10
Format                                   : DTS
Format/Info                              : Digital Theater Systems
Codec ID                                 : A_DTS
Duration                                 : 1 h 44 min
Bit rate mode                            : Constant
Bit rate                                 : 768 kb/s
Channel(s)                               : 6 channels
Channel positions                        : Front: L C R, Side: L R, LFE
Sampling rate                            : 48.0 kHz
Frame rate                               : 93.750 FPS (512 SPF)
Bit depth                                : 24 bits
Compression mode                         : Lossy
Stream size                              : 576 MiB (1%)
Title                                    : The.Greatest.Showman.2017.2160p.BluRay.REMUX.HEVC.DTS-HD.MA.TrueHD.7.1.Atmos-FGT
Language                                 : German
Default                                  : No
Forced                                   : No

Audio #10
ID                                       : 11
Format                                   : DTS
Format/Info                              : Digital Theater Systems
Codec ID                                 : A_DTS
Duration                                 : 1 h 44 min
Bit rate mode                            : Constant
Bit rate                                 : 768 kb/s
Channel(s)                               : 6 channels
Channel positions                        : Front: L C R, Side: L R, LFE
Sampling rate                            : 48.0 kHz
Frame rate                               : 93.750 FPS (512 SPF)
Bit depth                                : 24 bits
Compression mode                         : Lossy
Stream size                              : 576 MiB (1%)
Title                                    : The.Greatest.Showman.2017.2160p.BluRay.REMUX.HEVC.DTS-HD.MA.TrueHD.7.1.Atmos-FGT
Language                                 : Italian
Default                                  : No
Forced                                   : No

Audio #11
ID                                       : 12
Format                                   : AC-3
Format/Info                              : Audio Coding 3
Codec ID                                 : A_AC3
Duration                                 : 1 h 44 min
Bit rate mode                            : Constant
Bit rate                                 : 448 kb/s
Channel(s)                               : 6 channels
Channel positions                        : Front: L C R, Side: L R, LFE
Sampling rate                            : 48.0 kHz
Frame rate                               : 31.250 FPS (1536 SPF)
Bit depth                                : 16 bits
Compression mode                         : Lossy
Delay relative to video                  : 14 ms
Stream size                              : 336 MiB (1%)
Title                                    : The.Greatest.Showman.2017.2160p.BluRay.REMUX.HEVC.DTS-HD.MA.TrueHD.7.1.Atmos-FGT
Language                                 : Czech
Service kind                             : Complete Main
Default                                  : No
Forced                                   : No

Audio #12
ID                                       : 13
Format                                   : AC-3
Format/Info                              : Audio Coding 3
Codec ID                                 : A_AC3
Duration                                 : 1 h 44 min
Bit rate mode                            : Constant
Bit rate                                 : 448 kb/s
Channel(s)                               : 6 channels
Channel positions                        : Front: L C R, Side: L R, LFE
Sampling rate                            : 48.0 kHz
Frame rate                               : 31.250 FPS (1536 SPF)
Bit depth                                : 16 bits
Compression mode                         : Lossy
Delay relative to video                  : 14 ms
Stream size                              : 336 MiB (1%)
Title                                    : The.Greatest.Showman.2017.2160p.BluRay.REMUX.HEVC.DTS-HD.MA.TrueHD.7.1.Atmos-FGT
Language                                 : Polish
Service kind                             : Complete Main
Default                                  : No
Forced                                   : No

Audio #13
ID                                       : 14
Format                                   : DTS
Format/Info                              : Digital Theater Systems
Codec ID                                 : A_DTS
Duration                                 : 1 h 44 min
Bit rate mode                            : Constant
Bit rate                                 : 768 kb/s
Channel(s)                               : 6 channels
Channel positions                        : Front: L C R, Side: L R, LFE
Sampling rate                            : 48.0 kHz
Frame rate                               : 93.750 FPS (512 SPF)
Bit depth                                : 24 bits
Compression mode                         : Lossy
Stream size                              : 576 MiB (1%)
Title                                    : The.Greatest.Showman.2017.2160p.BluRay.REMUX.HEVC.DTS-HD.MA.TrueHD.7.1.Atmos-FGT
Language                                 : Japanese
Default                                  : No
Forced                                   : No

Audio #14
ID                                       : 15
Format                                   : AC-3
Format/Info                              : Audio Coding 3
Codec ID                                 : A_AC3
Duration                                 : 1 h 44 min
Bit rate mode                            : Constant
Bit rate                                 : 224 kb/s
Channel(s)                               : 2 channels
Channel positions                        : Front: L R
Sampling rate                            : 48.0 kHz
Frame rate                               : 31.250 FPS (1536 SPF)
Bit depth                                : 16 bits
Compression mode                         : Lossy
Delay relative to video                  : 14 ms
Stream size                              : 168 MiB (0%)
Title                                    : The.Greatest.Showman.2017.2160p.BluRay.REMUX.HEVC.DTS-HD.MA.TrueHD.7.1.Atmos-FGT
Language                                 : English
Service kind                             : Complete Main
Default                                  : No
Forced                                   : No

Text #1
ID                                       : 16
Format                                   : PGS
Muxing mode                              : zlib
Codec ID                                 : S_HDMV/PGS
Codec ID/Info                            : Picture based subtitle format used on BDs/HD-DVDs
Duration                                 : 1 h 43 min
Bit rate                                 : 51.5 kb/s
Count of elements                        : 3728
Stream size                              : 38.1 MiB (0%)
Title                                    : English-PGS
Language                                 : English
Default                                  : Yes
Forced                                   : No

Text #2
ID                                       : 17
Format                                   : PGS
Muxing mode                              : zlib
Codec ID                                 : S_HDMV/PGS
Codec ID/Info                            : Picture based subtitle format used on BDs/HD-DVDs
Duration                                 : 1 h 43 min
Bit rate                                 : 38.9 kb/s
Count of elements                        : 2932
Stream size                              : 28.9 MiB (0%)
Title                                    : Spanish-PGS
Language                                 : Spanish
Default                                  : No
Forced                                   : No

Text #3
ID                                       : 18
Format                                   : PGS
Muxing mode                              : zlib
Codec ID                                 : S_HDMV/PGS
Codec ID/Info                            : Picture based subtitle format used on BDs/HD-DVDs
Duration                                 : 1 h 44 min
Bit rate                                 : 41.9 kb/s
Count of elements                        : 3367
Stream size                              : 31.3 MiB (0%)
Title                                    : French-PGS
Language                                 : French
Default                                  : No
Forced                                   : No

Text #4
ID                                       : 19
Format                                   : PGS
Muxing mode                              : zlib
Codec ID                                 : S_HDMV/PGS
Codec ID/Info                            : Picture based subtitle format used on BDs/HD-DVDs
Duration                                 : 1 h 43 min
Bit rate                                 : 33.0 kb/s
Count of elements                        : 2706
Stream size                              : 24.5 MiB (0%)
Title                                    : French-PGS
Language                                 : French
Default                                  : No
Forced                                   : No

Text #5
ID                                       : 20
Format                                   : PGS
Muxing mode                              : zlib
Codec ID                                 : S_HDMV/PGS
Codec ID/Info                            : Picture based subtitle format used on BDs/HD-DVDs
Duration                                 : 1 h 43 min
Bit rate                                 : 38.0 kb/s
Count of elements                        : 2984
Stream size                              : 28.2 MiB (0%)
Title                                    : Spanish-PGS
Language                                 : Spanish
Default                                  : No
Forced                                   : No

Text #6
ID                                       : 21
Format                                   : PGS
Muxing mode                              : zlib
Codec ID                                 : S_HDMV/PGS
Codec ID/Info                            : Picture based subtitle format used on BDs/HD-DVDs
Duration                                 : 1 h 43 min
Bit rate                                 : 33.8 kb/s
Count of elements                        : 2254
Stream size                              : 25.1 MiB (0%)
Title                                    : Danish-PGS
Language                                 : Danish
Default                                  : No
Forced                                   : No

Text #7
ID                                       : 22
Format                                   : PGS
Muxing mode                              : zlib
Codec ID                                 : S_HDMV/PGS
Codec ID/Info                            : Picture based subtitle format used on BDs/HD-DVDs
Duration                                 : 1 h 43 min
Bit rate                                 : 36.0 kb/s
Count of elements                        : 2556
Stream size                              : 26.7 MiB (0%)
Title                                    : Dutch-PGS
Language                                 : Dutch
Default                                  : No
Forced                                   : No

Text #8
ID                                       : 23
Format                                   : PGS
Muxing mode                              : zlib
Codec ID                                 : S_HDMV/PGS
Codec ID/Info                            : Picture based subtitle format used on BDs/HD-DVDs
Duration                                 : 1 h 43 min
Bit rate                                 : 36.4 kb/s
Count of elements                        : 2964
Stream size                              : 27.0 MiB (0%)
Title                                    : Finnish-PGS
Language                                 : Finnish
Default                                  : No
Forced                                   : No

Text #9
ID                                       : 24
Format                                   : PGS
Muxing mode                              : zlib
Codec ID                                 : S_HDMV/PGS
Codec ID/Info                            : Picture based subtitle format used on BDs/HD-DVDs
Duration                                 : 1 h 43 min
Bit rate                                 : 41.2 kb/s
Count of elements                        : 2602
Stream size                              : 30.6 MiB (0%)
Title                                    : German-PGS
Language                                 : German
Default                                  : No
Forced                                   : No

Text #10
ID                                       : 25
Format                                   : PGS
Muxing mode                              : zlib
Codec ID                                 : S_HDMV/PGS
Codec ID/Info                            : Picture based subtitle format used on BDs/HD-DVDs
Duration                                 : 1 h 43 min
Bit rate                                 : 41.0 kb/s
Count of elements                        : 2948
Stream size                              : 30.4 MiB (0%)
Title                                    : Italian-PGS
Language                                 : Italian
Default                                  : No
Forced                                   : No

Text #11
ID                                       : 26
Format                                   : PGS
Muxing mode                              : zlib
Codec ID                                 : S_HDMV/PGS
Codec ID/Info                            : Picture based subtitle format used on BDs/HD-DVDs
Duration                                 : 1 h 43 min
Bit rate                                 : 39.3 kb/s
Count of elements                        : 2978
Stream size                              : 29.2 MiB (0%)
Title                                    : Norwegian-PGS
Language                                 : Norwegian
Default                                  : No
Forced                                   : No

Text #12
ID                                       : 27
Format                                   : PGS
Muxing mode                              : zlib
Codec ID                                 : S_HDMV/PGS
Codec ID/Info                            : Picture based subtitle format used on BDs/HD-DVDs
Duration                                 : 1 h 43 min
Bit rate                                 : 39.7 kb/s
Count of elements                        : 2966
Stream size                              : 29.5 MiB (0%)
Title                                    : Swedish-PGS
Language                                 : Swedish
Default                                  : No
Forced                                   : No

Text #13
ID                                       : 28
Format                                   : PGS
Muxing mode                              : zlib
Codec ID                                 : S_HDMV/PGS
Codec ID/Info                            : Picture based subtitle format used on BDs/HD-DVDs
Duration                                 : 1 h 43 min
Bit rate                                 : 30.5 kb/s
Count of elements                        : 3018
Stream size                              : 22.6 MiB (0%)
Title                                    : Chinese-PGS
Language                                 : Chinese
Default                                  : No
Forced                                   : No

Text #14
ID                                       : 29
Format                                   : PGS
Muxing mode                              : zlib
Codec ID                                 : S_HDMV/PGS
Codec ID/Info                            : Picture based subtitle format used on BDs/HD-DVDs
Duration                                 : 1 h 44 min
Bit rate                                 : 39.4 kb/s
Count of elements                        : 3032
Stream size                              : 29.5 MiB (0%)
Title                                    : Czech-PGS
Language                                 : Czech
Default                                  : No
Forced                                   : No

Text #15
ID                                       : 30
Format                                   : PGS
Muxing mode                              : zlib
Codec ID                                 : S_HDMV/PGS
Codec ID/Info                            : Picture based subtitle format used on BDs/HD-DVDs
Duration                                 : 1 h 43 min
Bit rate                                 : 29.2 kb/s
Count of elements                        : 2994
Stream size                              : 21.7 MiB (0%)
Title                                    : Chinese-PGS
Language                                 : Chinese
Default                                  : No
Forced                                   : No

Text #16
ID                                       : 31
Format                                   : PGS
Muxing mode                              : zlib
Codec ID                                 : S_HDMV/PGS
Codec ID/Info                            : Picture based subtitle format used on BDs/HD-DVDs
Duration                                 : 1 h 43 min
Bit rate                                 : 34.3 kb/s
Count of elements                        : 2852
Stream size                              : 25.5 MiB (0%)
Title                                    : Polish-PGS
Language                                 : Polish
Default                                  : No
Forced                                   : No

Text #17
ID                                       : 32
Format                                   : PGS
Muxing mode                              : zlib
Codec ID                                 : S_HDMV/PGS
Codec ID/Info                            : Picture based subtitle format used on BDs/HD-DVDs
Duration                                 : 1 h 36 min
Bit rate                                 : 54.2 kb/s
Count of elements                        : 2359
Stream size                              : 37.5 MiB (0%)
Title                                    : English-COMMENTARY-PGS
Language                                 : English
Default                                  : No
Forced                                   : No

Text #18
ID                                       : 33
Format                                   : PGS
Muxing mode                              : zlib
Codec ID                                 : S_HDMV/PGS
Codec ID/Info                            : Picture based subtitle format used on BDs/HD-DVDs
Duration                                 : 1 h 44 min
Bit rate                                 : 50.4 kb/s
Count of elements                        : 2488
Stream size                              : 37.7 MiB (0%)
Title                                    : Spanish-COMMENTARY-PGS
Language                                 : Spanish
Default                                  : No
Forced                                   : No

Text #19
ID                                       : 34
Format                                   : PGS
Muxing mode                              : zlib
Codec ID                                 : S_HDMV/PGS
Codec ID/Info                            : Picture based subtitle format used on BDs/HD-DVDs
Duration                                 : 1 h 44 min
Bit rate                                 : 47.0 kb/s
Count of elements                        : 2379
Stream size                              : 35.1 MiB (0%)
Title                                    : French-COMMENTARY-PGS
Language                                 : French
Default                                  : No
Forced                                   : No

Text #20
ID                                       : 35
Format                                   : PGS
Muxing mode                              : zlib
Codec ID                                 : S_HDMV/PGS
Codec ID/Info                            : Picture based subtitle format used on BDs/HD-DVDs
Duration                                 : 1 h 44 min
Bit rate                                 : 48.0 kb/s
Count of elements                        : 2377
Stream size                              : 35.9 MiB (0%)
Title                                    : Spanish-COMMENTARY-PGS
Language                                 : Spanish
Default                                  : No
Forced                                   : No

Text #21
ID                                       : 36
Format                                   : PGS
Muxing mode                              : zlib
Codec ID                                 : S_HDMV/PGS
Codec ID/Info                            : Picture based subtitle format used on BDs/HD-DVDs
Duration                                 : 1 h 44 min
Bit rate                                 : 41.8 kb/s
Count of elements                        : 2370
Stream size                              : 31.3 MiB (0%)
Title                                    : Danish-COMMENTARY-PGS
Language                                 : Danish
Default                                  : No
Forced                                   : No

Text #22
ID                                       : 37
Format                                   : PGS
Muxing mode                              : zlib
Codec ID                                 : S_HDMV/PGS
Codec ID/Info                            : Picture based subtitle format used on BDs/HD-DVDs
Duration                                 : 1 h 44 min
Bit rate                                 : 48.0 kb/s
Count of elements                        : 2372
Stream size                              : 35.9 MiB (0%)
Title                                    : Dutch-COMMENTARY-PGS
Language                                 : Dutch
Default                                  : No
Forced                                   : No

Text #23
ID                                       : 38
Format                                   : PGS
Muxing mode                              : zlib
Codec ID                                 : S_HDMV/PGS
Codec ID/Info                            : Picture based subtitle format used on BDs/HD-DVDs
Duration                                 : 1 h 44 min
Bit rate                                 : 44.5 kb/s
Count of elements                        : 2372
Stream size                              : 33.3 MiB (0%)
Title                                    : Finnish-COMMENTARY-PGS
Language                                 : Finnish
Default                                  : No
Forced                                   : No

Text #24
ID                                       : 39
Format                                   : PGS
Muxing mode                              : zlib
Codec ID                                 : S_HDMV/PGS
Codec ID/Info                            : Picture based subtitle format used on BDs/HD-DVDs
Duration                                 : 1 h 44 min
Bit rate                                 : 50.7 kb/s
Count of elements                        : 2377
Stream size                              : 37.9 MiB (0%)
Title                                    : German-COMMENTARY-PGS
Language                                 : German
Default                                  : No
Forced                                   : No

Text #25
ID                                       : 40
Format                                   : PGS
Muxing mode                              : zlib
Codec ID                                 : S_HDMV/PGS
Codec ID/Info                            : Picture based subtitle format used on BDs/HD-DVDs
Duration                                 : 1 h 44 min
Bit rate                                 : 47.3 kb/s
Count of elements                        : 2372
Stream size                              : 35.4 MiB (0%)
Title                                    : Italian-COMMENTARY-PGS
Language                                 : Italian
Default                                  : No
Forced                                   : No

Text #26
ID                                       : 41
Format                                   : PGS
Muxing mode                              : zlib
Codec ID                                 : S_HDMV/PGS
Codec ID/Info                            : Picture based subtitle format used on BDs/HD-DVDs
Duration                                 : 1 h 44 min
Bit rate                                 : 45.9 kb/s
Count of elements                        : 2372
Stream size                              : 34.4 MiB (0%)
Title                                    : Norwegian-COMMENTARY-PGS
Language                                 : Norwegian
Default                                  : No
Forced                                   : No

Text #27
ID                                       : 42
Format                                   : PGS
Muxing mode                              : zlib
Codec ID                                 : S_HDMV/PGS
Codec ID/Info                            : Picture based subtitle format used on BDs/HD-DVDs
Duration                                 : 1 h 44 min
Bit rate                                 : 46.6 kb/s
Count of elements                        : 2370
Stream size                              : 34.9 MiB (0%)
Title                                    : Swedish-COMMENTARY-PGS
Language                                 : Swedish
Default                                  : No
Forced                                   : No

Text #28
ID                                       : 43
Format                                   : PGS
Muxing mode                              : zlib
Codec ID                                 : S_HDMV/PGS
Codec ID/Info                            : Picture based subtitle format used on BDs/HD-DVDs
Duration                                 : 1 h 43 min
Bit rate                                 : 22.6 kb/s
Count of elements                        : 2670
Stream size                              : 16.8 MiB (0%)
Title                                    : Japanese-PGS
Language                                 : Japanese
Default                                  : No
Forced                                   : No

Text #29
ID                                       : 44
Format                                   : PGS
Muxing mode                              : zlib
Codec ID                                 : S_HDMV/PGS
Codec ID/Info                            : Picture based subtitle format used on BDs/HD-DVDs
Duration                                 : 1 h 36 min
Bit rate                                 : 10.5 kb/s
Count of elements                        : 1028
Stream size                              : 7.24 MiB (0%)
Title                                    : Japanese-FORCED-PGS
Language                                 : Japanese
Default                                  : No
Forced                                   : No

Text #30
ID                                       : 45
Format                                   : PGS
Muxing mode                              : zlib
Codec ID                                 : S_HDMV/PGS
Codec ID/Info                            : Picture based subtitle format used on BDs/HD-DVDs
Duration                                 : 1 h 44 min
Bit rate                                 : 29.0 kb/s
Count of elements                        : 1950
Stream size                              : 21.7 MiB (0%)
Title                                    : Japanese-PGS
Language                                 : Japanese
Default                                  : No
Forced                                   : No

Text #31
ID                                       : 46
Format                                   : PGS
Muxing mode                              : zlib
Codec ID                                 : S_HDMV/PGS
Codec ID/Info                            : Picture based subtitle format used on BDs/HD-DVDs
Duration                                 : 1 h 43 min
Bit rate                                 : 167 kb/s
Count of elements                        : 5256
Stream size                              : 124 MiB (0%)
Title                                    : English
Language                                 : English
Default                                  : No
Forced                                   : No

Menu
00:00:00.000                             : en:Chapter 1
00:03:21.618                             : en:Chapter 2
00:11:33.984                             : en:Chapter 3
00:16:21.313                             : en:Chapter 4
00:21:13.730                             : en:Chapter 5
00:25:04.169                             : en:Chapter 6
00:32:10.178                             : en:Chapter 7
00:36:09.625                             : en:Chapter 8
00:41:38.412                             : en:Chapter 9
00:44:41.053                             : en:Chapter 10
00:48:24.151                             : en:Chapter 11
00:53:11.146                             : en:Chapter 12
00:56:20.710                             : en:Chapter 13
01:01:34.816                             : en:Chapter 14
01:07:33.883                             : en:Chapter 15
01:12:00.983                             : en:Chapter 16
01:18:23.699                             : en:Chapter 17
01:22:07.130                             : en:Chapter 18
01:29:04.797                             : en:Chapter 19
01:37:09.448                             : en:Chapter 20



大娱乐家(港/台) / 地球最强秀 / 地球最强马戏演员 / 全球最伟大的马戏演员 / 大秀之王 / 马戏之王4k  The.Greatest.Showman.2017.2160p.BluRay.HEVC.TrueHD.7.1.Atmos 4K  UHD蓝光原盘电影下载

马戏之王4k  The.Greatest.Showman.2017.2160p.BluRay.HEVC.TrueHD.7.1.Atmos-OMFUG  (4K UHD 蓝光破解版 2160p 58.49GB )
游客,如果您要查看本帖隐藏内容请回复

马戏之王4k  The.Greatest.Showman.2017.2160p.BluRay.REMUX.HEVC.DTS-HD.MA.TrueHD.7.1.Atmos-FGT (4K UHD 蓝光破解版 2160p 55.95GB )
游客,如果您要查看本帖隐藏内容请回复

马戏之王4k  The.Greatest.Showman.2017.2160p.BluRay.x265.10bit.HDR.TrueHD.7.1.Atmos-EMERALD  (4K UHD 蓝光破解版 2160p 14.10GB )
游客,如果您要查看本帖隐藏内容请回复

点评

迅雷下载 , 任务出错!!!  发表于 2018-4-17 01:46
发表于 2018-4-7 13:01 来自手机 | 显示全部楼层
支持,楼下的跟上哈~
发表于 2018-4-7 13:16 | 显示全部楼层
资源不错,Hao4k果然是最大4K资源网站,感激Hao4k论坛。
发表于 2018-4-7 13:17 | 显示全部楼层
感谢分享精彩电影
发表于 2018-4-7 13:19 | 显示全部楼层
支持hao4k发展,支持楼主在Hao4k发布4K视频资源。
发表于 2018-4-7 13:22 | 显示全部楼层
不错不错看看
发表于 2018-4-7 13:22 | 显示全部楼层
感谢hao4k这个网站提供这么多4K视频资源,太棒了!
发表于 2018-4-7 13:28 | 显示全部楼层
感谢hao4k这个网站提供这么多4K视频资源,太棒了!
发表于 2018-4-7 13:32 | 显示全部楼层
这个主人公结局很好。
发表于 2018-4-7 13:33 | 显示全部楼层
K币不够,谁能送我点K币啊::>_<::
您需要登录后才可以回帖 登录 | 立即注册

本版积分规则

返回顶部 联系我们