发表于 2018-4-10 19:55 | 显示全部楼层 |阅读模式

片  名:底特律4k [下载地址在帖子底部]

  • 年  代:2017  
  • 国  家:美国 
  • 类  别:犯罪 剧情 历史 
  • 字  幕:英文原版
  • 上映日期:2017-08-04
  • 文件格式:mkv   m2ts   
  • 视频效果:4K(3840x2160)    
  • 文件大小:83.55GB
  • 片  长:143分钟
  • 导  演:凯瑟琳·毕格罗
  • 豆瓣链接:https://movie.douban.com/subject/26718836/
  • 主  演:约翰·博耶加 / 威尔·保尔特 / 阿尔吉·史密斯 / 雅各布·拉提摩尔 / 杰森·米切尔 / 汉娜·穆雷 / 杰克·莱诺 / 凯特琳·德弗 / 本·奥图尔 / 约翰·卡拉辛斯基 / 安东尼·麦凯 / 内森·戴维斯 / 佩顿·亚历克斯·史密斯 / 马尔科姆·大卫·凯利 / 约瑟夫·戴维-琼斯 / 拉兹·阿隆索 / 伊弗雷姆·赛克斯 / 莱昂·托马斯三世 / 格本加·阿金纳格贝 / 克里斯·乔克 / 杰瑞米·斯特朗 / 萨米拉·威利 / 泰勒·詹姆斯·威廉姆

剧情简介

《拆弹部队》(The Hurt Locker)和《刺杀本拉登》(Zero Dark Thirty)导演凯瑟琳·毕格罗(Kathryn Bigelow)即将和《拆弹部队》编剧马克·鲍尔(Mark Boal)再度合作,拍摄一部讲述1967年底特律黑人骚乱的电影。
  该片目前暂无片名,计划三月开始选角,今年夏天开机拍摄。
  1967年的底特律黑人骚乱是美国历史上破坏性最大的种族骚乱之一,起因是警察7月23日凌晨进入黑人区一家酒馆逮捕黑人。这次执法行动引发黑人不满,他们闻讯而来向警察投掷石块和砖头。
  后来警方增援到来,强行驱散黑人,但适得其反,黑人越聚越多最终引发波及全城的大规模骚动。这场骚乱持续了五天,造成43人死亡,许多建筑被毁、许多人受伤。骚乱还蔓延到伊利诺伊、北卡罗来纳、田纳西、马里兰州。
  这部电影计划在这场骚乱50周年,也就是2017年上映。

http://www.hao4k.com/forum.php?mod=post&action=newthread&fid=2

http://www.hao4k.com/forum.php?mod=post&action=newthread&fid=2


底特律暴乱/底特律4k Detroit.2017.2160p.BluRay.HEVC.DTS-HD.MA.5.1  4K  UHD蓝光原盘电影信息

第三百三十六部4K UHD 蓝光原盘破解版,含完整的 BDMV 文件夹以及数据,AACS 2.0 协议已被完整破解

DISC INFO:

Disc Title:     Detroit.2017.2160p.BluRay.HEVC.DTS-HD.MA.5.1-PRECELL
Disc Size:      89,710,888,281 bytes
Protection:     AACS2
BD-Java:        No
Extras:         Ultra HD
BDInfo:         0.5.8.7 (compatible layout created by DVDFab 10.0.8.4)

PLAYLIST REPORT:

Name:                   00002.MPLS  
Length:                 2:24:12.602 (h:m:s.ms)
Size:                   84,261,574,656 bytes
Total Bitrate:          77.91 Mbps

VIDEO:

Codec                   Bitrate             Description     
-----                   -------             -----------     
MPEG-H HEVC Video       69999 kbps          2160p / 23.976 fps / 16:9 / Main 10 Profile 5.1 High / 4:2:0 / 10 bits / HDR / BT.2020 /

AUDIO:

Codec                           Language        Bitrate         Description     
-----                           --------        -------         -----------     
Dolby Digital Audio             German          224 kbps        2.0 / 48 kHz / 224 kbps
DTS-HD Master Audio             German          1933 kbps       5.1 / 48 kHz / 1933 kbps / 16-bit (DTS Core: 5.1 / 48 kHz / 1509 kbps / 16-bit)
DTS-HD Master Audio             English         1903 kbps       5.1 / 48 kHz / 1903 kbps / 16-bit (DTS Core: 5.1 / 48 kHz / 1509 kbps / 16-bit)

SUBTITLES:

Codec                           Language        Bitrate         Description     
-----                           --------        -------         -----------     
Presentation Graphics           German          33.641 kbps                     
Presentation Graphics           German          30.687 kbps                     
Presentation Graphics           German          1.898 kbps                     
Presentation Graphics           English         1.151 kbps                  
REMUX
Video
ID                                       : 1
Format                                   : HEVC
Format/Info                              : High Efficiency Video Coding
Format profile                           : Main 10@L5.1@High
Codec ID                                 : V_MPEGH/ISO/HEVC
Duration                                 : 2 h 24 min
Bit rate                                 : 70.0 Mb/s
Width                                    : 3 840 pixels
Height                                   : 2 160 pixels
Display aspect ratio                     : 16:9
Frame rate mode                          : Constant
Frame rate                               : 23.976 (24000/1001) FPS
Color space                              : YUV
Chroma subsampling                       : 4:2:0 (Type 2)
Bit depth                                : 10 bits
Bits/(Pixel*Frame)                       : 0.352
Stream size                              : 70.5 GiB (94%)
Title                                    : Detroit.2017.2160p.BluRay.REMUX.HEVC.DTS-HD.MA.5.1-FGT
Writing library                          : ATEME Titan File 3.8.12 (4.8.12.0)      
Default                                  : Yes
Forced                                   : No
Color range                              : Limited
Color primaries                          : BT.2020
Transfer characteristics                 : PQ
Matrix coefficients                      : BT.2020 non-constant
Mastering display color primaries        : Display P3
Mastering display luminance              : min: 0.0050 cd/m2, max: 1000 cd/m2
Maximum Content Light Level              : 1000 cd/m2
Maximum Frame-Average Light Level        : 300 cd/m2

Audio #1
ID                                       : 2
Format                                   : DTS
Format/Info                              : Digital Theater Systems
Format profile                           : MA / Core
Codec ID                                 : A_DTS
Duration                                 : 2 h 24 min
Bit rate mode                            : Variable / Constant
Bit rate                                 : 1 920 kb/s / 1 509 kb/s
Channel(s)                               : 6 channels
Channel positions                        : Front: L C R, Side: L R, LFE
Sampling rate                            : 48.0 kHz
Frame rate                               : 93.750 FPS (512 SPF)
Bit depth                                : 16 bits
Compression mode                         : Lossless / Lossy
Stream size                              : 1.92 GiB (3%)
Title                                    : Detroit.2017.2160p.BluRay.REMUX.HEVC.DTS-HD.MA.5.1-FGT
Language                                 : English
Default                                  : Yes
Forced                                   : No

Audio #2
ID                                       : 3
Format                                   : AC-3
Format/Info                              : Audio Coding 3
Codec ID                                 : A_AC3
Duration                                 : 2 h 24 min
Bit rate mode                            : Constant
Bit rate                                 : 224 kb/s
Channel(s)                               : 2 channels
Channel positions                        : Front: L R
Sampling rate                            : 48.0 kHz
Frame rate                               : 31.250 FPS (1536 SPF)
Bit depth                                : 16 bits
Compression mode                         : Lossy
Stream size                              : 231 MiB (0%)
Title                                    : Detroit.2017.2160p.BluRay.REMUX.HEVC.DTS-HD.MA.5.1-FGT
Language                                 : German
Service kind                             : Complete Main
Default                                  : No
Forced                                   : No

Audio #3
ID                                       : 4
Format                                   : DTS
Format/Info                              : Digital Theater Systems
Format profile                           : MA / Core
Codec ID                                 : A_DTS
Duration                                 : 2 h 24 min
Bit rate mode                            : Variable / Constant
Bit rate                                 : 1 920 kb/s / 1 509 kb/s
Channel(s)                               : 6 channels
Channel positions                        : Front: L C R, Side: L R, LFE
Sampling rate                            : 48.0 kHz
Frame rate                               : 93.750 FPS (512 SPF)
Bit depth                                : 16 bits
Compression mode                         : Lossless / Lossy
Stream size                              : 1.95 GiB (3%)
Title                                    : Detroit.2017.2160p.BluRay.REMUX.HEVC.DTS-HD.MA.5.1-FGT
Language                                 : German
Default                                  : No
Forced                                   : No

Text #1
ID                                       : 5
Format                                   : PGS
Muxing mode                              : zlib
Codec ID                                 : S_HDMV/PGS
Codec ID/Info                            : Picture based subtitle format used on BDs/HD-DVDs
Duration                                 : 2 h 14 min
Bit rate                                 : 1 233 b/s
Count of elements                        : 92
Stream size                              : 1.19 MiB (0%)
Title                                    : English-PGS
Language                                 : English
Default                                  : Yes
Forced                                   : No

Text #2
ID                                       : 6
Format                                   : PGS
Muxing mode                              : zlib
Codec ID                                 : S_HDMV/PGS
Codec ID/Info                            : Picture based subtitle format used on BDs/HD-DVDs
Duration                                 : 2 h 22 min
Bit rate                                 : 34.1 kb/s
Count of elements                        : 3286
Stream size                              : 34.7 MiB (0%)
Title                                    : German-PGS
Language                                 : German
Default                                  : No
Forced                                   : No

Text #3
ID                                       : 7
Format                                   : PGS
Muxing mode                              : zlib
Codec ID                                 : S_HDMV/PGS
Codec ID/Info                            : Picture based subtitle format used on BDs/HD-DVDs
Duration                                 : 2 h 20 min
Bit rate                                 : 31.4 kb/s
Count of elements                        : 3182
Stream size                              : 31.7 MiB (0%)
Title                                    : German-PGS
Language                                 : German
Default                                  : No
Forced                                   : No

Text #4
ID                                       : 8
Format                                   : PGS
Muxing mode                              : zlib
Codec ID                                 : S_HDMV/PGS
Codec ID/Info                            : Picture based subtitle format used on BDs/HD-DVDs
Duration                                 : 2 h 11 min
Bit rate                                 : 2 085 b/s
Count of elements                        : 156
Stream size                              : 1.96 MiB (0%)
Title                                    : German-FORCED-PGS
Language                                 : German
Default                                  : No
Forced                                   : No

Menu
00:00:00.000                             : en:Chapter 1
00:04:41.281                             : en:Chapter 2
00:09:47.128                             : en:Chapter 3
00:15:42.191                             : en:Chapter 4
00:26:36.928                             : en:Chapter 5
00:33:00.186                             : en:Chapter 6
00:36:44.660                             : en:Chapter 7
00:41:40.331                             : en:Chapter 8
00:50:33.530                             : en:Chapter 9
00:56:02.650                             : en:Chapter 10
00:59:34.821                             : en:Chapter 11
01:06:45.501                             : en:Chapter 12
01:11:20.734                             : en:Chapter 13
01:14:54.948                             : en:Chapter 14
01:25:41.386                             : en:Chapter 15
01:29:25.151                             : en:Chapter 16
01:33:35.901                             : en:Chapter 17
01:40:16.010                             : en:Chapter 18
01:49:31.731                             : en:Chapter 19
01:52:49.554                             : en:Chapter 20
01:59:54.103                             : en:Chapter 21
02:05:24.350                             : en:Chapter 22
02:10:51.802                             : en:Chapter 23
02:15:31.665                             : en:Chapter 24


底特律暴乱/底特律4k Detroit.2017.2160p.BluRay.HEVC.DTS-HD.MA.5.1  4K  UHD蓝光原盘电影下载

底特律4k Detroit.2017.2160p.BluRay.HEVC.DTS-HD.MA.5.1  (4K UHD 蓝光破解版 2160p 83.55GB )
游客,如果您要查看本帖隐藏内容请回复

底特律4k  Detroit.2017.2160p.BluRay.REMUX.HEVC.DTS-HD.MA.5.1    (4K UHD 蓝光破解版 2160p 74.65GB )
游客,如果您要查看本帖隐藏内容请回复

发表于 2018-4-10 19:59 | 显示全部楼层
果断回帖!!!
发表于 2018-4-10 20:10 | 显示全部楼层
谢谢下载了,支持4K,谢谢楼主
发表于 2018-4-10 21:02 来自手机 | 显示全部楼层
楼主能不能多发一点4k电影啊。跪拜 ~~~
发表于 2018-4-10 21:25 | 显示全部楼层
感谢hao4k这个网站提供这么多4K视频资源,太棒了!
发表于 2018-4-10 21:46 | 显示全部楼层
不错 支持下
发表于 2018-4-10 21:53 | 显示全部楼层
感谢hao4k这个网站提供这么多4K视频资源,太棒了!
发表于 2018-4-10 22:19 | 显示全部楼层
真是太好了
发表于 2018-4-10 22:42 | 显示全部楼层
谢谢下载了,支持4K,谢谢楼主
发表于 2018-4-11 00:02 | 显示全部楼层
支持hao4k发展,支持楼主在Hao4k发布4K视频资源。
您需要登录后才可以回帖 登录 | 立即注册

本版积分规则

返回顶部 联系我们