发表于 2018-4-11 10:57 | 显示全部楼层 |阅读模式

片  名:异能4k [下载地址在帖子底部]

  • 年  代:00年代  
  • 国  家:美国 
  • 类  别:动作 科幻 惊悚 
  • 字  幕:英文原版
  • 上映日期:2009-02-06
  • 文件格式:mkv   m2ts   
  • 视频效果:4K(3840x2160)    
  • 资源大小:57.59GB
  • 片  长:111分钟
  • 导  演:保罗·麦奎根
  • 豆瓣链接:https://movie.douban.com/subject/1946776/
  • 主  演:克里斯·埃文斯 / 达科塔·范宁 / 卡米拉·贝勒 / 李小璐 / 杰曼·翰苏 / 温明娜

剧情简介

【剧情1】二战后,美国政府到处搜寻特异功能人士,并成立特别“部门”对其进行人体实验,试图将异能植入士兵体内作为战争武器。在一次药物试验中心灵感应“推手”姬拉(卡米拉·贝勒 Camilla Belle 饰)携药品逃至香港,“部门”派出特工亨利•卡佛(杰曼·韩苏 Djimon Hounsou 饰)负责追捕。香港某区,一直逃避“部门”的意念移物“灵动人”尼克(克里斯•埃文斯 Chris Evans 饰)帮助可预见未来的“透视人”少女卡西(达科塔·范宁 Dakota Fanning 饰)逃出音爆人兄弟及其 “透视人” 妹妹“棒棒糖女孩”(李小璐饰)的追杀。在当地灵异人士的帮助下,尼克与卡西找到姬拉,却发现在药物的影响下,姬拉已然命在旦夕……
  【剧情2】1945年,纳粹科学家不断进行超能转移的试验,渴望将超乎寻常的异能通过注射移入普通士兵的身体。虽然战争结束,但这项试验仍在继续。战后,各国政府成立名为“隔离区”的秘密基地,他们四处搜罗拥有卓越天赋的孩子进行试验,成果和死亡如影随形。异能者尼克(克里斯·埃文斯 Chris Evans 饰)的父亲(Joel Gretsch 饰)曾是某政府培养的超能杀人者。随着年龄的增长,他的父亲渴望过回正常人的生活,结果却遭杀害。十年后,隐居香港的尼克遇到13岁的小女孩凯希(达科塔·范宁 Dakota Fanning 饰)。凯希是一名观察者,她具有准确预知未来的能力。她从隔离区逃跑引起轩然大波,而和尼克的相逢也让事情变得愈加复杂和危险……

http://www.hao4k.com/forum.php?mod=post&action=edit&fid=2&tid=22695&pid=577583&page=1 ... ...

http://www.hao4k.com/forum.php?mod=post&action=edit&fid=2&tid=22695&pid=577583&page=1 ... ...


移动城市(台) / 超能英雄/异能4k Push.2009.2160p.BluRay.HEVC.TrueHD.7.1.Atmos  4K  UHD蓝光原盘电影信息

第329部4K UHD 蓝光原盘破解版,含完整的 BDMV 文件夹以及数据,AACS 2.0 协议已被完整破解

DISC INFO:

Disc Title:     Push.2009.2160p.BluRay.HEVC.TrueHD.7.1.Atmos-COASTER
Disc Size:      61,835,472,844 bytes
Protection:     AACS2
BD-Java:        Yes
Extras:         Ultra HD
BDInfo:         0.5.8.7 (compatible layout created by DVDFab 10.0.8.4)

PLAYLIST REPORT:

Name:                   00802.MPLS  
Length:                 1:51:27.180 (h:m:s.ms)
Size:                   56,903,645,184 bytes
Total Bitrate:          68.07 Mbps

(*) Indicates included stream hidden by this playlist.

VIDEO:

Codec                   Bitrate             Description     
-----                   -------             -----------     
MPEG-H HEVC Video       49719 kbps          2160p / 23.976 fps / 16:9 / Main 10 Profile 5.1 High / 4:2:0 / 10 bits / HDR / BT.2020 /
* MPEG-H HEVC Video     7836 kbps           1080p / 23.976 fps / 16:9 / Main 10 Profile 5.1 High / 4:2:0 / 10 bits / Dolby Vision / BT.2020 /

AUDIO:

Codec                           Language        Bitrate         Description     
-----                           --------        -------         -----------     
Dolby Atmos/TrueHD Audio        English         5847 kbps       7.1-Atmos / 48 kHz / 5847 kbps / 24-bit (AC3 Core: 5.1-EX / 48 kHz / 448 kbps)
Dolby Digital Audio             English         192 kbps        2.0 / 48 kHz / 192 kbps / Dolby Surround
Dolby Digital Audio             Spanish         448 kbps        5.1 / 48 kHz / 448 kbps

SUBTITLES:

Codec                           Language        Bitrate         Description     
-----                           --------        -------         -----------     
Presentation Graphics           English         27.089 kbps                     
Presentation Graphics           Spanish         22.159 kbps     
REMUX
Video #1
ID                                       : 1
Format                                   : HEVC
Format/Info                              : High Efficiency Video Coding
Format profile                           : Main 10@L5.1@High
Codec ID                                 : V_MPEGH/ISO/HEVC
Duration                                 : 1 h 51 min
Bit rate                                 : 49.7 Mb/s
Width                                    : 3 840 pixels
Height                                   : 2 160 pixels
Display aspect ratio                     : 16:9
Frame rate mode                          : Constant
Frame rate                               : 23.976 (24000/1001) FPS
Color space                              : YUV
Chroma subsampling                       : 4:2:0 (Type 2)
Bit depth                                : 10 bits
Bits/(Pixel*Frame)                       : 0.250
Stream size                              : 38.7 GiB (73%)
Title                                    : Push.2009.2160p.BluRay.REMUX.HEVC.DTS-HD.MA.TrueHD.7.1.Atmos-FGT
Default                                  : Yes
Forced                                   : No
Color range                              : Limited
Color primaries                          : BT.2020
Transfer characteristics                 : PQ
Matrix coefficients                      : BT.2020 non-constant
Mastering display color primaries        : Display P3
Mastering display luminance              : min: 0.0050 cd/m2, max: 1000 cd/m2
Maximum Content Light Level              : 1000 cd/m2
Maximum Frame-Average Light Level        : 928 cd/m2

Video #2
ID                                       : 2
Format                                   : HEVC
Format/Info                              : High Efficiency Video Coding
Format profile                           : Main 10@L5.1@High
Codec ID                                 : V_MPEGH/ISO/HEVC
Duration                                 : 1 h 51 min
Bit rate                                 : 7 837 kb/s
Width                                    : 1 920 pixels
Height                                   : 1 080 pixels
Display aspect ratio                     : 16:9
Frame rate mode                          : Constant
Frame rate                               : 23.976 (24000/1001) FPS
Color space                              : YUV
Chroma subsampling                       : 4:2:0 (Type 2)
Bit depth                                : 10 bits
Bits/(Pixel*Frame)                       : 0.158
Stream size                              : 6.10 GiB (11%)
Title                                    : Push.2009.2160p.BluRay.REMUX.HEVC.DTS-HD.MA.TrueHD.7.1.Atmos-FGT
Default                                  : No
Forced                                   : No
Color range                              : Limited
Color primaries                          : BT.2020
Transfer characteristics                 : PQ
Matrix coefficients                      : BT.2020 non-constant
Mastering display color primaries        : Display P3
Mastering display luminance              : min: 0.0050 cd/m2, max: 1000 cd/m2

Audio #1
ID                                       : 3
Format                                   : TrueHD
Format profile                           : TrueHD+Atmos / TrueHD
Codec ID                                 : A_TRUEHD
Duration                                 : 1 h 51 min
Bit rate mode                            : Variable
Bit rate                                 : 5 399 kb/s
Maximum bit rate                         : 9 315 kb/s
Channel(s)                               : Object Based / 8 channels
Channel positions                        : Object Based / Front: L C R, Side: L R, Back: L R, LFE
Sampling rate                            :  / 48.0 kHz
Frame rate                               : 1 200.000 FPS (40 SPF)
Compression mode                         : Lossless
Delay relative to video                  : 1 ms
Stream size                              : 4.20 GiB (8%)
Title                                    : Push.2009.2160p.BluRay.REMUX.HEVC.DTS-HD.MA.TrueHD.7.1.Atmos-FGT
Language                                 : English
Default                                  : Yes
Forced                                   : No

Audio #2
ID                                       : 4
Format                                   : DTS
Format/Info                              : Digital Theater Systems
Format profile                           : MA / Core
Codec ID                                 : A_DTS
Duration                                 : 1 h 51 min
Bit rate mode                            : Variable / Constant
Bit rate                                 : 4 276 kb/s / 1 509 kb/s
Channel(s)                               : 8 channels / 6 channels
Channel positions                        : Front: L C R, Side: L R, Back: L R, LFE / Front: L C R, Side: L R, LFE
Sampling rate                            : 48.0 kHz
Frame rate                               : 93.750 FPS (512 SPF)
Bit depth                                : 24 bits
Compression mode                         : Lossless / Lossy
Stream size                              : 3.33 GiB (6%)
Title                                    : Push.2009.2160p.BluRay.REMUX.HEVC.DTS-HD.MA.TrueHD.7.1.Atmos-FGT
Language                                 : English
Default                                  : No
Forced                                   : No

Audio #3
ID                                       : 5
Format                                   : AC-3
Format/Info                              : Audio Coding 3
Codec ID                                 : A_AC3
Duration                                 : 1 h 51 min
Bit rate mode                            : Constant
Bit rate                                 : 448 kb/s
Channel(s)                               : 6 channels
Channel positions                        : Front: L C R, Side: L R, LFE
Sampling rate                            : 48.0 kHz
Frame rate                               : 31.250 FPS (1536 SPF)
Bit depth                                : 16 bits
Compression mode                         : Lossy
Delay relative to video                  : 1 ms
Stream size                              : 357 MiB (1%)
Title                                    : Push.2009.2160p.BluRay.REMUX.HEVC.DTS-HD.MA.TrueHD.7.1.Atmos-FGT
Language                                 : English
Service kind                             : Complete Main
Default                                  : No
Forced                                   : No

Audio #4
ID                                       : 6
Format                                   : AC-3
Format/Info                              : Audio Coding 3
Codec ID                                 : A_AC3
Duration                                 : 1 h 51 min
Bit rate mode                            : Constant
Bit rate                                 : 192 kb/s
Channel(s)                               : 2 channels
Channel positions                        : Front: L R
Sampling rate                            : 48.0 kHz
Frame rate                               : 31.250 FPS (1536 SPF)
Bit depth                                : 16 bits
Compression mode                         : Lossy
Delay relative to video                  : 23 ms
Stream size                              : 153 MiB (0%)
Title                                    : Push.2009.2160p.BluRay.REMUX.HEVC.DTS-HD.MA.TrueHD.7.1.Atmos-FGT
Language                                 : English
Service kind                             : Complete Main
Default                                  : No
Forced                                   : No

Audio #5
ID                                       : 7
Format                                   : AC-3
Format/Info                              : Audio Coding 3
Codec ID                                 : A_AC3
Duration                                 : 1 h 51 min
Bit rate mode                            : Constant
Bit rate                                 : 448 kb/s
Channel(s)                               : 6 channels
Channel positions                        : Front: L C R, Side: L R, LFE
Sampling rate                            : 48.0 kHz
Frame rate                               : 31.250 FPS (1536 SPF)
Bit depth                                : 16 bits
Compression mode                         : Lossy
Delay relative to video                  : 23 ms
Stream size                              : 357 MiB (1%)
Title                                    : Push.2009.2160p.BluRay.REMUX.HEVC.DTS-HD.MA.TrueHD.7.1.Atmos-FGT
Language                                 : Spanish
Service kind                             : Complete Main
Default                                  : No
Forced                                   : No

Text #1
ID                                       : 8
Format                                   : PGS
Muxing mode                              : zlib
Codec ID                                 : S_HDMV/PGS
Codec ID/Info                            : Picture based subtitle format used on BDs/HD-DVDs
Duration                                 : 1 h 45 min
Bit rate                                 : 28.6 kb/s
Count of elements                        : 2054
Stream size                              : 21.6 MiB (0%)
Title                                    : English-PGS
Language                                 : English
Default                                  : Yes
Forced                                   : No

Text #2
ID                                       : 9
Format                                   : PGS
Muxing mode                              : zlib
Codec ID                                 : S_HDMV/PGS
Codec ID/Info                            : Picture based subtitle format used on BDs/HD-DVDs
Duration                                 : 1 h 45 min
Bit rate                                 : 23.3 kb/s
Count of elements                        : 1718
Stream size                              : 17.7 MiB (0%)
Title                                    : Spanish-PGS
Language                                 : Spanish
Default                                  : No
Forced                                   : No

Menu
00:00:00.000                             : en:Chapter 1
00:07:37.248                             : en:Chapter 2
00:15:16.916                             : en:Chapter 3
00:21:54.146                             : en:Chapter 4
00:28:58.361                             : en:Chapter 5
00:33:56.743                             : en:Chapter 6
00:40:30.136                             : en:Chapter 7
00:47:04.446                             : en:Chapter 8
00:54:15.335                             : en:Chapter 9
01:03:20.713                             : en:Chapter 10
01:10:14.793                             : en:Chapter 11
01:16:47.352                             : en:Chapter 12
01:23:14.030                             : en:Chapter 13
01:30:03.564                             : en:Chapter 14
01:32:29.669                             : en:Chapter 15
01:43:19.818                             : en:Chapter 16


移动城市(台) / 超能英雄/异能4k Push.2009.2160p.BluRay.HEVC.TrueHD.7.1.Atmos  4K  UHD蓝光原盘电影下载

异能4k Push.2009.2160p.BluRay.HEVC.TrueHD.7.1.Atmos (4K UHD 蓝光破解版 2160p 57.59GB )
游客,如果您要查看本帖隐藏内容请回复

异能4k Push.2009.2160p.BluRay.REMUX.HEVC.DTS-HD.MA.TrueHD.7.1.Atmos (4K UHD 蓝光破解版 2160p 53.26GB )
游客,如果您要查看本帖隐藏内容请回复

发表于 2018-4-11 10:59 | 显示全部楼层
额,看不懂在说神马~@_@
发表于 2018-4-11 11:31 | 显示全部楼层
#在感谢hao4k这个网站这里快速回复#
发表于 2018-4-11 11:46 | 显示全部楼层
支持hao4k发展,支持楼主在Hao4k发布4K视频资源。
发表于 2018-4-11 12:15 | 显示全部楼层
感谢hao4k这个网站提供这么多4K视频资源,太棒了!
发表于 2018-4-11 12:18 | 显示全部楼层
资源不错,Hao4k果然是最大4K资源网站,感激Hao4k论坛。
发表于 2018-4-11 12:26 | 显示全部楼层
支持楼主
发表于 2018-4-11 12:37 | 显示全部楼层
感谢hao4k这个网站提供这么多4K视频资源,太棒了!
发表于 2018-4-11 12:41 | 显示全部楼层
感谢hao4k这个网站提供这么多4K视频资源,太棒了!
发表于 2018-4-11 13:13 | 显示全部楼层
非常棒的电影,期待4k很久了!
发表于 2018-4-11 13:37 | 显示全部楼层
感谢hao4k这个网站提供这么多4K视频资源,太棒了!
发表于 2018-4-11 13:54 | 显示全部楼层
支持hao4k发展,支持楼主在Hao4k发布4K视频资源。
发表于 2018-4-11 15:48 | 显示全部楼层
hao4k更新4K电影好快啊,每天都更新!!牛逼...
发表于 2018-4-11 16:07 | 显示全部楼层
资源不错,Hao4k果然是最大4K资源网站,感激Hao4k论坛。
发表于 2018-4-11 16:29 来自 移动版  | 显示全部楼层
确实是难得4k好帖啊,顶先
发表于 2018-4-11 16:55 | 显示全部楼层
感谢hao4k这个网站提供这么多4K视频资源,太棒了!
发表于 2018-4-11 16:57 | 显示全部楼层
厉害去了 .......
发表于 2018-4-11 17:15 | 显示全部楼层
感谢分享!
您需要登录后才可以回帖 登录 | 立即注册

本版积分规则

关闭

站长通知上一条 /1 下一条

返回顶部 联系我们