lili 发表于 2018-4-11 11:07 | 显示全部楼层 |阅读模式

片  名:神秘代码4k [下载地址在帖子底部]

  • 导  演:亚历克斯·普罗亚斯
  • 年  代:00年代    
  • 国  家:美国   
  • 电影分类:科幻   惊悚   剧情   悬疑   灾难   
  • 电影格式:MKV|REMUX   M2TS|BDMV 
  • 分 辨 率: 4K(3840x2160)    
  • 画质标准:
  • 音质编码: 
  • 电影声道:
  • 电影语言:英文原版     
  • 资源大小:54.68GB
  • 中文字幕:

剧情简介

 1959年,美国马塞诸塞州列辛顿威廉道斯小学,该校即将迎来校庆日,小女孩露辛达•安伯利(Lara Robinson 饰)提出的创意为校长所采纳。校庆日时,学生们将画下自己对未来的设想,并集中放入金属时间囊中埋入地下,准备50年后重新开启。校庆日之后,举止怪异的露辛达用鲜血在墙上写下奇怪文字,并向老师提出警告。
  2009年,威廉道斯小学再次迎来校庆日,被埋藏地下50年之久的时间囊重见天日。小男孩凯勒(Chandler Canterbury 饰)得到露辛达的信,上面没有任何图画,整页布满毫无规律可言的数字。凯勒的父亲约翰(尼古拉斯•凯奇 Nicolas Cage 饰)夜晚研究这些数字,竟发现这是一组具有预言性的密码。文中的数字清楚记录了世界上过去50年所发生的各种灾难。除此之外,这组数字还包括了接下来将发生的重大灾难……

https://www.hao4k.com/forum.php?mod=post&action=newthread&fid=2

https://www.hao4k.com/forum.php?mod=post&action=newthread&fid=2



末日预言(台) / 地球毁灭密码(港) / 预难大逃亡 / 先知/神秘代码4k Knowing.2009.2160p.BluRay.HEVC.TrueHD.7.1.Atmos  4K  UHD蓝光原盘电影信息

第329部4K UHD 蓝光原盘破解版,含完整的 BDMV 文件夹以及数据,AACS 2.0 协议已被完整破解

DISC INFO:

Disc Title:     Knowing.2009.2160p.BluRay.HEVC.TrueHD.7.1.Atmos-COASTER
Disc Size:      58,710,669,561 bytes
Protection:     AACS2
BD-Java:        Yes
Extras:         Ultra HD
BDInfo:         0.5.8.7 (compatible layout created by DVDFab 10.0.8.4)

PLAYLIST REPORT:

Name:                   00802.MPLS  
Length:                 2:01:29.115 (h:m:s.ms)
Size:                   53,600,882,688 bytes
Total Bitrate:          58.83 Mbps

(*) Indicates included stream hidden by this playlist.

VIDEO:

Codec                   Bitrate             Description     
-----                   -------             -----------     
MPEG-H HEVC Video       40916 kbps          2160p / 23.976 fps / 16:9 / Main 10 Profile 5.1 High / 4:2:0 / 10 bits / HDR / BT.2020 /
* MPEG-H HEVC Video     8138 kbps           1080p / 23.976 fps / 16:9 / Main 10 Profile 5.1 High / 4:2:0 / 10 bits / Dolby Vision / BT.2020 /

AUDIO:

Codec                           Language        Bitrate         Description     
-----                           --------        -------         -----------     
Dolby Atmos/TrueHD Audio        English         4946 kbps       7.1-Atmos / 48 kHz / 4946 kbps / 24-bit (AC3 Core: 5.1-EX / 48 kHz / 448 kbps)
Dolby Digital Audio             Spanish         448 kbps        5.1 / 48 kHz / 448 kbps
Dolby Digital Audio             French          448 kbps        5.1 / 48 kHz / 448 kbps
Dolby Digital Audio             English         192 kbps        2.0 / 48 kHz / 192 kbps / Dolby Surround

SUBTITLES:

Codec                           Language        Bitrate         Description     
-----                           --------        -------         -----------     
Presentation Graphics           English         31.193 kbps                     
Presentation Graphics           Spanish         24.638 kbps                     
Presentation Graphics           French          0.11 kbps      
REMUX
Video #1
ID                                       : 1
Format                                   : HEVC
Format/Info                              : High Efficiency Video Coding
Format profile                           : Main 10@L5.1@High
Codec ID                                 : V_MPEGH/ISO/HEVC
Duration                                 : 2 h 1 min
Bit rate                                 : 40.9 Mb/s
Width                                    : 3 840 pixels
Height                                   : 2 160 pixels
Display aspect ratio                     : 16:9
Frame rate mode                          : Constant
Frame rate                               : 23.976 (24000/1001) FPS
Color space                              : YUV
Chroma subsampling                       : 4:2:0 (Type 2)
Bit depth                                : 10 bits
Bits/(Pixel*Frame)                       : 0.206
Stream size                              : 34.7 GiB (69%)
Title                                    : Knowing.2009.2160p.BluRay.REMUX.HEVC.DTS-HD.MA.TrueHD.7.1.Atmos-FGT
Default                                  : Yes
Forced                                   : No
Color range                              : Limited
Color primaries                          : BT.2020
Transfer characteristics                 : PQ
Matrix coefficients                      : BT.2020 non-constant
Mastering display color primaries        : Display P3
Mastering display luminance              : min: 0.0050 cd/m2, max: 1000 cd/m2
Maximum Content Light Level              : 1000 cd/m2
Maximum Frame-Average Light Level        : 985 cd/m2

Video #2
ID                                       : 2
Format                                   : HEVC
Format/Info                              : High Efficiency Video Coding
Format profile                           : Main 10@L5.1@High
Codec ID                                 : V_MPEGH/ISO/HEVC
Duration                                 : 2 h 1 min
Bit rate                                 : 8 138 kb/s
Width                                    : 1 920 pixels
Height                                   : 1 080 pixels
Display aspect ratio                     : 16:9
Frame rate mode                          : Constant
Frame rate                               : 23.976 (24000/1001) FPS
Color space                              : YUV
Chroma subsampling                       : 4:2:0 (Type 2)
Bit depth                                : 10 bits
Bits/(Pixel*Frame)                       : 0.164
Stream size                              : 6.91 GiB (14%)
Title                                    : Knowing.2009.2160p.BluRay.REMUX.HEVC.DTS-HD.MA.TrueHD.7.1.Atmos-FGT
Default                                  : No
Forced                                   : No
Color range                              : Limited
Color primaries                          : BT.2020
Transfer characteristics                 : PQ
Matrix coefficients                      : BT.2020 non-constant
Mastering display color primaries        : Display P3
Mastering display luminance              : min: 0.0050 cd/m2, max: 1000 cd/m2

Audio #1
ID                                       : 3
Format                                   : TrueHD
Format profile                           : TrueHD+Atmos / TrueHD
Codec ID                                 : A_TRUEHD
Duration                                 : 2 h 1 min
Bit rate mode                            : Variable
Bit rate                                 : 4 498 kb/s
Maximum bit rate                         : 8 085 kb/s
Channel(s)                               : Object Based / 8 channels
Channel positions                        : Object Based / Front: L C R, Side: L R, Back: L R, LFE
Sampling rate                            :  / 48.0 kHz
Frame rate                               : 1 200.000 FPS (40 SPF)
Compression mode                         : Lossless
Delay relative to video                  : 1 ms
Stream size                              : 3.82 GiB (8%)
Title                                    : Knowing.2009.2160p.BluRay.REMUX.HEVC.DTS-HD.MA.TrueHD.7.1.Atmos-FGT
Language                                 : English
Default                                  : Yes
Forced                                   : No

Audio #2
ID                                       : 4
Format                                   : DTS
Format/Info                              : Digital Theater Systems
Format profile                           : MA / Core
Codec ID                                 : A_DTS
Duration                                 : 2 h 1 min
Bit rate mode                            : Variable / Constant
Bit rate                                 : 3 840 kb/s / 1 509 kb/s
Channel(s)                               : 8 channels / 6 channels
Channel positions                        : Front: L C R, Side: L R, Back: L R, LFE / Front: L C R, Side: L R, LFE
Sampling rate                            : 48.0 kHz
Frame rate                               : 93.750 FPS (512 SPF)
Bit depth                                : 24 bits
Compression mode                         : Lossless / Lossy
Stream size                              : 3.24 GiB (6%)
Title                                    : Knowing.2009.2160p.BluRay.REMUX.HEVC.DTS-HD.MA.TrueHD.7.1.Atmos-FGT
Language                                 : English
Default                                  : No
Forced                                   : No

Audio #3
ID                                       : 5
Format                                   : AC-3
Format/Info                              : Audio Coding 3
Codec ID                                 : A_AC3
Duration                                 : 2 h 1 min
Bit rate mode                            : Constant
Bit rate                                 : 448 kb/s
Channel(s)                               : 6 channels
Channel positions                        : Front: L C R, Side: L R, LFE
Sampling rate                            : 48.0 kHz
Frame rate                               : 31.250 FPS (1536 SPF)
Bit depth                                : 16 bits
Compression mode                         : Lossy
Delay relative to video                  : 1 ms
Stream size                              : 389 MiB (1%)
Title                                    : Knowing.2009.2160p.BluRay.REMUX.HEVC.DTS-HD.MA.TrueHD.7.1.Atmos-FGT
Language                                 : English
Service kind                             : Complete Main
Default                                  : No
Forced                                   : No

Audio #4
ID                                       : 6
Format                                   : AC-3
Format/Info                              : Audio Coding 3
Codec ID                                 : A_AC3
Duration                                 : 2 h 1 min
Bit rate mode                            : Constant
Bit rate                                 : 448 kb/s
Channel(s)                               : 6 channels
Channel positions                        : Front: L C R, Side: L R, LFE
Sampling rate                            : 48.0 kHz
Frame rate                               : 31.250 FPS (1536 SPF)
Bit depth                                : 16 bits
Compression mode                         : Lossy
Delay relative to video                  : 23 ms
Stream size                              : 389 MiB (1%)
Title                                    : Knowing.2009.2160p.BluRay.REMUX.HEVC.DTS-HD.MA.TrueHD.7.1.Atmos-FGT
Language                                 : Spanish
Service kind                             : Complete Main
Default                                  : No
Forced                                   : No

Audio #5
ID                                       : 7
Format                                   : AC-3
Format/Info                              : Audio Coding 3
Codec ID                                 : A_AC3
Duration                                 : 2 h 1 min
Bit rate mode                            : Constant
Bit rate                                 : 448 kb/s
Channel(s)                               : 6 channels
Channel positions                        : Front: L C R, Side: L R, LFE
Sampling rate                            : 48.0 kHz
Frame rate                               : 31.250 FPS (1536 SPF)
Bit depth                                : 16 bits
Compression mode                         : Lossy
Delay relative to video                  : 23 ms
Stream size                              : 389 MiB (1%)
Title                                    : Knowing.2009.2160p.BluRay.REMUX.HEVC.DTS-HD.MA.TrueHD.7.1.Atmos-FGT
Language                                 : French
Service kind                             : Complete Main
Default                                  : No
Forced                                   : No

Audio #6
ID                                       : 8
Format                                   : AC-3
Format/Info                              : Audio Coding 3
Codec ID                                 : A_AC3
Duration                                 : 2 h 1 min
Bit rate mode                            : Constant
Bit rate                                 : 192 kb/s
Channel(s)                               : 2 channels
Channel positions                        : Front: L R
Sampling rate                            : 48.0 kHz
Frame rate                               : 31.250 FPS (1536 SPF)
Bit depth                                : 16 bits
Compression mode                         : Lossy
Delay relative to video                  : 23 ms
Stream size                              : 167 MiB (0%)
Title                                    : Knowing.2009.2160p.BluRay.REMUX.HEVC.DTS-HD.MA.TrueHD.7.1.Atmos-FGT
Language                                 : English
Service kind                             : Complete Main
Default                                  : No
Forced                                   : No

Text #1
ID                                       : 9
Format                                   : PGS
Muxing mode                              : zlib
Codec ID                                 : S_HDMV/PGS
Codec ID/Info                            : Picture based subtitle format used on BDs/HD-DVDs
Duration                                 : 1 h 52 min
Bit rate                                 : 33.6 kb/s
Count of elements                        : 2408
Stream size                              : 27.1 MiB (0%)
Title                                    : English-PGS
Language                                 : English
Default                                  : Yes
Forced                                   : No

Text #2
ID                                       : 10
Format                                   : PGS
Muxing mode                              : zlib
Codec ID                                 : S_HDMV/PGS
Codec ID/Info                            : Picture based subtitle format used on BDs/HD-DVDs
Duration                                 : 1 h 52 min
Bit rate                                 : 26.6 kb/s
Count of elements                        : 1948
Stream size                              : 21.4 MiB (0%)
Title                                    : Spanish-PGS
Language                                 : Spanish
Default                                  : No
Forced                                   : No

Text #3
ID                                       : 11
Format                                   : PGS
Muxing mode                              : zlib
Codec ID                                 : S_HDMV/PGS
Codec ID/Info                            : Picture based subtitle format used on BDs/HD-DVDs
Duration                                 : 1 h 10 min
Bit rate                                 : 190 b/s
Count of elements                        : 10
Stream size                              : 97.6 KiB (0%)
Title                                    : French-PGS
Language                                 : French
Default                                  : No
Forced                                   : No

Menu
00:00:00.000                             : en:Chapter 1
00:08:35.097                             : en:Chapter 2
00:15:20.210                             : en:Chapter 3
00:20:28.143                             : en:Chapter 4
00:29:06.828                             : en:Chapter 5
00:36:52.752                             : en:Chapter 6
00:43:17.011                             : en:Chapter 7
00:49:04.524                             : en:Chapter 8
00:56:09.741                             : en:Chapter 9
01:02:31.038                             : en:Chapter 10
01:08:11.545                             : en:Chapter 11
01:16:17.322                             : en:Chapter 12
01:22:58.098                             : en:Chapter 13
01:30:14.700                             : en:Chapter 14
01:39:33.509                             : en:Chapter 15
01:50:31.166                             : en:Chapter 16

末日预言(台) / 地球毁灭密码(港) / 预难大逃亡 / 先知/神秘代码4k Knowing.2009.2160p.BluRay.HEVC.TrueHD.7.1.Atmos  4K  UHD蓝光原盘电影下载

神秘代码4k Knowing.2009.2160p.BluRay.HEVC.TrueHD.7.1.Atmos  (4K UHD 蓝光破解版 2160p 54.68GB )
游客,如果您要查看本帖隐藏内容请回复

神秘代码4k Knowing.2009.2160p.BluRay.REMUX.HEVC.DTS-HD.MA.TrueHD.7.1.Atmos  (4K UHD 蓝光破解版 2160p 50.07GB )
游客,如果您要查看本帖隐藏内容请回复

xiom 发表于 2018-4-11 11:12 | 显示全部楼层
谢谢,好片呀!
lbxiong 发表于 2018-4-11 11:18 | 显示全部楼层
感谢hao4k这个网站提供这么多4K视频资源,太棒了!
菜鸟石头 发表于 2018-4-11 11:22 | 显示全部楼层
感谢hao4k这个网站提供这么多4K视频资源,太棒了!
baigf2018 发表于 2018-4-11 11:30 | 显示全部楼层
谢谢楼主,能够提供精彩
mfpau369 发表于 2018-4-11 11:30 | 显示全部楼层
#在这感谢hao4k这个网站里快速回复#
luoyizhi 发表于 2018-4-11 11:56 | 显示全部楼层
谢谢谢谢谢谢谢谢谢谢谢 谢x'x'x'x
paul1792278 发表于 2018-4-11 12:11 | 显示全部楼层
感谢hao4k这个网站提供这么多4K视频资源,太棒了!
yunfeibao2008 发表于 2018-4-11 12:16 | 显示全部楼层
谢谢楼主发布
VTSS 发表于 2018-4-11 12:26 | 显示全部楼层
资源不错,Hao4k果然是最大4K资源网站,感激Hao4k论坛。果真大好
听雪502 发表于 2018-4-11 12:33 | 显示全部楼层
感谢hao4k这个网站提供这么多4K视频资源,太棒了!
田爷田田 发表于 2018-4-11 12:40 | 显示全部楼层
感谢hao4k这个网站提供这么多4K视频资源,太棒了!
bunnycici119 发表于 2018-4-11 12:42 | 显示全部楼层
谢谢,好片呀!
tachwsh 发表于 2018-4-11 12:42 | 显示全部楼层
这个网站看来好料很多啊
yuzhijiang 发表于 2018-4-11 12:42 | 显示全部楼层
感谢hao4k这个网站提供这么多4K视频资源,太棒了!
Jason794825 发表于 2018-4-11 13:18 | 显示全部楼层
资源不错,Hao4k果然是最大4K资源网站,感激Hao4k论坛。果真大好
qdsong88 发表于 2018-4-11 13:38 | 显示全部楼层
谢谢,我想下载
再見小時候 发表于 2018-4-11 13:43 | 显示全部楼层
不错 支持下
您需要登录后才可以回帖 登录 | 立即注册

本版积分规则

返回顶部 联系我们