发表于 2018-4-12 14:46 | 显示全部楼层 |阅读模式

片  名:托斯卡4k [下载地址在帖子底部]

  • 年  代:00年代  
  • 国  家:美国 
  • 类  别:剧情 
  • 字  幕:英文原版
  • 上映日期:2001-09-09
  • 文件格式:mkv   m2ts   
  • 视频效果:4K(3840x2160)    
  • 资源大小:29.26GB
  • 片  长:126分钟
  • 导  演:伯努瓦·雅克
  • 豆瓣链接:https://movie.douban.com/subject/1308182/
  • 主  演:安琪拉·葛姬 / 阿兰尼亚 / Ruggero Raimondi

剧情简介

 普契尼的《托斯卡》可以是個廉價的煽情戲,一部糅合著愛情、政治與慾望的通俗劇-如果沒有他那扣人心弦的華麗樂章,與撕裂的神經末梢融和一致的音符的話。把這樣一部膾炙人口的歌劇搬上銀幕,也幾乎註定要令導演焦頭爛額。然而奇蹟出現了,班諾瓦.積高的《托斯卡》應是十多年來少數歌劇電影令人滿意的一部。積高以三種途徑(以華麗的攝影拍攝全劇的戲肉,十六毫米的黑白菲林拍攝錄音過程,及以錄像俯瞰歷史現場)來閱讀普契尼的傑作,不但叫人一新耳目,原劇的迫力更絲毫不減。原籍羅馬尼亞的女高音安琪拉.葛姬演繹的托斯卡,更是一次顛峰演出。
  Jacquot transposes Giacomo Puccini\'s famous opera to film in this stunningly filmed, sung and performed production featuring two of today\'s hottest opera stars. The films starts with black-and-white footage of the recording studio. He then brings the action forward on the sets, but makes frequent cuts to the studio. This avoids the sense of having filmed a staged production, and establishes an air of non-reality. Jacquot then adds a further visual dimension to the film by filming dazzling sequences of gardens and the night sky in Italy using a video camera. The two singers are also a couple in real life, a fact which adds emotional depth to their personas.
  Source: 26th HKIFF (2002)
托斯卡4k Tosca.2001.ITALIAN.2160p.BluRay.HEVC.DTS-HD.MA.5.1 4K  UHD蓝光原盘电影信息

第331部4K UHD 蓝光原盘破解版,含完整的 BDMV 文件夹以及数据,AACS 2.0 协议已被完整破解

DISC INFO:

Disc Title:     Tosca.2001.ITALIAN.2160p.BluRay.HEVC.DTS-HD.MA.5.1-SNTN
Disc Size:      31,397,957,860 bytes
Protection:     AACS2
BD-Java:        No
Extras:         Ultra HD, 50Hz Content
BDInfo:         0.5.8.7 (compatible layout created by DVDFab 10.0.8.4)

PLAYLIST REPORT:

Name:                   00009.MPLS  
Length:                 1:59:42.880 (h:m:s.ms)
Size:                   31,234,584,576 bytes
Total Bitrate:          34.79 Mbps

VIDEO:

Codec                   Bitrate             Description     
-----                   -------             -----------     
MPEG-H HEVC Video       26519 kbps          2160p / 25 fps / 16:9 / Main 10 Profile 5.1 High / 4:2:0 / 10 bits / SDR / BT.709 /

AUDIO:

Codec                           Language        Bitrate         Description     
-----                           --------        -------         -----------     
LPCM Audio                      Italian         2304 kbps       2.0 / 48 kHz / 2304 kbps / 24-bit
DTS-HD Master Audio             Italian         4041 kbps       5.1 / 48 kHz / 4041 kbps / 24-bit (DTS Core: 5.1 / 48 kHz / 1509 kbps / 24-bit)

SUBTITLES:

Codec                           Language        Bitrate         Description     
-----                           --------        -------         -----------     
Presentation Graphics           Italian         14.521 kbps                     
Presentation Graphics           English         16.345 kbps                     
Presentation Graphics           German          17.797 kbps                     
Presentation Graphics           French          16.551 kbps                     
Presentation Graphics           Spanish         16.018 kbps                     
Presentation Graphics           Korean          16.442 kbps                     
Presentation Graphics           Japanese        16.292 kbps  
REMUX
Video
ID                                       : 1
Format                                   : HEVC
Format/Info                              : High Efficiency Video Coding
Format profile                           : Main 10@L5.1@High
Codec ID                                 : V_MPEGH/ISO/HEVC
Duration                                 : 1 h 59 min
Bit rate                                 : 26.5 Mb/s
Width                                    : 3 840 pixels
Height                                   : 2 160 pixels
Display aspect ratio                     : 16:9
Frame rate mode                          : Constant
Frame rate                               : 25.000 FPS
Color space                              : YUV
Chroma subsampling                       : 4:2:0
Bit depth                                : 10 bits
Bits/(Pixel*Frame)                       : 0.128
Stream size                              : 22.2 GiB (81%)
Title                                    : Tosca.2001.ITALIAN.2160p.BluRay.REMUX.HEVC.DTS-HD.MA.5.1-FGT
Writing library                          : x265 1.9+205-dcd65c5ff838:[Windows][GCC 4.8.2][64 bit] 10bit
Encoding settings                        : wpp / ctu=64 / min-cu-size=8 / max-tu-size=32 / tu-intra-depth=1 / tu-inter-depth=1 / me=1 / subme=2 / merange=57 / no-rect / no-amp / max-merge=2 / temporal-mvp / no-early-skip / recursion-skip / rdpenalty=0 / no-tskip / no-tskip-fast / strong-intra-smoothing / no-lossless / no-cu-lossless / no-constrained-intra / no-fast-intra / no-open-gop / no-temporal-layers / interlace=0 / keyint=24 / min-keyint=1 / scenecut=40 / rc-lookahead=20 / lookahead-slices=8 / bframes=4 / bframe-bias=0 / b-adapt=2 / ref=3 / limit-refs=3 / no-limit-modes / weightp / no-weightb / aq-mode=1 / qg-size=32 / aq-strength=1.00 / cbqpoffs=0 / crqpoffs=0 / rd=1 / psy-rd=0.00 / rdoq-level=0 / psy-rdoq=0.00 / no-rd-refine / signhide / deblock=0:0 / sao / no-sao-non-deblock / no-b-pyramid / cutree / no-intra-refresh / rc=abr / bitrate=27000 / qcomp=0.60 / qpmin=0 / qpmax=51 / qpstep=4 / vbv-maxrate=40000 / vbv-bufsize=30000 / ipratio=1.40 / pbratio=1.30
Default                                  : Yes
Forced                                   : No
Color range                              : Limited
Color primaries                          : BT.709
Transfer characteristics                 : BT.709
Matrix coefficients                      : BT.709

Audio #1
ID                                       : 2
Format                                   : DTS
Format/Info                              : Digital Theater Systems
Format profile                           : MA / Core
Codec ID                                 : A_DTS
Duration                                 : 1 h 59 min
Bit rate mode                            : Variable / Constant
Bit rate                                 : 4 041 kb/s / 1 509 kb/s
Channel(s)                               : 6 channels
Channel positions                        : Front: L C R, Side: L R, LFE
Sampling rate                            : 48.0 kHz
Frame rate                               : 93.750 FPS (512 SPF)
Bit depth                                : 24 bits
Compression mode                         : Lossless / Lossy
Stream size                              : 3.38 GiB (12%)
Title                                    : Tosca.2001.ITALIAN.2160p.BluRay.REMUX.HEVC.DTS-HD.MA.5.1-FGT
Language                                 : Italian
Default                                  : Yes
Forced                                   : No

Audio #2
ID                                       : 3
Format                                   : PCM
Format settings                          : Little / Signed
Codec ID                                 : A_PCM/INT/LIT
Duration                                 : 1 h 59 min
Bit rate mode                            : Constant
Bit rate                                 : 2 304 kb/s
Channel(s)                               : 2 channels
Sampling rate                            : 48.0 kHz
Frame rate                               : 200.000 FPS (240 SPF)
Bit depth                                : 24 bits
Stream size                              : 1.93 GiB (7%)
Title                                    : Tosca.2001.ITALIAN.2160p.BluRay.REMUX.HEVC.DTS-HD.MA.5.1-FGT
Language                                 : Italian
Default                                  : No
Forced                                   : No

Text #1
ID                                       : 4
Format                                   : PGS
Muxing mode                              : zlib
Codec ID                                 : S_HDMV/PGS
Codec ID/Info                            : Picture based subtitle format used on BDs/HD-DVDs
Duration                                 : 1 h 53 min
Bit rate                                 : 17.2 kb/s
Count of elements                        : 1814
Stream size                              : 14.0 MiB (0%)
Title                                    : English-PGS
Language                                 : English
Default                                  : Yes
Forced                                   : No

Text #2
ID                                       : 5
Format                                   : PGS
Muxing mode                              : zlib
Codec ID                                 : S_HDMV/PGS
Codec ID/Info                            : Picture based subtitle format used on BDs/HD-DVDs
Duration                                 : 1 h 53 min
Bit rate                                 : 15.3 kb/s
Count of elements                        : 1824
Stream size                              : 12.4 MiB (0%)
Title                                    : Italian-PGS
Language                                 : Italian
Default                                  : No
Forced                                   : No

Text #3
ID                                       : 6
Format                                   : PGS
Muxing mode                              : zlib
Codec ID                                 : S_HDMV/PGS
Codec ID/Info                            : Picture based subtitle format used on BDs/HD-DVDs
Duration                                 : 1 h 53 min
Bit rate                                 : 18.7 kb/s
Count of elements                        : 1814
Stream size                              : 15.2 MiB (0%)
Title                                    : German-PGS
Language                                 : German
Default                                  : No
Forced                                   : No

Text #4
ID                                       : 7
Format                                   : PGS
Muxing mode                              : zlib
Codec ID                                 : S_HDMV/PGS
Codec ID/Info                            : Picture based subtitle format used on BDs/HD-DVDs
Duration                                 : 1 h 53 min
Bit rate                                 : 17.4 kb/s
Count of elements                        : 1814
Stream size                              : 14.2 MiB (0%)
Title                                    : French-PGS
Language                                 : French
Default                                  : No
Forced                                   : No

Text #5
ID                                       : 8
Format                                   : PGS
Muxing mode                              : zlib
Codec ID                                 : S_HDMV/PGS
Codec ID/Info                            : Picture based subtitle format used on BDs/HD-DVDs
Duration                                 : 1 h 53 min
Bit rate                                 : 16.8 kb/s
Count of elements                        : 1814
Stream size                              : 13.7 MiB (0%)
Title                                    : Spanish-PGS
Language                                 : Spanish
Default                                  : No
Forced                                   : No

Text #6
ID                                       : 9
Format                                   : PGS
Muxing mode                              : zlib
Codec ID                                 : S_HDMV/PGS
Codec ID/Info                            : Picture based subtitle format used on BDs/HD-DVDs
Duration                                 : 1 h 53 min
Bit rate                                 : 17.3 kb/s
Count of elements                        : 1814
Stream size                              : 14.1 MiB (0%)
Title                                    : Korean-PGS
Language                                 : Korean
Default                                  : No
Forced                                   : No

Text #7
ID                                       : 10
Format                                   : PGS
Muxing mode                              : zlib
Codec ID                                 : S_HDMV/PGS
Codec ID/Info                            : Picture based subtitle format used on BDs/HD-DVDs
Duration                                 : 1 h 53 min
Bit rate                                 : 17.1 kb/s
Count of elements                        : 1822
Stream size                              : 13.9 MiB (0%)
Title                                    : Japanese-PGS
Language                                 : Japanese
Default                                  : No
Forced                                   : No

Menu
00:00:00.000                             : en:Chapter 1
00:00:31.000                             : en:Chapter 2
00:02:47.720                             : en:Chapter 3
00:05:04.000                             : en:Chapter 4
00:06:11.000                             : en:Chapter 5
00:10:02.720                             : en:Chapter 6
00:11:47.000                             : en:Chapter 7
00:13:44.000                             : en:Chapter 8
00:14:43.000                             : en:Chapter 9
00:17:15.000                             : en:Chapter 10
00:19:05.000                             : en:Chapter 11
00:20:46.000                             : en:Chapter 12
00:24:44.000                             : en:Chapter 13
00:28:17.280                             : en:Chapter 14
00:29:58.400                             : en:Chapter 15
00:33:34.000                             : en:Chapter 16
00:36:44.520                             : en:Chapter 17
00:38:48.000                             : en:Chapter 18
00:40:55.000                             : en:Chapter 19
00:45:27.000                             : en:Chapter 20
00:46:53.000                             : en:Chapter 21
00:48:43.000                             : en:Chapter 22
00:49:58.000                             : en:Chapter 23
00:51:07.000                             : en:Chapter 24
00:53:33.600                             : en:Chapter 25
00:55:22.000                             : en:Chapter 26
01:00:39.000                             : en:Chapter 27
01:04:12.080                             : en:Chapter 28
01:05:42.000                             : en:Chapter 29
01:06:59.000                             : en:Chapter 30
01:08:24.000                             : en:Chapter 31
01:12:58.000                             : en:Chapter 32
01:16:28.000                             : en:Chapter 33
01:20:09.000                             : en:Chapter 34
01:22:20.000                             : en:Chapter 35
01:27:30.000                             : en:Chapter 36
01:29:17.000                             : en:Chapter 37
01:30:47.200                             : en:Chapter 38
01:33:20.000                             : en:Chapter 39
01:35:07.000                             : en:Chapter 40
01:36:49.000                             : en:Chapter 41
01:37:57.000                             : en:Chapter 42
01:41:05.720                             : en:Chapter 43
01:43:40.000                             : en:Chapter 44
01:45:20.000                             : en:Chapter 45
01:49:03.000                             : en:Chapter 46
01:51:09.000                             : en:Chapter 47
01:51:49.000                             : en:Chapter 48
01:54:04.720                             : en:Chapter 49
01:55:23.000                             : en:Chapter 50



托斯卡4k Tosca.2001.ITALIAN.2160p.BluRay.HEVC.DTS-HD.MA.5.1 4K  UHD蓝光原盘电影下载

托斯卡4k Tosca.2001.ITALIAN.2160p.BluRay.HEVC.DTS-HD.MA.5.1   (4K UHD 蓝光破解版 2160p 29.26GB )
游客,如果您要查看本帖隐藏内容请回复

托斯卡4k Tosca.2001.ITALIAN.2160p.BluRay.REMUX.HEVC.DTS-HD.MA.5.1  (4K UHD 蓝光破解版 2160p 27.53GB )
游客,如果您要查看本帖隐藏内容请回复
发表于 2018-4-12 14:48 | 显示全部楼层
求沙发
发表于 2018-4-12 14:48 来自 移动版  | 显示全部楼层
发表于 2018-4-12 15:29 | 显示全部楼层
感谢hao4k这个网站提供这么多4K视频资源,太棒了!
发表于 2018-4-12 15:33 | 显示全部楼层
发表于 2018-4-12 15:34 | 显示全部楼层
感谢hao4k这个网站提供这么多4K视频资源,太棒了!
发表于 2018-4-12 15:56 | 显示全部楼层
感谢hao4k这个网站提供这么多4K视频资源,太棒了!
发表于 2018-4-12 16:31 | 显示全部楼层
感谢hao4k这个网站提供这么多4K视频资源,太棒了!
发表于 2018-4-12 16:55 | 显示全部楼层
感谢hao4k这个网站提供这么多4K视频资源,太棒了!
发表于 2018-4-12 16:56 | 显示全部楼层
感谢hao4k这个网站提供这么多4K视频资源,太棒了!
发表于 2018-4-12 17:55 来自 移动版  | 显示全部楼层
我只是路过打酱油的,赞hao4k
发表于 2018-4-12 18:08 | 显示全部楼层
感谢hao4k这个网站提供这么多4K视频资源,太棒了!
发表于 2018-4-12 19:16 | 显示全部楼层
确实是难得4k好帖啊,顶先
发表于 2018-4-12 20:04 | 显示全部楼层
感谢hao4k这个网站提供这么多4K视频资源,太棒了!
发表于 2018-4-12 20:29 | 显示全部楼层
thanksgiving
发表于 2018-4-12 20:53 | 显示全部楼层
前排,哇咔咔
发表于 2018-4-12 22:19 | 显示全部楼层
歌剧电影……很少看
发表于 2018-4-12 22:58 | 显示全部楼层
感谢hao4k这个网站提供这么多4K视频资源,太棒了!
您需要登录后才可以回帖 登录 | 立即注册

本版积分规则

关闭

站长通知上一条 /1 下一条

返回顶部 联系我们