发表于 2018-4-15 14:27 | 显示全部楼层 |阅读模式

片  名:华盛顿邮报4k [下载地址在帖子底部]

  • 年  代:2018年  
  • 国  家:美国 
  • 类  别:惊悚 剧情 历史 传记 
  • 字  幕:英文原版
  • 上映日期:2018-01-12
  • 文件格式:mkv   m2ts   
  • 视频效果:4K(3840x2160)    
  • 文件大小:61.02GB
  • 片  长:116分钟
  • 导  演:史蒂文·斯皮尔伯格
  • 豆瓣链接:https://movie.douban.com/subject/26990609/
  • 主  演:梅丽尔·斯特里普 / 汤姆·汉克斯 / 莎拉·保罗森 / 鲍勃·奥登科克 / 崔西·莱茨 / 布莱德利·惠特福德 / 布鲁斯·格林伍德 / 马修·瑞斯 / 爱丽森·布里 / 凯莉·库恩 / 杰西·普莱蒙 / 大卫·克罗斯 / 扎克·伍兹 / 帕特·希利 / 约翰·鲁 / 里克·霍姆斯 / 菲利普·卡斯诺夫 / 杰茜·缪勒 / 斯塔克·桑德斯 / 迈克尔·西里尔·克赖顿 / 威尔·丹顿 / 迪尔德丽·罗夫乔 / 迈克尔·斯图巴

剧情简介

  本片聚焦1971年五角大楼泄密事件。汤姆·汉克斯扮演《华盛顿邮报》总编辑本·布拉德利,梅姨扮演发行人凯瑟琳·格雷厄姆。凯瑟琳·格雷厄姆与本·巴格迪坎要赶在《纽约时报》之前揭露一件历经四届美国总统任期、长达三十余年的庞大掩盖事件。这两个人必须消弭他们之间的差异,各自拿他们的事业、甚至人身自由冒险,让长久以来埋藏在黑暗深处的真相重见光明。
邮报:密战(台) / 战云密报(港) / 邮报 /华盛顿邮报4k The.Post.2017.2160p.BluRay.HEVC.DTS-HD.MA.7.1 4K  UHD蓝光原盘电影信息

第三百四十部4K UHD 蓝光原盘破解版,含完整的 BDMV 文件夹以及数据,AACS 2.0 协议已被完整破解

DISC INFO:

Disc Title:     The.Post.2017.2160p.BluRay.HEVC.DTS-HD.MA.7.1-COASTER
Disc Size:      65,523,698,799 bytes
Protection:     AACS2
BD-Java:        Yes
Extras:         Ultra HD
BDInfo:         0.5.8.7 (compatible layout created by DVDFab 10.0.8.4)

PLAYLIST REPORT:

Name:                   00800.MPLS  
Length:                 1:55:58.618 (h:m:s.ms)
Size:                   61,661,177,856 bytes
Total Bitrate:          70.89 Mbps

VIDEO:

Codec                   Bitrate             Description     
-----                   -------             -----------     
MPEG-H HEVC Video       61553 kbps          2160p / 23.976 fps / 16:9 / Main 10 Profile 5.1 High / 4:2:0 / 10 bits / HDR / BT.2020 /

AUDIO:

Codec                           Language        Bitrate         Description     
-----                           --------        -------         -----------     
DTS-HD Master Audio             English         4551 kbps       7.1 / 48 kHz / 4551 kbps / 24-bit (DTS Core: 5.1-ES / 48 kHz / 1509 kbps / 24-bit)
Dolby Digital Audio             English         448 kbps        5.1 / 48 kHz / 448 kbps
Dolby Digital Audio             Spanish         448 kbps        5.1 / 48 kHz / 448 kbps
Dolby Digital Audio             French          448 kbps        5.1 / 48 kHz / 448 kbps

SUBTITLES:

Codec                           Language        Bitrate         Description     
-----                           --------        -------         -----------     
Presentation Graphics           English         55.317 kbps                     
Presentation Graphics           Spanish         46.118 kbps                     
Presentation Graphics           French          40.47 kbps
REMUX
Video
ID                                       : 1
Format                                   : HEVC
Format/Info                              : High Efficiency Video Coding
Format profile                           : Main 10@L5.1@High
Codec ID                                 : V_MPEGH/ISO/HEVC
Duration                                 : 1 h 55 min
Bit rate                                 : 61.6 Mb/s
Width                                    : 3 840 pixels
Height                                   : 2 160 pixels
Display aspect ratio                     : 16:9
Frame rate mode                          : Constant
Frame rate                               : 23.976 (24000/1001) FPS
Color space                              : YUV
Chroma subsampling                       : 4:2:0 (Type 2)
Bit depth                                : 10 bits
Bits/(Pixel*Frame)                       : 0.310
Stream size                              : 49.9 GiB (91%)
Title                                    : The.Post.2017.2160p.BluRay.REMUX.HEVC.DTS-HD.MA.7.1-FGT
Writing library                          : ATEME Titan File 3.8.13 (4.8.13.0)      
Default                                  : Yes
Forced                                   : No
Color range                              : Limited
Color primaries                          : BT.2020
Transfer characteristics                 : PQ
Matrix coefficients                      : BT.2020 non-constant
Mastering display color primaries        : Display P3
Mastering display luminance              : min: 0.0050 cd/m2, max: 1000 cd/m2

Audio #1
ID                                       : 2
Format                                   : DTS
Format/Info                              : Digital Theater Systems
Format profile                           : MA / ES Matrix / Core
Codec ID                                 : A_DTS
Duration                                 : 1 h 55 min
Bit rate mode                            : Variable / Constant / Constant
Bit rate                                 : 4 551 kb/s / 1 509 kb/s / 1 509 kb/s
Channel(s)                               : 8 channels / 7 channels / 6 channels
Channel positions                        : Front: L C R, Side: L R, Back: L R, LFE / Front: L C R, Side: L R, Back: C, LFE / Front: L C R, Side: L R, LFE
Sampling rate                            : 48.0 kHz
Frame rate                               : 93.750 FPS (512 SPF)
Bit depth                                : 24 bits
Compression mode                         : Lossless / Lossy / Lossy
Stream size                              : 3.69 GiB (7%)
Title                                    : The.Post.2017.2160p.BluRay.REMUX.HEVC.DTS-HD.MA.7.1-FGT
Language                                 : English
Default                                  : Yes
Forced                                   : No

Audio #2
ID                                       : 3
Format                                   : AC-3
Format/Info                              : Audio Coding 3
Codec ID                                 : A_AC3
Duration                                 : 1 h 55 min
Bit rate mode                            : Constant
Bit rate                                 : 448 kb/s
Channel(s)                               : 6 channels
Channel positions                        : Front: L C R, Side: L R, LFE
Sampling rate                            : 48.0 kHz
Frame rate                               : 31.250 FPS (1536 SPF)
Bit depth                                : 16 bits
Compression mode                         : Lossy
Stream size                              : 372 MiB (1%)
Title                                    : The.Post.2017.2160p.BluRay.REMUX.HEVC.DTS-HD.MA.7.1-FGT
Language                                 : English
Service kind                             : Complete Main
Default                                  : No
Forced                                   : No

Audio #3
ID                                       : 4
Format                                   : AC-3
Format/Info                              : Audio Coding 3
Codec ID                                 : A_AC3
Duration                                 : 1 h 55 min
Bit rate mode                            : Constant
Bit rate                                 : 448 kb/s
Channel(s)                               : 6 channels
Channel positions                        : Front: L C R, Side: L R, LFE
Sampling rate                            : 48.0 kHz
Frame rate                               : 31.250 FPS (1536 SPF)
Bit depth                                : 16 bits
Compression mode                         : Lossy
Stream size                              : 372 MiB (1%)
Title                                    : The.Post.2017.2160p.BluRay.REMUX.HEVC.DTS-HD.MA.7.1-FGT
Language                                 : Spanish
Service kind                             : Complete Main
Default                                  : No
Forced                                   : No

Audio #4
ID                                       : 5
Format                                   : AC-3
Format/Info                              : Audio Coding 3
Codec ID                                 : A_AC3
Duration                                 : 1 h 55 min
Bit rate mode                            : Constant
Bit rate                                 : 448 kb/s
Channel(s)                               : 6 channels
Channel positions                        : Front: L C R, Side: L R, LFE
Sampling rate                            : 48.0 kHz
Frame rate                               : 31.250 FPS (1536 SPF)
Bit depth                                : 16 bits
Compression mode                         : Lossy
Stream size                              : 372 MiB (1%)
Title                                    : The.Post.2017.2160p.BluRay.REMUX.HEVC.DTS-HD.MA.7.1-FGT
Language                                 : French
Service kind                             : Complete Main
Default                                  : No
Forced                                   : No

Text #1
ID                                       : 6
Format                                   : PGS
Muxing mode                              : zlib
Codec ID                                 : S_HDMV/PGS
Codec ID/Info                            : Picture based subtitle format used on BDs/HD-DVDs
Duration                                 : 1 h 48 min
Bit rate                                 : 59.1 kb/s
Count of elements                        : 4568
Stream size                              : 45.9 MiB (0%)
Title                                    : English-PGS
Language                                 : English
Default                                  : Yes
Forced                                   : No

Text #2
ID                                       : 7
Format                                   : PGS
Muxing mode                              : zlib
Codec ID                                 : S_HDMV/PGS
Codec ID/Info                            : Picture based subtitle format used on BDs/HD-DVDs
Duration                                 : 1 h 54 min
Bit rate                                 : 40.8 kb/s
Count of elements                        : 3618
Stream size                              : 33.6 MiB (0%)
Title                                    : French-PGS
Language                                 : French
Default                                  : No
Forced                                   : No

Text #3
ID                                       : 8
Format                                   : PGS
Muxing mode                              : zlib
Codec ID                                 : S_HDMV/PGS
Codec ID/Info                            : Picture based subtitle format used on BDs/HD-DVDs
Duration                                 : 1 h 54 min
Bit rate                                 : 46.5 kb/s
Count of elements                        : 3606
Stream size                              : 38.3 MiB (0%)
Title                                    : Spanish-PGS
Language                                 : Spanish
Default                                  : No
Forced                                   : No

Menu
00:00:00.000                             : en:Chapter 1
00:05:01.926                             : en:Chapter 2
00:10:08.733                             : en:Chapter 3
00:12:32.793                             : en:Chapter 4
00:16:22.398                             : en:Chapter 5
00:19:19.616                             : en:Chapter 6
00:24:53.325                             : en:Chapter 7
00:30:23.988                             : en:Chapter 8
00:34:51.672                             : en:Chapter 9
00:39:08.679                             : en:Chapter 10
00:43:25.811                             : en:Chapter 11
00:48:20.564                             : en:Chapter 12
00:54:38.692                             : en:Chapter 13
00:59:39.784                             : en:Chapter 14
01:03:49.116                             : en:Chapter 15
01:09:59.570                             : en:Chapter 16
01:14:04.857                             : en:Chapter 17
01:20:20.273                             : en:Chapter 18
01:24:30.732                             : en:Chapter 19
01:30:22.667                             : en:Chapter 20
01:35:23.759                             : en:Chapter 21
01:38:46.545                             : en:Chapter 22
01:43:07.723                             : en:Chapter 23
01:49:27.852                             : en:Chapter 24

邮报:密战(台) / 战云密报(港) / 邮报 /华盛顿邮报4k The.Post.2017.2160p.BluRay.HEVC.DTS-HD.MA.7.1 4K  UHD蓝光原盘电影下载

华盛顿邮报4k The.Post.2017.2160p.BluRay.HEVC.DTS-HD.MA.7.1-COASTER  (4K UHD 蓝光破解版 2160p 61.02GB )
游客,如果您要查看本帖隐藏内容请回复


华盛顿邮报4k The.Post.2017.2160p.BluRay.REMUX.HEVC.DTS-HD.MA.7.1  (4K UHD 蓝光破解版 2160p 54.68GB )
游客,如果您要查看本帖隐藏内容请回复



发表于 2018-4-15 14:29 | 显示全部楼层
支持支持再支持
发表于 2018-4-15 15:55 | 显示全部楼层
支持hao4k发展,支持楼主在Hao4k发布4K视频资源。
发表于 2018-4-15 16:50 | 显示全部楼层
感谢楼主,看下4k
发表于 2018-4-15 16:50 | 显示全部楼层
支持hao4k发展,支持楼主在Hao4k发布4K视频资源。
发表于 2018-4-15 17:35 | 显示全部楼层
感谢楼主发片
发表于 2018-4-15 17:42 来自手机 | 显示全部楼层
不错 支持一个了
发表于 2018-4-15 17:49 | 显示全部楼层

支持hao4k发展,支持楼主在Hao4k发布4K视频资源。
发表于 2018-4-15 19:37 | 显示全部楼层
谢谢分享!!
发表于 2018-4-15 19:43 | 显示全部楼层
感谢hao4k这个网站提供这么多4K视频资源,太棒了!
您需要登录后才可以回帖 登录 | 立即注册

本版积分规则

返回顶部 联系我们