跳转到指定楼层
楼主

片  名:虎胆龙威4K [下载地址在帖子底部]

  • 年  代:80年代  
  • 国  家:美国 
  • 类  别:动作 犯罪 惊悚 
  • 字  幕:无字幕
  • 字幕链接:
  • 上映日期:1988-07-20
  • 文件格式:mp4    mkv   
  • 视频效果:4K(3840x2160)    
  • 资源大小:59.3GB
  • 片  长:132分钟
  • 导  演:约翰·麦克蒂尔南
  • 豆瓣链接:https://movie.douban.com/subject/1292697
  • 主  演:杰布·斯图尔特 / 罗德里戈·索普 / 斯蒂芬·E.德·索萨
    主演: 布鲁斯·威利斯 / 艾伦·瑞克曼 / 邦妮·比蒂丽娅 / 亚历山大·乔杜诺夫 / 威廉·阿瑟东 / 哈特·巴克纳 / 詹姆斯·繁田

剧情简介

警探约翰•麦卡伦(布鲁斯•威利斯 饰)从纽约来到洛杉矶,见他分别已有半年之久的妻子霍莉(邦尼•彼地丽娅 饰)。他被邀请参加在一栋大厦的30层举行的圣诞晚会。然而一群匪徒却打起了大厦金库中存有的六亿多元公债券的主意。他们封锁了大楼,将参加晚会的人扣作人质。麦卡伦侥幸逃脱,只身与匪徒们展开了激烈的斗争
终极警探(台) / Piège de cristal / Stirb langsam、虎胆龙威4K Die.Hard.1988.2160p.BluRay.HEVC.DTS-HD.MA.5.1-TASTED 4K  UHD蓝光原盘电影信息

第344部4K UHD 蓝光原盘破解版,含完整的 BDMV 文件夹以及数据,AACS 2.0 协议已被完整破解


DISC INFO:

Disc Title:     Die.Hard.1988.2160p.BluRay.HEVC.DTS-HD.MA.5.1-TASTED
Disc Size:      63,676,829,460 bytes
Protection:     AACS2
BD-Java:        Yes
Extras:         Ultra HD
BDInfo:         0.5.8.7 (compatible layout created by DVDFab 10.0.9.0)

PLAYLIST REPORT:

Name:                   00501.MPLS  
Length:                 2:12:06.918 (h:m:s.ms)
Size:                   62,730,958,848 bytes
Total Bitrate:          63.31 Mbps

VIDEO:

Codec                   Bitrate             Description     
-----                   -------             -----------     
MPEG-H HEVC Video       45932 kbps          2160p / 23.976 fps / 16:9 / Main 10 Profile 5.1 High / 4:2:0 / 10 bits / HDR / BT.2020 /

AUDIO:

Codec                           Language        Bitrate         Description     
-----                           --------        -------         -----------     
DTS-HD Master Audio             English         2034 kbps       2.0 / 48 kHz / 2034 kbps / 24-bit (DTS Core: 2.0 / 48 kHz / 1509 kbps / 24-bit)
Dolby Digital Audio             Spanish         448 kbps        5.1 / 48 kHz / 448 kbps
DTS Audio                       French          768 kbps        5.1 / 48 kHz / 768 kbps / 24-bit
DTS Audio                       Spanish         768 kbps        5.1 / 48 kHz / 768 kbps / 24-bit
DTS Audio                       German          768 kbps        5.1 / 48 kHz / 768 kbps / 24-bit
DTS Audio                       Italian         768 kbps        5.1 / 48 kHz / 768 kbps / 24-bit
Dolby Digital Audio             Czech           192 kbps        2.0 / 48 kHz / 192 kbps
Dolby Digital Audio             Polish          448 kbps        5.1 / 48 kHz / 448 kbps
DTS Audio                       Japanese        768 kbps        5.1 / 48 kHz / 768 kbps / 24-bit
DTS Audio                       Japanese        768 kbps        5.1 / 48 kHz / 768 kbps / 24-bit
DTS Audio                       Japanese        768 kbps        5.1 / 48 kHz / 768 kbps / 24-bit
Dolby Digital Audio             English         224 kbps        2.0 / 48 kHz / 224 kbps
Dolby Digital Audio             English         224 kbps        2.0 / 48 kHz / 224 kbps
DTS-HD Master Audio             English         3672 kbps       5.1 / 48 kHz / 3672 kbps / 24-bit (DTS Core: 5.1 / 48 kHz / 1509 kbps / 24-bit)

SUBTITLES:

Codec                           Language        Bitrate         Description     
-----                           --------        -------         -----------     
Presentation Graphics           English         28.562 kbps                     
Presentation Graphics           Spanish         41.289 kbps                     
Presentation Graphics           French          40.545 kbps                     
Presentation Graphics           Spanish         47.033 kbps                     
Presentation Graphics           Danish          40.358 kbps                     
Presentation Graphics           Dutch           36.811 kbps                     
Presentation Graphics           Finnish         45.983 kbps                     
Presentation Graphics           German          51.117 kbps                     
Presentation Graphics           Italian         44.91 kbps                     
Presentation Graphics           Norwegian       43.891 kbps                     
Presentation Graphics           Swedish         36.725 kbps                     
Presentation Graphics           Chinese         25.425 kbps                     
Presentation Graphics           Czech           47.952 kbps                     
Presentation Graphics           Chinese         21.831 kbps                     
Presentation Graphics           Polish          45.511 kbps                     
Presentation Graphics           Japanese        15.23 kbps                     
Presentation Graphics           Japanese        0.196 kbps                     
Presentation Graphics           Japanese        1.138 kbps                     
Presentation Graphics           Japanese        0.222 kbps                     
Presentation Graphics           English         55.299 kbps                     
Presentation Graphics           French          47.593 kbps                     
Presentation Graphics           Spanish         50.089 kbps                     
Presentation Graphics           Dutch           45.952 kbps                     
Presentation Graphics           German          48.692 kbps                     
Presentation Graphics           Italian         49.387 kbps                     
Presentation Graphics           Japanese        32.551 kbps                     
Presentation Graphics           English         18.719 kbps                     
Presentation Graphics           French          16.818 kbps                     
Presentation Graphics           English         72.808 kbps                     

REMUX
Video
ID                                       : 1
Format                                   : HEVC
Format/Info                              : High Efficiency Video Coding
Format profile                           : Main 10@L5.1@High
Codec ID                                 : V_MPEGH/ISO/HEVC
Duration                                 : 2 h 12 min
Bit rate                                 : 45.9 Mb/s
Width                                    : 3 840 pixels
Height                                   : 2 160 pixels
Display aspect ratio                     : 16:9
Frame rate mode                          : Constant
Frame rate                               : 23.976 (24000/1001) FPS
Color space                              : YUV
Chroma subsampling                       : 4:2:0 (Type 2)
Bit depth                                : 10 bits
Bits/(Pixel*Frame)                       : 0.231
Stream size                              : 42.4 GiB (78%)
Title                                    : Die.Hard.1988.2160p.BluRay.REMUX.HEVC.DTS-HD.MA.5.1-FGT
Default                                  : Yes
Forced                                   : No
Color range                              : Limited
Color primaries                          : BT.2020
Transfer characteristics                 : PQ
Matrix coefficients                      : BT.2020 non-constant
Mastering display color primaries        : Display P3
Mastering display luminance              : min: 0.0050 cd/m2, max: 1000 cd/m2

Audio #1
ID                                       : 2
Format                                   : DTS
Format/Info                              : Digital Theater Systems
Format profile                           : MA / Core
Codec ID                                 : A_DTS
Duration                                 : 2 h 12 min
Bit rate mode                            : Variable / Constant
Bit rate                                 : 3 672 kb/s / 1 509 kb/s
Channel(s)                               : 6 channels
Channel positions                        : Front: L C R, Side: L R, LFE
Sampling rate                            : 48.0 kHz
Frame rate                               : 93.750 FPS (512 SPF)
Bit depth                                : 24 bits
Compression mode                         : Lossless / Lossy
Stream size                              : 3.39 GiB (6%)
Title                                    : Die.Hard.1988.2160p.BluRay.REMUX.HEVC.DTS-HD.MA.5.1-FGT
Language                                 : English
Default                                  : Yes
Forced                                   : No

Audio #2
ID                                       : 3
Format                                   : DTS
Format/Info                              : Digital Theater Systems
Format profile                           : MA / Core
Codec ID                                 : A_DTS
Duration                                 : 2 h 12 min
Bit rate mode                            : Variable / Constant
Bit rate                                 : 2 048 kb/s / 1 509 kb/s
Channel(s)                               : 2 channels
Channel positions                        :  / Front: L R
Sampling rate                            : 48.0 kHz
Frame rate                               : 93.750 FPS (512 SPF)
Bit depth                                : 24 bits
Compression mode                         : Lossless / Lossy
Stream size                              : 1.88 GiB (3%)
Title                                    : Die.Hard.1988.2160p.BluRay.REMUX.HEVC.DTS-HD.MA.5.1-FGT
Language                                 : English
Default                                  : No
Forced                                   : No

Audio #3
ID                                       : 4
Format                                   : AC-3
Format/Info                              : Audio Coding 3
Codec ID                                 : A_AC3
Duration                                 : 2 h 12 min
Bit rate mode                            : Constant
Bit rate                                 : 448 kb/s
Channel(s)                               : 6 channels
Channel positions                        : Front: L C R, Side: L R, LFE
Sampling rate                            : 48.0 kHz
Frame rate                               : 31.250 FPS (1536 SPF)
Bit depth                                : 16 bits
Compression mode                         : Lossy
Delay relative to video                  : 28 ms
Stream size                              : 423 MiB (1%)
Title                                    : Die.Hard.1988.2160p.BluRay.REMUX.HEVC.DTS-HD.MA.5.1-FGT
Language                                 : Spanish
Service kind                             : Complete Main
Default                                  : No
Forced                                   : No

Audio #4
ID                                       : 5
Format                                   : DTS
Format/Info                              : Digital Theater Systems
Codec ID                                 : A_DTS
Duration                                 : 2 h 12 min
Bit rate mode                            : Constant
Bit rate                                 : 768 kb/s
Channel(s)                               : 6 channels
Channel positions                        : Front: L C R, Side: L R, LFE
Sampling rate                            : 48.0 kHz
Frame rate                               : 93.750 FPS (512 SPF)
Bit depth                                : 24 bits
Compression mode                         : Lossy
Stream size                              : 726 MiB (1%)
Title                                    : Die.Hard.1988.2160p.BluRay.REMUX.HEVC.DTS-HD.MA.5.1-FGT
Language                                 : French
Default                                  : No
Forced                                   : No

Audio #5
ID                                       : 6
Format                                   : DTS
Format/Info                              : Digital Theater Systems
Codec ID                                 : A_DTS
Duration                                 : 2 h 12 min
Bit rate mode                            : Constant
Bit rate                                 : 768 kb/s
Channel(s)                               : 6 channels
Channel positions                        : Front: L C R, Side: L R, LFE
Sampling rate                            : 48.0 kHz
Frame rate                               : 93.750 FPS (512 SPF)
Bit depth                                : 24 bits
Compression mode                         : Lossy
Stream size                              : 726 MiB (1%)
Title                                    : Die.Hard.1988.2160p.BluRay.REMUX.HEVC.DTS-HD.MA.5.1-FGT
Language                                 : Spanish
Default                                  : No
Forced                                   : No

Audio #6
ID                                       : 7
Format                                   : DTS
Format/Info                              : Digital Theater Systems
Codec ID                                 : A_DTS
Duration                                 : 2 h 12 min
Bit rate mode                            : Constant
Bit rate                                 : 768 kb/s
Channel(s)                               : 6 channels
Channel positions                        : Front: L C R, Side: L R, LFE
Sampling rate                            : 48.0 kHz
Frame rate                               : 93.750 FPS (512 SPF)
Bit depth                                : 24 bits
Compression mode                         : Lossy
Stream size                              : 726 MiB (1%)
Title                                    : Die.Hard.1988.2160p.BluRay.REMUX.HEVC.DTS-HD.MA.5.1-FGT
Language                                 : German
Default                                  : No
Forced                                   : No

Audio #7
ID                                       : 8
Format                                   : DTS
Format/Info                              : Digital Theater Systems
Codec ID                                 : A_DTS
Duration                                 : 2 h 12 min
Bit rate mode                            : Constant
Bit rate                                 : 768 kb/s
Channel(s)                               : 6 channels
Channel positions                        : Front: L C R, Side: L R, LFE
Sampling rate                            : 48.0 kHz
Frame rate                               : 93.750 FPS (512 SPF)
Bit depth                                : 24 bits
Compression mode                         : Lossy
Stream size                              : 726 MiB (1%)
Title                                    : Die.Hard.1988.2160p.BluRay.REMUX.HEVC.DTS-HD.MA.5.1-FGT
Language                                 : Italian
Default                                  : No
Forced                                   : No

Audio #8
ID                                       : 9
Format                                   : AC-3
Format/Info                              : Audio Coding 3
Codec ID                                 : A_AC3
Duration                                 : 2 h 12 min
Bit rate mode                            : Constant
Bit rate                                 : 192 kb/s
Channel(s)                               : 2 channels
Channel positions                        : Front: L R
Sampling rate                            : 48.0 kHz
Frame rate                               : 31.250 FPS (1536 SPF)
Bit depth                                : 16 bits
Compression mode                         : Lossy
Delay relative to video                  : 28 ms
Stream size                              : 181 MiB (0%)
Title                                    : Die.Hard.1988.2160p.BluRay.REMUX.HEVC.DTS-HD.MA.5.1-FGT
Language                                 : Czech
Service kind                             : Complete Main
Default                                  : No
Forced                                   : No

Audio #9
ID                                       : 10
Format                                   : AC-3
Format/Info                              : Audio Coding 3
Codec ID                                 : A_AC3
Duration                                 : 2 h 12 min
Bit rate mode                            : Constant
Bit rate                                 : 448 kb/s
Channel(s)                               : 6 channels
Channel positions                        : Front: L C R, Side: L R, LFE
Sampling rate                            : 48.0 kHz
Frame rate                               : 31.250 FPS (1536 SPF)
Bit depth                                : 16 bits
Compression mode                         : Lossy
Delay relative to video                  : 28 ms
Stream size                              : 423 MiB (1%)
Title                                    : Die.Hard.1988.2160p.BluRay.REMUX.HEVC.DTS-HD.MA.5.1-FGT
Language                                 : Polish
Service kind                             : Complete Main
Default                                  : No
Forced                                   : No

Audio #10
ID                                       : 11
Format                                   : DTS
Format/Info                              : Digital Theater Systems
Codec ID                                 : A_DTS
Duration                                 : 2 h 12 min
Bit rate mode                            : Constant
Bit rate                                 : 768 kb/s
Channel(s)                               : 6 channels
Channel positions                        : Front: L C R, Side: L R, LFE
Sampling rate                            : 48.0 kHz
Frame rate                               : 93.750 FPS (512 SPF)
Bit depth                                : 24 bits
Compression mode                         : Lossy
Stream size                              : 726 MiB (1%)
Title                                    : Die.Hard.1988.2160p.BluRay.REMUX.HEVC.DTS-HD.MA.5.1-FGT
Language                                 : Japanese
Default                                  : No
Forced                                   : No

Audio #11
ID                                       : 12
Format                                   : DTS
Format/Info                              : Digital Theater Systems
Codec ID                                 : A_DTS
Duration                                 : 2 h 12 min
Bit rate mode                            : Constant
Bit rate                                 : 768 kb/s
Channel(s)                               : 6 channels
Channel positions                        : Front: L C R, Side: L R, LFE
Sampling rate                            : 48.0 kHz
Frame rate                               : 93.750 FPS (512 SPF)
Bit depth                                : 24 bits
Compression mode                         : Lossy
Stream size                              : 726 MiB (1%)
Title                                    : Die.Hard.1988.2160p.BluRay.REMUX.HEVC.DTS-HD.MA.5.1-FGT
Language                                 : Japanese
Default                                  : No
Forced                                   : No

Audio #12
ID                                       : 13
Format                                   : DTS
Format/Info                              : Digital Theater Systems
Codec ID                                 : A_DTS
Duration                                 : 2 h 12 min
Bit rate mode                            : Constant
Bit rate                                 : 768 kb/s
Channel(s)                               : 6 channels
Channel positions                        : Front: L C R, Side: L R, LFE
Sampling rate                            : 48.0 kHz
Frame rate                               : 93.750 FPS (512 SPF)
Bit depth                                : 24 bits
Compression mode                         : Lossy
Stream size                              : 726 MiB (1%)
Title                                    : Die.Hard.1988.2160p.BluRay.REMUX.HEVC.DTS-HD.MA.5.1-FGT
Language                                 : Japanese
Default                                  : No
Forced                                   : No

Audio #13
ID                                       : 14
Format                                   : AC-3
Format/Info                              : Audio Coding 3
Codec ID                                 : A_AC3
Duration                                 : 2 h 12 min
Bit rate mode                            : Constant
Bit rate                                 : 224 kb/s
Channel(s)                               : 2 channels
Channel positions                        : Front: L R
Sampling rate                            : 48.0 kHz
Frame rate                               : 31.250 FPS (1536 SPF)
Bit depth                                : 16 bits
Compression mode                         : Lossy
Delay relative to video                  : 14 ms
Stream size                              : 212 MiB (0%)
Title                                    : Die.Hard.1988.2160p.BluRay.REMUX.HEVC.DTS-HD.MA.5.1-FGT
Language                                 : English
Service kind                             : Complete Main
Default                                  : No
Forced                                   : No

Audio #14
ID                                       : 15
Format                                   : AC-3
Format/Info                              : Audio Coding 3
Codec ID                                 : A_AC3
Duration                                 : 2 h 12 min
Bit rate mode                            : Constant
Bit rate                                 : 224 kb/s
Channel(s)                               : 2 channels
Channel positions                        : Front: L R
Sampling rate                            : 48.0 kHz
Frame rate                               : 31.250 FPS (1536 SPF)
Bit depth                                : 16 bits
Compression mode                         : Lossy
Delay relative to video                  : 24 ms
Stream size                              : 212 MiB (0%)
Title                                    : Die.Hard.1988.2160p.BluRay.REMUX.HEVC.DTS-HD.MA.5.1-FGT
Language                                 : English
Service kind                             : Complete Main
Default                                  : No
Forced                                   : No

Text #1
ID                                       : 16
Format                                   : PGS
Muxing mode                              : zlib
Codec ID                                 : S_HDMV/PGS
Codec ID/Info                            : Picture based subtitle format used on BDs/HD-DVDs
Duration                                 : 2 h 7 min
Bit rate                                 : 29.7 kb/s
Count of elements                        : 2802
Stream size                              : 27.0 MiB (0%)
Title                                    : English-PGS
Language                                 : English
Default                                  : Yes
Forced                                   : No

Text #2
ID                                       : 17
Format                                   : PGS
Muxing mode                              : zlib
Codec ID                                 : S_HDMV/PGS
Codec ID/Info                            : Picture based subtitle format used on BDs/HD-DVDs
Duration                                 : 2 h 11 min
Bit rate                                 : 41.6 kb/s
Count of elements                        : 2702
Stream size                              : 39.0 MiB (0%)
Title                                    : Spanish-PGS
Language                                 : Spanish
Default                                  : No
Forced                                   : No

Text #3
ID                                       : 18
Format                                   : PGS
Muxing mode                              : zlib
Codec ID                                 : S_HDMV/PGS
Codec ID/Info                            : Picture based subtitle format used on BDs/HD-DVDs
Duration                                 : 2 h 11 min
Bit rate                                 : 40.8 kb/s
Count of elements                        : 2084
Stream size                              : 38.3 MiB (0%)
Title                                    : French-PGS
Language                                 : French
Default                                  : No
Forced                                   : No

Text #4
ID                                       : 19
Format                                   : PGS
Muxing mode                              : zlib
Codec ID                                 : S_HDMV/PGS
Codec ID/Info                            : Picture based subtitle format used on BDs/HD-DVDs
Duration                                 : 2 h 11 min
Bit rate                                 : 47.4 kb/s
Count of elements                        : 2110
Stream size                              : 44.4 MiB (0%)
Title                                    : Spanish-PGS
Language                                 : Spanish
Default                                  : No
Forced                                   : No

Text #5
ID                                       : 20
Format                                   : PGS
Muxing mode                              : zlib
Codec ID                                 : S_HDMV/PGS
Codec ID/Info                            : Picture based subtitle format used on BDs/HD-DVDs
Duration                                 : 2 h 11 min
Bit rate                                 : 40.7 kb/s
Count of elements                        : 2054
Stream size                              : 38.1 MiB (0%)
Title                                    : Danish-PGS
Language                                 : Danish
Default                                  : No
Forced                                   : No

Text #6
ID                                       : 21
Format                                   : PGS
Muxing mode                              : zlib
Codec ID                                 : S_HDMV/PGS
Codec ID/Info                            : Picture based subtitle format used on BDs/HD-DVDs
Duration                                 : 2 h 6 min
Bit rate                                 : 38.6 kb/s
Count of elements                        : 2006
Stream size                              : 34.8 MiB (0%)
Title                                    : Dutch-PGS
Language                                 : Dutch
Default                                  : No
Forced                                   : No

Text #7
ID                                       : 22
Format                                   : PGS
Muxing mode                              : zlib
Codec ID                                 : S_HDMV/PGS
Codec ID/Info                            : Picture based subtitle format used on BDs/HD-DVDs
Duration                                 : 2 h 11 min
Bit rate                                 : 46.3 kb/s
Count of elements                        : 2024
Stream size                              : 43.5 MiB (0%)
Title                                    : Finnish-PGS
Language                                 : Finnish
Default                                  : No
Forced                                   : No

Text #8
ID                                       : 23
Format                                   : PGS
Muxing mode                              : zlib
Codec ID                                 : S_HDMV/PGS
Codec ID/Info                            : Picture based subtitle format used on BDs/HD-DVDs
Duration                                 : 2 h 11 min
Bit rate                                 : 51.5 kb/s
Count of elements                        : 2256
Stream size                              : 48.3 MiB (0%)
Title                                    : German-PGS
Language                                 : German
Default                                  : No
Forced                                   : No

Text #9
ID                                       : 24
Format                                   : PGS
Muxing mode                              : zlib
Codec ID                                 : S_HDMV/PGS
Codec ID/Info                            : Picture based subtitle format used on BDs/HD-DVDs
Duration                                 : 2 h 6 min
Bit rate                                 : 47.1 kb/s
Count of elements                        : 2070
Stream size                              : 42.4 MiB (0%)
Title                                    : Italian-PGS
Language                                 : Italian
Default                                  : No
Forced                                   : No

Text #10
ID                                       : 25
Format                                   : PGS
Muxing mode                              : zlib
Codec ID                                 : S_HDMV/PGS
Codec ID/Info                            : Picture based subtitle format used on BDs/HD-DVDs
Duration                                 : 2 h 11 min
Bit rate                                 : 44.2 kb/s
Count of elements                        : 1978
Stream size                              : 41.5 MiB (0%)
Title                                    : Norwegian-PGS
Language                                 : Norwegian
Default                                  : No
Forced                                   : No

Text #11
ID                                       : 26
Format                                   : PGS
Muxing mode                              : zlib
Codec ID                                 : S_HDMV/PGS
Codec ID/Info                            : Picture based subtitle format used on BDs/HD-DVDs
Duration                                 : 2 h 6 min
Bit rate                                 : 38.5 kb/s
Count of elements                        : 1996
Stream size                              : 34.7 MiB (0%)
Title                                    : Swedish-PGS
Language                                 : Swedish
Default                                  : No
Forced                                   : No

Text #12
ID                                       : 27
Format                                   : PGS
Muxing mode                              : zlib
Codec ID                                 : S_HDMV/PGS
Codec ID/Info                            : Picture based subtitle format used on BDs/HD-DVDs
Duration                                 : 2 h 6 min
Bit rate                                 : 26.6 kb/s
Count of elements                        : 2850
Stream size                              : 24.0 MiB (0%)
Title                                    : Chinese-PGS
Language                                 : Chinese
Default                                  : No
Forced                                   : No

Text #13
ID                                       : 28
Format                                   : PGS
Muxing mode                              : zlib
Codec ID                                 : S_HDMV/PGS
Codec ID/Info                            : Picture based subtitle format used on BDs/HD-DVDs
Duration                                 : 2 h 11 min
Bit rate                                 : 48.3 kb/s
Count of elements                        : 2714
Stream size                              : 45.3 MiB (0%)
Title                                    : Czech-PGS
Language                                 : Czech
Default                                  : No
Forced                                   : No

Text #14
ID                                       : 29
Format                                   : PGS
Muxing mode                              : zlib
Codec ID                                 : S_HDMV/PGS
Codec ID/Info                            : Picture based subtitle format used on BDs/HD-DVDs
Duration                                 : 2 h 6 min
Bit rate                                 : 22.8 kb/s
Count of elements                        : 2885
Stream size                              : 20.6 MiB (0%)
Title                                    : Chinese-PGS
Language                                 : Chinese
Default                                  : No
Forced                                   : No

Text #15
ID                                       : 30
Format                                   : PGS
Muxing mode                              : zlib
Codec ID                                 : S_HDMV/PGS
Codec ID/Info                            : Picture based subtitle format used on BDs/HD-DVDs
Duration                                 : 2 h 11 min
Bit rate                                 : 45.8 kb/s
Count of elements                        : 2802
Stream size                              : 43.0 MiB (0%)
Title                                    : Polish-PGS
Language                                 : Polish
Default                                  : No
Forced                                   : No

Text #16
ID                                       : 31
Format                                   : PGS
Muxing mode                              : zlib
Codec ID                                 : S_HDMV/PGS
Codec ID/Info                            : Picture based subtitle format used on BDs/HD-DVDs
Duration                                 : 2 h 6 min
Bit rate                                 : 16.0 kb/s
Count of elements                        : 2208
Stream size                              : 14.4 MiB (0%)
Title                                    : Japnanese-PGS
Language                                 : Japanese
Default                                  : No
Forced                                   : No

Text #17
ID                                       : 32
Format                                   : PGS
Muxing mode                              : zlib
Codec ID                                 : S_HDMV/PGS
Codec ID/Info                            : Picture based subtitle format used on BDs/HD-DVDs
Duration                                 : 1 h 33 min
Bit rate                                 : 277 b/s
Count of elements                        : 38
Stream size                              : 190 KiB (0%)
Title                                    : Japnanese-PGS
Language                                 : Japanese
Default                                  : No
Forced                                   : No

Text #18
ID                                       : 33
Format                                   : PGS
Muxing mode                              : zlib
Codec ID                                 : S_HDMV/PGS
Codec ID/Info                            : Picture based subtitle format used on BDs/HD-DVDs
Duration                                 : 1 h 48 min
Bit rate                                 : 1 389 b/s
Count of elements                        : 164
Stream size                              : 1.08 MiB (0%)
Title                                    : Japnanese-PGS
Language                                 : Japanese
Default                                  : No
Forced                                   : No

Text #19
ID                                       : 34
Format                                   : PGS
Muxing mode                              : zlib
Codec ID                                 : S_HDMV/PGS
Codec ID/Info                            : Picture based subtitle format used on BDs/HD-DVDs
Duration                                 : 1 h 33 min
Bit rate                                 : 313 b/s
Count of elements                        : 42
Stream size                              : 215 KiB (0%)
Title                                    : Japnanese-PGS
Language                                 : Japanese
Default                                  : No
Forced                                   : No

Text #20
ID                                       : 35
Format                                   : PGS
Muxing mode                              : zlib
Codec ID                                 : S_HDMV/PGS
Codec ID/Info                            : Picture based subtitle format used on BDs/HD-DVDs
Duration                                 : 2 h 12 min
Bit rate                                 : 55.3 kb/s
Count of elements                        : 3182
Stream size                              : 52.3 MiB (0%)
Title                                    : English-COMMENTARY-PGS
Language                                 : English
Default                                  : No
Forced                                   : No

Text #21
ID                                       : 36
Format                                   : PGS
Muxing mode                              : zlib
Codec ID                                 : S_HDMV/PGS
Codec ID/Info                            : Picture based subtitle format used on BDs/HD-DVDs
Duration                                 : 2 h 12 min
Bit rate                                 : 47.6 kb/s
Count of elements                        : 3089
Stream size                              : 45.0 MiB (0%)
Title                                    : French-COMMENTARY-PGS
Language                                 : French
Default                                  : No
Forced                                   : No

Text #22
ID                                       : 37
Format                                   : PGS
Muxing mode                              : zlib
Codec ID                                 : S_HDMV/PGS
Codec ID/Info                            : Picture based subtitle format used on BDs/HD-DVDs
Duration                                 : 2 h 12 min
Bit rate                                 : 50.1 kb/s
Count of elements                        : 3087
Stream size                              : 47.3 MiB (0%)
Title                                    : Spanish-COMMENTARY-PGS
Language                                 : Spanish
Default                                  : No
Forced                                   : No

Text #23
ID                                       : 38
Format                                   : PGS
Muxing mode                              : zlib
Codec ID                                 : S_HDMV/PGS
Codec ID/Info                            : Picture based subtitle format used on BDs/HD-DVDs
Duration                                 : 2 h 11 min
Bit rate                                 : 46.0 kb/s
Count of elements                        : 3024
Stream size                              : 43.4 MiB (0%)
Title                                    : Dutch-COMMENTARY-PGS
Language                                 : Dutch
Default                                  : No
Forced                                   : No

Text #24
ID                                       : 39
Format                                   : PGS
Muxing mode                              : zlib
Codec ID                                 : S_HDMV/PGS
Codec ID/Info                            : Picture based subtitle format used on BDs/HD-DVDs
Duration                                 : 2 h 12 min
Bit rate                                 : 48.7 kb/s
Count of elements                        : 3091
Stream size                              : 46.0 MiB (0%)
Title                                    : German-COMMENTARY-PGS
Language                                 : German
Default                                  : No
Forced                                   : No

Text #25
ID                                       : 40
Format                                   : PGS
Muxing mode                              : zlib
Codec ID                                 : S_HDMV/PGS
Codec ID/Info                            : Picture based subtitle format used on BDs/HD-DVDs
Duration                                 : 2 h 12 min
Bit rate                                 : 49.4 kb/s
Count of elements                        : 3086
Stream size                              : 46.7 MiB (0%)
Title                                    : Italian-COMMENTARY-PGS
Language                                 : Italian
Default                                  : No
Forced                                   : No

Text #26
ID                                       : 41
Format                                   : PGS
Muxing mode                              : zlib
Codec ID                                 : S_HDMV/PGS
Codec ID/Info                            : Picture based subtitle format used on BDs/HD-DVDs
Duration                                 : 2 h 11 min
Bit rate                                 : 32.6 kb/s
Count of elements                        : 2812
Stream size                              : 30.8 MiB (0%)
Title                                    : Japanese-PGS
Language                                 : Japanese
Default                                  : No
Forced                                   : No

Text #27
ID                                       : 42
Format                                   : PGS
Muxing mode                              : zlib
Codec ID                                 : S_HDMV/PGS
Codec ID/Info                            : Picture based subtitle format used on BDs/HD-DVDs
Duration                                 : 2 h 10 min
Bit rate                                 : 19.0 kb/s
Count of elements                        : 1109
Stream size                              : 17.7 MiB (0%)
Title                                    : English-PGS
Language                                 : English
Default                                  : No
Forced                                   : No

Text #28
ID                                       : 43
Format                                   : PGS
Muxing mode                              : zlib
Codec ID                                 : S_HDMV/PGS
Codec ID/Info                            : Picture based subtitle format used on BDs/HD-DVDs
Duration                                 : 2 h 11 min
Bit rate                                 : 16.9 kb/s
Count of elements                        : 1106
Stream size                              : 15.9 MiB (0%)
Title                                    : French-PGS
Language                                 : French
Default                                  : No
Forced                                   : No

Text #29
ID                                       : 44
Format                                   : PGS
Muxing mode                              : zlib
Codec ID                                 : S_HDMV/PGS
Codec ID/Info                            : Picture based subtitle format used on BDs/HD-DVDs
Duration                                 : 2 h 9 min
Bit rate                                 : 74.4 kb/s
Count of elements                        : 3752
Stream size                              : 68.8 MiB (0%)
Title                                    : English-COMMENTARY-PGS
Language                                 : English
Default                                  : No
Forced                                   : No

Menu
00:00:00.000                             : en:Chapter 1
00:02:21.391                             : en:Chapter 2
00:03:57.779                             : en:Chapter 3
00:05:11.936                             : en:Chapter 4
00:06:09.827                             : en:Chapter 5
00:07:50.928                             : en:Chapter 6
00:11:58.134                             : en:Chapter 7
00:13:17.922                             : en:Chapter 8
00:14:03.092                             : en:Chapter 9
00:14:18.357                             : en:Chapter 10
00:16:58.308                             : en:Chapter 11
00:21:00.467                             : en:Chapter 12
00:22:41.985                             : en:Chapter 13
00:24:53.241                             : en:Chapter 14
00:26:50.317                             : en:Chapter 15
00:28:50.228                             : en:Chapter 16
00:33:24.460                             : en:Chapter 17
00:34:08.629                             : en:Chapter 18
00:35:26.415                             : en:Chapter 19
00:38:18.671                             : en:Chapter 20
00:42:33.592                             : en:Chapter 21
00:43:24.143                             : en:Chapter 22
00:45:18.424                             : en:Chapter 23
00:47:59.418                             : en:Chapter 24
00:52:39.030                             : en:Chapter 25
00:56:49.155                             : en:Chapter 26
00:57:55.221                             : en:Chapter 27
00:58:38.723                             : en:Chapter 28
01:00:49.479                             : en:Chapter 29
01:01:38.861                             : en:Chapter 30
01:04:18.396                             : en:Chapter 31
01:07:44.101                             : en:Chapter 32
01:11:58.856                             : en:Chapter 33
01:12:58.290                             : en:Chapter 34
01:19:14.750                             : en:Chapter 35
01:26:10.790                             : en:Chapter 36
01:28:49.782                             : en:Chapter 37
01:29:27.236                             : en:Chapter 38
01:30:06.943                             : en:Chapter 39
01:35:43.446                             : en:Chapter 40
01:38:57.973                             : en:Chapter 41
01:41:26.747                             : en:Chapter 42
01:45:24.609                             : en:Chapter 43
01:47:45.000                             : en:Chapter 44
01:48:10.942                             : en:Chapter 45
01:49:49.958                             : en:Chapter 46
01:51:09.412                             : en:Chapter 47
01:54:16.015                             : en:Chapter 48
01:58:22.762                             : en:Chapter 49
01:59:44.260                             : en:Chapter 50
02:02:00.604                             : en:Chapter 51
02:03:48.838                             : en:Chapter 52
02:05:13.130                             : en:Chapter 53
02:06:28.122                             : en:Chapter 54
02:07:19.048                             : en:Chapter 55

终极警探(台) / Piège de cristal / Stirb langsam、虎胆龙威4K Die.Hard.1988.2160p.BluRay.HEVC.DTS-HD.MA.5.1-TASTED 4K  UHD蓝光原盘电影下载


虎胆龙威4K Die.Hard.1988.2160p.BluRay.HEVC.DTS-HD.MA.5.1-TASTED (4K UHD 蓝光原盘 4K UHD BDISO 2160p 2160p 59.3GB)
游客,如果您要查看本帖隐藏内容请回复


虎胆龙威4K Die.Hard.1988.2160p.BluRay.REMUX.HEVC.DTS-HD.MA.5.1-FGT (4K UHD 蓝光 REMUX 4K UHD BD REMUX 2160p 54.45GB)
游客,如果您要查看本帖隐藏内容请回复

评分

参与人数 1贡献值 +2 收起 理由
fachozin + 2 <font style="vertical-align: inh

查看全部评分



 
沙发
蝶蝶蝶蝶、变 发表于 2018-5-10 19:22 | 只看该作者
楼主能不能多发一点4k电影啊。跪拜 ~~~
板凳
fcmun 发表于 2018-5-10 19:33 | 只看该作者
支持hao4k发展,支持楼主在Hao4k发布4K视频资源。
地板
bigham168 发表于 2018-5-10 19:35 | 只看该作者
thank you for your sharing
5#
kevin1004 发表于 2018-5-10 19:36 | 只看该作者
太感谢了!!!
6#
cjx0649 发表于 2018-5-10 19:42 | 只看该作者
感谢hao4k这个网站提供这么多4K视频资源,太棒了!
7#
大大是的发生 发表于 2018-5-10 19:42 | 只看该作者
感谢hao4k这个网站提供这么多4K视频资源,太棒了!
8#
mcy 发表于 2018-5-10 19:46 | 只看该作者
感谢hao4k这个网站提供这么多4K视频资源,太棒了!
9#
13968069835 发表于 2018-5-10 19:49 | 只看该作者
支持hao4k发展,支持楼主在Hao4k发布4K视频资源。
10#
ljj35400 发表于 2018-5-10 19:53 | 只看该作者
太感谢了!!!
11#
ability 发表于 2018-5-10 19:57 | 只看该作者
支持hao4k发展,支持楼主在Hao4k发布4K视频资源。
12#
lfq9991 发表于 2018-5-10 20:01 | 只看该作者
支持hao4k发展,支持楼主在Hao4k发布4K视频资源。
13#
13714131120 发表于 2018-5-10 20:05 | 只看该作者
感谢hao4k这个网站提供这么多4K视频资源,太棒了!
14#
wangzijian 发表于 2018-5-10 20:06 | 只看该作者
资源不错,Hao4k果然是最大4K资源网站,感激Hao4k论坛。
15#
grave 发表于 2018-5-10 20:18 | 只看该作者
支持支持再支持
16#
phjtcn. 发表于 2018-5-10 20:47 | 只看该作者
资源不错,Hao4k果然是最大4K资源网站,感激Hao4k论坛。
17#
zyqwheel 发表于 2018-5-10 21:08 来自 移动版  | 只看该作者
能下载了吗
18#
peterpjx 发表于 2018-5-10 21:09 | 只看该作者
支持hao4k发展,支持楼主在Hao4k发布4K视频资源。
您需要登录后才可以回帖 登录 | 立即注册

本版积分规则

关闭

站长通知上一条 /1 下一条

返回顶部 联系我们