猜你喜欢

经典4k电影 2012 (2009) [2160P/MKV/14.1GB]

  [复制链接]
查看: 17510|回复: 1802

345

主题

428

帖子

2531

积分

突出贡献

发表于 2016-3-24 00:50:24 | 显示全部楼层 |阅读模式

片  名:2012世界末日 [下载地址在帖子底部]

  • 年  代:
  • 国  家:美国
  • 类  别:动作 科幻 冒险 
  • 字  幕:中文简体
  • 上映日期:2009-11-13
  • 文件格式:mp4    
  • 视频效果:4K(3840x2160)    
  • 文件大小:14.1GB
  • 片  长:158分钟
  • 导  演:罗兰·艾默里奇
  • 豆瓣链接:
  • 主  演:

剧情简介

杰克·杰克逊(约翰·库萨克饰)带着孩子去黄石公园度假,却发现曾有美好回忆的湖泊已经干涸了,而这个地区也成为了禁区。充满疑惑的他在黄石附近的营地偶然认识了查理。查理告诉他由于自然环境和资源长期被人类掠夺性破坏,地球自身的平衡系统已经面临崩溃,人类即将面临空前的自然灾害。查理说有些国家已经在联合秘密研制并建造可以躲避这个灾难的方舟。杰克逊以为他是个疯子就一笑而过走开了。

  第二天灾难发生了。强烈的地震伴随大量陨石的坠落,让眼前熟悉的家园变成了人间炼狱。在地球的其他地方,各种各样的自然灾害也以前所未有的规模爆发。杰克逊和众多家庭一样踏上了求生之路。面对全球性的自然灾害,不知何去何从的他突然想起查理提到过的方舟和地图,于是决定前往方舟基地寻找生存的机会。

  在寻找和前往方舟基地的过程中,杰克逊一家在经历灾难的生死考验之后终于到达了方舟基地。然而已经制造完成的方舟数量远远不能满足从世界各地闻讯涌来的受灾人群。

  谁去谁留已然成为挑战整个人类的道德抉择。面对灾难,来自不同国家的人类做出了最重要的抉择:“所有人都是平等的,都有平等的生存机会!”最后人类终于在方舟中度过了这一全球性的灾害,获得了继续繁衍和发展的希望。


     
General
Unique ID : 187911125231403081981716139879867215362 (0x8D5E5DC59E48B2158FF4FD2A1ACDEE02)
Complete name : 2012 (2009) UHD 4K Upscaled x264 AC3 Soup.mkv
Format : Matroska
Format version : Version 2
File size : 14.1GiB
Duration : 2h 37mn
Overall bit rate : 12.8 Mbps
Movie name : 2012
Encoded date : UTC 2016-2-12 03:51:13
Writing application : DVDFab 9.2.2.8
Writing library : libebml v0.7.8 + libmatroska v0.8.1

Video
ID : 1
Format : AVC
Format/Info : Advanced Video Codec
Format profile : High@L5.1
Format settings, CABAC : Yes
Format settings, ReFrames : 1 frames
Codec ID : V_MPEG4/ISO/AVC
Duration : 2h 37mn
Bit rate : 12.1 Mbps
Width : 3840 pixels
Height : 2160 pixels
Display aspect ratio : 16:9
Frame rate mode : Constant
Frame rate : 23.976 fps (24000/1001)fps
Color space : YUV
Chroma subsampling : 4:2:0
Bit depth : 8 bits
Scan type : Progressive
Bits/(Pixel*Frame) : 0.061
Stream size : 13.1 GiB (93%)
Writing library : x264 core 142
Encoding settings : cabac=1/ref=1/deblock=1:0:0/analyse=0x1:0x111/me=umh/subme=6/psy=0/ mixed_ref=0/me_range=12/chroma_me=1/trellis=0/8x8dct=0/cqm=0/ deadzone=21,11/fast_pskip=1/chroma_qp_offset=0/threads=4/lookahead_threads=1
Default : Yes
Forced : No
Color range : Limited
Color primaries : BT.709
Transfer characteristics : BT.709
Matrix coefficients : BT.709

Audio #1
ID : 2
Format : AC-3
Format/Info : Audio Coding 3
Mode extension : CM (complete main)
Format settings, Endianness : Big
Codec ID : A_AC3
Duration : 2h 37mn
Bit rate mode : Constant  
Bit rate : 640 Kbps  
Channel(s) : 6 channels
Channel positions : Front: L C R, Side: L R, LFE
Sampling rate : 48.0 KHz
Frame rate : 31.250 fps (1536 spf)
Compression mode : Lossy
Stream size : 722 MiB (5%)
Language : English
Default : No
Forced : No



建议各位用极速迅雷来高速下载!最高峰值9MB

经典4k电影 2012 (2009) [2160P/MKV/14.1GB]4K版简体字幕下载:


游客,如果您要查看本帖隐藏内容请回复



经典4k电影 2012 (2009) [2160P/MKV/14.1GB]BT种子百度云下载:

游客,如果您要查看本帖隐藏内容请回复



经典4k电影 2012 (2009) [2160P/MKV/14.1GB]BT种子本地下载:

游客,如果您要查看本帖隐藏内容请回复






更多图片 小图 大图
组图打开中,请稍候......

345

主题

428

帖子

2531

积分

突出贡献

 楼主| 发表于 2016-3-24 00:51:06 | 显示全部楼层
我只是路过打酱油的,赞hao4k

0

主题

1

帖子

7

积分

发表于 2016-3-24 18:08:43 | 显示全部楼层
ok新人求同存异,谈笑风生m

0

主题

7

帖子

12

积分

发表于 2016-3-24 21:37:29 | 显示全部楼层
回的人少,我来小顶一下。支持hao4k发展

0

主题

4

帖子

10

积分

发表于 2016-3-25 08:48:28 | 显示全部楼层
啥也不说了,感谢楼主在hao4k分享哇!

0

主题

14

帖子

20

积分

发表于 2016-3-26 20:21:59 来自手机 | 显示全部楼层
啥也不说了,感谢楼主在hao4k分享哇!

0

主题

8

帖子

10

积分

发表于 2016-3-30 21:21:58 | 显示全部楼层
支持hao4k,支持楼主大人了!

0

主题

8

帖子

18

积分

发表于 2016-3-30 23:34:38 | 显示全部楼层
啥也不说了,感谢楼主在hao4k分享哇!

0

主题

11

帖子

23

积分

发表于 2016-4-9 06:21:28 | 显示全部楼层
啥也不说了,感谢楼主在hao4k分享哇!

0

主题

36

帖子

40

积分

发表于 2016-4-9 15:32:08 | 显示全部楼层
看看效果怎么样       好期待
您需要登录后才可以回帖 登录 | 立即注册

本版积分规则

Copyright   ©2015-2016  hao4k  Powered by©Discuz!