猜你喜欢

超感猎杀 第一季 Sense8 S01 2160p NF WEBRip x264 DD5 1-TrollUHD[rartv] 164.7GB

  [复制链接]
查看: 35579|回复: 223

71

主题

75

帖子

66

K币

Rank: 3Rank: 3

威望
1
积分
272
与世隔绝 发表于 2016-4-25 23:38:51 | 显示全部楼层 |阅读模式
下载连接在帖子最下面

224729f05cec6uzkk55wn7.jpg
◎译  名 超感猎杀 第一季/超感八人组/超感八人/第八感/超感8人组
◎片  名 Sense8 Season 1
◎年  代 2015
◎国  家 美国
◎类  别 剧情/科幻
◎语  言 英语
◎上映日期 2015-06-05(美国)
◎IMDb评分  8.4/10 from 56,099 users
◎IMDb链接  http://www.imdb.com/title/tt2431438/
◎豆瓣评分 8.7/10 from 19,682 users
◎豆瓣链接 http://movie.douban.com/subject/23011215/
◎集  数 12
◎片  长 60分钟
◎导  演 安迪·沃卓斯基 Andy Wachowski / 拉娜·沃卓斯基 Lana Wachowski / 汤姆·提克威 Tom Tykwer / 詹姆斯·麦克特格 James McTeigue / Dan Glass
◎主  演 米格尔·安格·希尔维斯特 Miguel ángel Silvestre
      杰米·克莱顿 Jamie Clayton
      布莱恩·J·史密斯 Brian J. Smith
      裴斗娜 Doona Bae
      阿梅尔·艾米恩 Aml Ameen
      塔彭丝·米德尔顿 Tuppence Middleton
      马克思·雷迈特 Max Riemelt
      蒂娜·德赛 Tina Desai
      弗莉玛·阿吉曼 Freema Agyeman
      纳威恩·安德利维斯 Naveen Andrews
      达丽尔·汉纳 Daryl Hannah
      豪威·约翰逊 Howie Johnson
      亚当·沙皮罗 Adam Shapiro
      拉里·克拉克 Larry Clarke
      克里斯蒂安·奥列佛 Christian Oliver
      乔·潘托里亚诺 Joe Pantoliano
      马克思 马福 Max Mauff

◎简  介

  本剧由《黑客帝国》系列和《云图》导演沃卓斯基姐弟与《巴比伦5号》编剧、著名制作人J·迈克尔·斯特拉辛斯基共同监制此剧,讲述来自不同城市的八位陌生人,不同身份,不同取向,因为某个神秘事件实现通感,不仅共享情感和思想,还能共享语言和技能。一方面,有个神秘人想将这八个人聚集在   一起;另一方面,一个神秘组织又使尽一切手段猎杀他们。他们必须齐心协力,杀出一条生路,找寻超感真相。
  影片八人组的成员包括《自由坠落》的德意志美男马克思·雷迈特,《男孩战争》的美利坚帅哥布莱恩·J·史密斯,《空乘情人》的西班牙型男米格尔·安格·希尔维斯特,《木星上行》和《星图》的韩国女演员裴斗娜等实力演员。
  剧集已于当地时间6月5日在Netflix放出整季,并引发讨论热潮,成为现象级的热门科幻剧集
  • Video
  • ID : 1
  • Format : AVC
  • Format/Info : Advanced Video Codec
  • Format profile : High@L5.1
  • Format settings, CABAC : Yes
  • Format settings, ReFrames : 5 frames
  • Codec ID : V_MPEG4/ISO/AVC
  • Duration : 1h 6mn
  • Bit rate : 33.7 Mbps
  • Width : 3 840 pixels
  • Height : 2 160 pixels
  • Display aspect ratio : 16:9
  • Frame rate mode : Constant
  • Frame rate : 23.976 (24000/1001) fps
  • Color space : YUV
  • Chroma subsampling : 4:2:0
  • Bit depth : 8 bits
  • Scan type : Progressive
  • Bits/(Pixel*Frame) : 0.170
  • Stream size : 15.7 GiB (98%)
  • Writing library : x264 core 146 r2538 121396c
  • Encoding settings : cabac=1 / ref=5 / deblock=1:-2:-2 / analyse=0x3:0x133 / me=umh / subme=10 / psy=1 / psy_rd=1.00:0.15 / mixed_ref=1 / me_range=48 / chroma_me=1 / trellis=2 / 8x8dct=1 / cqm=0 / deadzone=21,11 / fast_pskip=1 / chroma_qp_offset=-3 / threads=12 / lookahead_threads=2 / sliced_threads=0 / nr=0 / decimate=0 / interlaced=0 / bluray_compat=0 / constrained_intra=0 / bframes=8 / b_pyramid=2 / b_adapt=2 / b_bias=0 / direct=3 / weightb=1 / open_gop=0 / weightp=2 / keyint=240 / keyint_min=23 / scenecut=40 / intra_refresh=0 / rc_lookahead=60 / rc=crf / mbtree=1 / crf=18.0 / qcomp=0.70 / qpmin=0 / qpmax=69 / qpstep=4 / vbv_maxrate=300000 / vbv_bufsize=300000 / crf_max=0.0 / nal_hrd=none / filler=0 / ip_ratio=1.30 / aq=1:0.90
  • Default : Yes
  • Forced : No
  • Audio
  • ID : 2
  • Format : AC-3
  • Format/Info : Audio Coding 3
  • Mode extension : CM (complete main)
  • Format settings, Endianness : Big
  • Codec ID : A_AC3
  • Duration : 1h 6mn
  • Bit rate mode : Constant
  • Bit rate : 640 Kbps
  • Channel(s) : 6 channels
  • Channel positions : Front: L C R, Side: L R, LFE
  • Sampling rate : 48.0 KHz
  • Frame rate : 31.250 fps (1536 spf)
  • Compression mode : Lossy
  • Stream size : 305 MiB (2%)
  • Language : English
  • Default : Yes
  • Forced : No
  • Text #1
  • ID : 3
  • Format : UTF-8
  • Codec ID : S_TEXT/UTF8
  • Codec ID/Info : UTF-8 Plain Text
  • Duration : 1h 3mn
  • Bit rate : 46 bps
  • Count of elements : 699
  • Stream size : 21.6 KiB (0%)
  • Language : English
  • Default : No
  • Forced : No
  • Text #2
  • ID : 4
  • Format : UTF-8
  • Codec ID : S_TEXT/UTF8
  • Codec ID/Info : UTF-8 Plain Text
  • Duration : 1h 1mn
  • Bit rate : 40 bps
  • Count of elements : 560
  • Stream size : 18.2 KiB (0%)
  • Language : Portuguese
  • Default : No
  • Forced : No
  • Text #3
  • ID : 5
  • Format : UTF-8
  • Codec ID : S_TEXT/UTF8
  • Codec ID/Info : UTF-8 Plain Text
  • Duration : 1h 1mn
  • Bit rate : 40 bps
  • Count of elements : 543
  • Stream size : 18.0 KiB (0%)
  • Language : Danish
  • Default : No
  • Forced : No
  • Text #4
  • ID : 6
  • Format : UTF-8
  • Codec ID : S_TEXT/UTF8
  • Codec ID/Info : UTF-8 Plain Text
  • Duration : 1h 1mn
  • Bit rate : 35 bps
  • Count of elements : 483
  • Stream size : 15.9 KiB (0%)
  • Language : Dutch
  • Default : No
  • Forced : No
  • Text #5
  • ID : 7
  • Format : UTF-8
  • Codec ID : S_TEXT/UTF8
  • Codec ID/Info : UTF-8 Plain Text
  • Duration : 1h 1mn
  • Bit rate : 37 bps
  • Count of elements : 542
  • Stream size : 16.8 KiB (0%)
  • Language : Finnish
  • Default : No
  • Forced : No
  • Text #6
  • ID : 8
  • Format : UTF-8
  • Codec ID : S_TEXT/UTF8
  • Codec ID/Info : UTF-8 Plain Text
  • Duration : 1h 1mn
  • Bit rate : 40 bps
  • Count of elements : 547
  • Stream size : 18.2 KiB (0%)
  • Language : French
  • Default : No
  • Forced : No
  • Text #7
  • ID : 9
  • Format : UTF-8
  • Codec ID : S_TEXT/UTF8
  • Codec ID/Info : UTF-8 Plain Text
  • Duration : 1h 1mn
  • Bit rate : 41 bps
  • Count of elements : 529
  • Stream size : 18.6 KiB (0%)
  • Language : German
  • Default : No
  • Forced : No
  • Text #8
  • ID : 10
  • Format : UTF-8
  • Codec ID : S_TEXT/UTF8
  • Codec ID/Info : UTF-8 Plain Text
  • Duration : 1h 1mn
  • Bit rate : 39 bps
  • Count of elements : 531
  • Stream size : 17.6 KiB (0%)
  • Language : Norwegian
  • Default : No
  • Forced : No
  • Text #9
  • ID : 11
  • Format : UTF-8
  • Codec ID : S_TEXT/UTF8
  • Codec ID/Info : UTF-8 Plain Text
  • Duration : 1h 1mn
  • Bit rate : 39 bps
  • Count of elements : 535
  • Stream size : 17.8 KiB (0%)
  • Language : Spanish
  • Default : No
  • Forced : No
  • Text #10
  • ID : 12
  • Format : UTF-8
  • Codec ID : S_TEXT/UTF8
  • Codec ID/Info : UTF-8 Plain Text
  • Duration : 1h 1mn
  • Bit rate : 36 bps
  • Count of elements : 552
  • Stream size : 16.6 KiB (0%)
  • Language : Swedish
  • Default : No
  • Forced : No


复制代码
224553k5aapwnybahxumaw.png
224554y14e1ferfp1r1or1.png
224555v9awz77oaeizcsoz.png
224556yy8vbrhrxpf595be.png
224557vsbqubfgrmqzvfst.png
224558wex8otyov6o8qybt.png

超感猎杀 第一季 Sense8 S01 2160p NF WEBRip x264 DD5 1-TrollUHD[rartv] 164.7GB
游客,如果您要查看本帖隐藏内容请回复



评分

参与人数 1金钱 +3 收起 理由
zhurui1980 + 3 很给力!

查看全部评分

0

主题

9

帖子

0

K币

Rank: 1

威望
0
积分
10
路人 发表于 2016-5-3 07:13:06 来自手机 | 显示全部楼层
{subject}楼主能不能高点4k演示视频啊~~~

0

主题

8

帖子

0

K币

Rank: 1

威望
0
积分
10
多少个明天 发表于 2016-5-8 10:31:27 | 显示全部楼层
4k视频片源我来了,谢谢提供~~

0

主题

13

帖子

0

K币

Rank: 1

威望
0
积分
13
分手、随缘 发表于 2016-5-8 14:45:01 | 显示全部楼层
{subject}楼主能不能高点4k演示视频啊~~~

0

主题

13

帖子

0

K币

Rank: 1

威望
0
积分
15
心底青苔 发表于 2016-5-10 21:07:10 来自手机 | 显示全部楼层
支持一下hao4k的发展!

0

主题

10

帖子

0

K币

Rank: 1

威望
0
积分
11
“从头开始” 发表于 2016-5-13 18:04:47 | 显示全部楼层
找了很久这个4k视频了,我要4k测试视频~~

0

主题

32

帖子

7

K币

Rank: 1

威望
1
积分
39
longeryuguoer 发表于 2016-9-29 18:44:46 | 显示全部楼层
哇,164G,太大了,还好我硬盘分区够大

0

主题

39

帖子

641

K币

Rank: 2

威望
13
积分
516
hdtv55990857 发表于 2016-10-20 18:09:58 | 显示全部楼层
啥也不说了,感谢楼主在hao4k分享4k视频内容哇!

0

主题

9

帖子

4

K币

Rank: 1

威望
0
积分
13
wu2130052 发表于 2016-11-22 13:26:47 | 显示全部楼层
fsdfsdfsdfsdfsdf

0

主题

147

帖子

9

K币

Rank: 1

威望
0
积分
219
石学杰 发表于 2016-12-14 17:43:04 | 显示全部楼层
啥也不说了,感谢楼主在hao4k分享4k视频内容哇!
您需要登录后才可以回帖 登录 | 立即注册

本版积分规则

Copyright   ©2015-2016  hao4k  Powered by©Discuz!