猜你喜欢
开启左侧

降临 Arrival (2016)4K UHD Bluray HEVC Multi DTSHD 7.1 -DDR【26GB/BT】

  [复制链接]
hao4k 发表于 2017-2-22 11:21:08 | 显示全部楼层 |阅读模式

片  名:降临 Arrival [下载地址在帖子底部]

  • 年  代:2017  
  • 国  家:大陆
  • 类  别:冒险 西部 
  • 字  幕:中文简体
  • 上映日期:2017-01-20
  • 文件格式:mp4    
  • 视频效果:4K(3840x2160)    
  • 文件大小:26GB
  • 片  长:116分钟
  • 导  演:丹尼斯·维伦纽瓦

剧情简介

地球的上空突然出现了十二架贝壳状的不明飞行物,悬浮在十二个不同的国家的上空,外星人向人类发出了讯号,但人类却并不能够解读。美国军方找到了语言学家路易斯(艾米·亚当斯 Amy Adams 饰)和物理学家伊恩(杰瑞米·雷纳 Jeremy Renner 饰),希望两人能够合作破解外星人的语言之谜。
  经过数次的接触,路易斯发现外星人使用了一种极为特殊的圆环状的文字,并逐渐了解了其中的奥妙。由于一直无法确定外星人来到地球的真正目的,中国、俄罗斯等四国决定对外星人发起进攻,美方亦决定放弃研究将全部人员撤离,在这个节骨眼上,路易斯终于明白了外星人的意图,利用外星人赋予她的特殊的“武器”,路易斯以一人之力改变了未来。
降临 Arrival (2016)4K UHD Bluray HEVC Multi DTSHD 7.1 -DDR



导演: 丹尼斯·维伦纽瓦
编剧: 埃里克·海瑟尔 / 特德·姜
主演: 艾米·亚当斯 / 杰瑞米·雷纳 / 福里斯特·惠特克 / 迈克尔·斯图巴 / 马志 / 更多...
类型: 剧情 / 科幻
官方网站: www.arrivalmovie.com
制片国家/地区: 美国
语言: 英语 / 汉语普通话
上映日期: 2017-01-20(中国大陆) / 2016-09-01(威尼斯电影节) / 2016-11-11(美国)
片长: 116分钟
又名: 你一生的故事 / 天煞异降(港) / 异星入境(台) / 抵达 / 抵达者 / Story of Your Life
IMDb链接: tt2543164

降临的剧情简介  ·  ·  ·  ·  ·  ·  地球的上空突然出现了十二架贝壳状的不明飞行物,悬浮在十二个不同的国家的上空,外星人向人类发出了讯号,但人类却并不能够解读。美国军方找到了语言学家路易斯(艾米·亚当斯 Amy Adams 饰)和物理学家伊恩(杰瑞米·雷纳 Jeremy Renner 饰),希望两人能够合作破解外星人的语言之谜。
  经过数次的接触,路易斯发现外星人使用了一种极为特殊的圆环状的文字,并逐渐了解了其中的奥妙。由于一直无法确定外星人来到地球的真正目的,中国、俄罗斯等四国决定对外星人发起进攻,美方亦决定放弃研究将全部人员撤离,在这个节骨眼上,路易斯终于明白了外星人的意图,利用外星人赋予她的特殊的“武器”,路易斯以一人之力改变了未来。


2160p 4K UltraHD BluRay Rip
HEVC x265 BT709

English DTSHD-MA 7.1 Audio
French DDS 5.1 Audio
Spanish DDS 5.1 Audio

English, French & Spanish Subs

SCREENSHOTS

SPECS
Source : 4K UHD BluRay @ Hao4k.com (Thanks)
Format : Matroska
File size : 23.5 GiB
Duration : 1 h 56 min
Overall bit rate : 28.9 Mb/s

Video
Format : HEVC
Format profile : Main [email protected]@Main
Bit rate : 23.3 Mb/s
Width : 3 840 pixels
Height : 1 600 pixels
Display aspect ratio : 2.40:1
Frame rate : 23.976 (24000/1001) FPS
Bit depth : 8 bits
Stream size : 18.9 GiB (81%)
Color primaries : BT.709

Audio #1
Format : DTS MA / Core
Bit rate : 4 207 kb/s / 1 509 kb/s
Channel(s) : 8 channels
Stream size : 3.42 GiB (15%)
Language : English

Audio #2
Format : AC-3
Bit rate : 640 kb/s
Channel(s) : 6 channels
Bit depth : 16 bits
Stream size : 533 MiB (2%)
Language : French

Audio #3
Format : AC-3
Bit rate : 640 kb/s
Channel(s) : 6 channels
Bit depth : 16 bits
Stream size : 533 MiB (2%)
Language : Spanish

Chapters : YES

SAMPLE Included
A DDR Exclusive Release



降临 Arrival (2016)4K UHD Bluray HEVC Multi DTSHD 7.1 -DDR【24GB/BT】免费下载:

游客,如果您要查看本帖隐藏内容请回复


4k资源由hao4k测试为有效资源,资源下载速度如下图:
123.png









更多图片 小图 大图
组图打开中,请稍候......

点评

资源非常好: 5.0
资源非常好: 5
楼主辛苦了,电影我拿走了!!  发表于 2017-5-10 19:57
╰Esc__·╮夕颜 发表于 2017-2-22 11:21:22 来自手机 | 显示全部楼层
回帖=珍惜生命、珍惜hao4k网站,果断回帖。
 楼主| hao4k 发表于 2017-2-22 11:48:23 | 显示全部楼层
回的人少,我来小顶一下。支持hao4k发展
Alleys 发表于 2017-2-22 14:32:30 | 显示全部楼层
我只是路过打酱油的,赞hao4k
妙笔书生 发表于 2017-2-22 16:37:03 | 显示全部楼层
感谢楼主分享
gjhzm7340 发表于 2017-2-22 17:34:24 | 显示全部楼层
非常好的电影,谢谢老大!
qqjjqqjj88 发表于 2017-2-22 21:18:16 | 显示全部楼层
感谢楼主分享
。支持hao4k发展
troywith77· 发表于 2017-2-22 22:13:43 | 显示全部楼层
珍惜hao4k网站,果断回帖。
lonsion02 发表于 2017-2-22 22:37:27 | 显示全部楼层
终于来了,谢谢楼主的分享,hao4k有你更精彩!
您需要登录后才可以回帖 登录 | 立即注册

本版积分规则

关闭

站长推荐上一条 /1 下一条

Copyright   ©2015-2016  hao4k  Powered by©Discuz!