猜你喜欢
开启左侧

疾速追杀 John Wick (2014)UHD 4K 2160p HEVC10 SDR多杜比ATMOS 7.1 【BT/39GB】

  [复制链接]
hao4k 发表于 2017-2-24 16:41:11 | 显示全部楼层 |阅读模式

片  名:疾速追杀 John Wick [下载地址在帖子底部]

  • 年  代:2014  
  • 国  家:美国
  • 类  别:动作 惊悚 
  • 字  幕:中文简体
  • 上映日期:2014-10-24
  • 文件格式:mp4    
  • 视频效果:4K(3840x2160)    
  • 文件大小:39GB
  • 片  长:101分钟
  • 导  演:大卫·里奇 / 查德·史塔赫斯基

剧情简介

不久之前刚刚经历丧妻之痛的约翰·威克(基努·里维斯 Keanu Reeves 饰),未曾料到磨难与折磨接二连三袭来。他那辆1964年的福特老爷车被一伙俄罗斯小混混盯上,旋即引来对方入室抢劫,心爱的狗狗被当场杀死,约翰也遭到无情毒打,那辆老爷车自然被对方抢走。偷车的混混(阿尔菲·艾伦 Alfie Allen 饰)是黑帮大佬维格•塔拉索夫(迈克尔·恩奎斯特 Michael Nyqvist 饰)的儿子,而维格在听说这件事后显得紧张非常,因为约翰有着令人胆战心惊的身份。他曾是名震江湖的冷血杀手,当年替塔拉索夫杀掉不少难缠的对手,后来却为了妻子金盆洗手。
  愤怒至极的约翰拒绝塔拉索夫的调解,他决定单枪匹马展开复仇……
疾速追杀 John Wick (2014)UHD 4K 2160p HEVC10 SDR多杜比ATMOS 7.1 【BT/39GB】


John Wick 2014 UHD 4K 2160p HEVC10 SDR Multi Dolby ATMOS 7.1 -Hao4k

2160p 4K UltraHD BluRay Rip
HEVC 10 Bits BT709 SDR

English Dolby ATMOS 7.1 Audio
French VFF DTSHD-MA 5.1 Audio
Spanish DDS 5.1 Audio
Hindi DDS 5.1 Audio

English French Hindi & Spanish Subs+SDH

SCREENSHOTS

SPECS


Source : 4K UHD BluRay
Format : Matroska
File size : 36.0 GiB
Duration : 1 h 41 min
Overall bit rate mode : Variable
Overall bit rate : 50.9 Mb/s

Video
Format : HEVC
Format profile : Main [email protected]@Main
Bit rate : 41.7 Mb/s
Width : 3 840 pixels
Height : 1 600 pixels
Display aspect ratio : 2.40:1
Frame rate : 23.976 (24000/1001) FPS
Bit depth : 10 bits
Stream size : 29.5 GiB (82%)
Color primaries : BT.709

Audio #1
Format : Atmos / TrueHD 7.1
Bit rate : 5 205 kb/s / 6 144 kb/s
Channel(s) : 8 channels
Compression mode : Lossless
Stream size : 3.68 GiB (10%)
Language : English

Audio #2
Format : AC-3
Bit rate : 640 kb/s
Channel(s) : 6 channels
Bit depth : 16 bits
Stream size : 463 MiB (1%)
Language : English

Audio #3
Format : DTS
Format profile : MA / Core
Bit rate : 2 048 kb/s / 1 509 kb/s
Channel(s) : 6 channels
Bit depth : 16 bits
Stream size : 1.43 GiB (4%)
Language : French VFF

Audio #4
Format : AC-3
Bit rate : 640 kb/s
Channel(s) : 6 channels
Bit depth : 16 bits
Stream size : 463 MiB (1%)
Language : Spanish

Audio #5
Format : AC-3
Bit rate : 640 kb/s
Channel(s) : 6 channels
Bit depth : 16 bits
Stream size : 463 MiB (1%)
Language : Hindi

Chapters : YES

SAMPLE Included


疾速追杀 John Wick (2014)UHD 4K 2160p HEVC10 SDR多杜比ATMOS 7.1 【BT/39GB】免费下载:

游客,如果您要查看本帖隐藏内容请回复


更多图片 小图 大图
组图打开中,请稍候......
2867215 发表于 2017-2-24 16:48:05 | 显示全部楼层
啥也不说了,感谢楼主在hao4k分享4k视频内容哇!
kuang 发表于 2017-2-24 19:54:16 | 显示全部楼层
啥也不说了,感谢楼主在hao4k分享4k视频内容哇!
adam79 发表于 2017-2-24 20:00:30 | 显示全部楼层
谢谢分享超高清电影
yangxutai 发表于 2017-2-24 21:50:40 | 显示全部楼层
啥也不说了,感谢楼主在hao4k分享4k视频内容哇!
daidaye 发表于 2017-2-24 23:00:18 | 显示全部楼层
疾速追杀 John Wick (2014)UHD 4K 2160p HEVC10 SDR多杜比ATMOS 7.1 【BT/39GB】
hdemlsd 发表于 2017-2-24 23:45:52 | 显示全部楼层
好疾速追杀 John Wick (2014)UHD 4K 2160p HEVC10 SDR多杜比ATMOS 7.1
自言自语 发表于 2017-2-25 01:25:15 | 显示全部楼层
疾速追杀 John Wick (2014)UHD 4K 2160p HEVC10 SDR多杜比ATMOS 7.1
北橙 发表于 2017-2-25 04:18:34 | 显示全部楼层
支持=支持hao4k,支持楼主大人发布4k资源!
nblsh 发表于 2017-2-25 09:03:02 | 显示全部楼层
谢谢分享。。。
您需要登录后才可以回帖 登录 | 立即注册

本版积分规则

关闭

站长推荐上一条 /1 下一条

Copyright   ©2015-2016  hao4k  Powered by©Discuz!