猜你喜欢

我是传奇 I Am Legend 2160p 4K UltraHD BluRay x265 HEVC 10 Bits Multi TrueHD 5.1

  [复制链接]
查看: 7312|回复: 532

13

主题

46

帖子

99

K币

Rank: 3Rank: 3

智能华哥 发表于 2017-3-3 14:13:33 | 显示全部楼层 |阅读模式

片  名:我是传奇 I Am Legend [下载地址在帖子底部]

  • 年  代:00年代  
  • 国  家:美国
  • 类  别:科幻 惊悚 西部 
  • 字  幕:中文简体
  • 上映日期:2007-12-14
  • 文件格式: 
  • 视频效果:4K(3840x2160)    
  • 文件大小:23.5GB
  • 片  长:101分钟分钟
  • 导  演:弗朗西斯·劳伦斯
  • 豆瓣链接:
  • 主  演:威尔·史密斯 / 艾莉丝·布拉加 / Charlie Tahan / 达什·米霍克 / 莎莉·理查德森

剧情简介

2012年,人类被不知名病毒感染,纽约成为一座空城。Robert Neville(Will Smith 饰)是为军方服务的科学家,也是对病毒有免疫力的幸存者。白天,他带着狗Sam在街道上寻找食物,用广播寻找幸存者,在实验室里研究治愈病毒的方法;晚上,他只能躲在屋子里,因为那些感染病毒而没有死亡的人们,成为了“夜魔”只能夜晚出来活动,丧失理智,会攻击所有的人。
  某天,Sam也感染病毒死去,Robert Neville陷入了前所未有的孤独。当他准备和“夜魔”们同归于尽的时候,另外一个幸存者Anna(Alice Braga 饰)救了他。Anna相信山上的隔离区还有幸存者,但是固执的Robert Neville却坚持守在纽约。
  又一个晚上,“夜魔”攻击Robert Neville的住所,此时他的研究已经获得成功,但是只有坚持到天亮,人类才能得以延存。
我是传奇I Am Legend (2007) 2160p 4K UltraHD BluRay x265 HEVC 10 Bits Multi TrueHD 5.1【BT/23.5GB】


p1459153890.jpg
p1459163677.jpg

p443417080.jpg

p443417152.jpg

p1459168193.jpg

p1459163745.jpg

p1459164056.jpg

p2241479420.jpg


Source : 4K UHD BluRay
Format : Matroska
File size : 21.5 GiB
Duration : 1 h 40 min
Overall bit rate mode : Variable
Overall bit rate : 30.6 Mb/s

Video
Format : HEVC
Format profile : Main 10@L5@Main
Bit rate : 26.2 Mb/s
Width : 3 840 pixels
Height : 2 160 pixels
Display aspect ratio : 16:9
Frame rate : 23.976 (24000/1001) FPS
Bit depth : 10 bits
Stream size : 18.4 GiB (86%)
Color primaries : BT.709

Audio #1
Format : TrueHD
Bit rate : 1 429 kb/s / 3 366 kb/s
Channel(s) : 6 channels
Stream size : 1.53 GiB (12%)
Language : English

Audio #2
Format : AC-3
Bit rate : 448 kb/s
Channel(s) : 6 channels
Language : Japanese

Audio #3
Format : AC-3
Bit rate : 448 kb/s
Channel(s) : 6 channels
Language : French

Audio #4
Format : AC-3
Bit rate : 448 kb/s
Channel(s) : 6 channels
Language : Italian

Audio #5
Format : AC-3
Bit rate : 448 kb/s
Channel(s) : 6 channels
Language : German

Audio #6
Format : AC-3
Bit rate : 448 kb/s
Channel(s) : 6 channels
Language : Spanish

Chapters : YES



我是传奇I Am Legend (2007) 2160p 4K UltraHD BluRay x265 HEVC 10 Bits Multi TrueHD 5.1【BT/23.5GB】下载

游客,如果您要查看本帖隐藏内容请回复




经hao4K资源组测试为有效资源,实测下载速度如下:

XXXZZ.png


0

主题

11

帖子

0

K币

Rank: 1

就此长大了╮ 发表于 2017-3-3 14:43:23 来自手机 | 显示全部楼层
不错=确实是难得4k好帖啊,顶先

0

主题

11

帖子

0

K币

Rank: 1

学习雷锋好榜样 发表于 2017-3-3 16:14:42 | 显示全部楼层
楼主能不能多发一点4k电影啊。跪拜 ~~~

1

主题

12

帖子

12

K币

Rank: 1

tiancziuanlong1 发表于 2017-3-3 16:29:09 | 显示全部楼层
啥也不说了,感谢楼主在hao4k分享4k视频内容哇!

1

主题

41

帖子

122

K币

Rank: 1

nblsh 发表于 2017-3-3 16:29:48 | 显示全部楼层
23g,谢谢分享,

0

主题

2

帖子

5

K币

Rank: 1

秋水长天 发表于 2017-3-3 16:47:03 | 显示全部楼层
确实是难得4k好帖啊,顶先

0

主题

7

帖子

4

K币

Rank: 1

maolinzhao 发表于 2017-3-3 17:01:54 来自手机 | 显示全部楼层
啦啦啦你莫婆婆

0

主题

2

帖子

16

K币

Rank: 1

yanzhang4013 发表于 2017-3-3 17:43:53 | 显示全部楼层
313123232尝试今天看看能不能下载这个电影

0

主题

12

帖子

16

K币

Rank: 1

yaogunpizi 发表于 2017-3-3 18:16:37 | 显示全部楼层
非常不错,谢谢楼主了

0

主题

130

帖子

346

K币

Rank: 1

13396392227 发表于 2017-3-3 18:30:51 | 显示全部楼层
支持hao4k,支持楼主大人发布4k资源!
您需要登录后才可以回帖 登录 | 立即注册

本版积分规则

Copyright   ©2015-2016  hao4k  Powered by©Discuz!