hao4k 发表于 2017-5-3 14:59 | 显示全部楼层 |阅读模式
104249h3oxlxnskxvzvpsp.jpg
$ l' I  z9 y" ~/ C1 J# k, ^ 104249z1avmdvbps6bpapd.jpg
/ |7 I# x% _; }- N! l* p- I. n3 g. d, r" w- G) \1 U
104250opr6ggdzqp9dqk2a.jpg 3 T4 `3 n- C( r1 @' L8 j' X
9 G! v; j" \0 u; s: g2 o
104251y5kz5ammzmza63zs.jpg
' i3 A; _3 |8 M
" V7 k1 O) N& Q9 M 104251n3qc7d3q7c69ewd1.jpg ; o3 a+ l3 ~% U9 E  m- @* O

6 O4 Z* ^" q. A! w+ n% S! Z/ ?( F$ W- b 104252fqzqnplpptpks1c3.jpg
, x4 F; a; r5 u6 _; `( v) w4 ~& W! Z) S
104252ahyextx8hgywtkew.jpg
) d# V& `+ p. [0 L3 ?0 G* P: H9 |0 V0 R/ H7 N
104253ormi4su8xbrbixxq.jpg 3 o. ?8 V3 O* K/ P& h

9 Y. w3 e/ d# M* J# X4 O4k视频
! s# Q! ^6 @7 k) |$ RComplete name                  : G:[索尼.4K.演示片]世界遗产京都The World Heritage Kyoto.mkv
/ r4 q' Y* |4 F1 gFile size                      : 1.39 GiB
" ]% N# B* n; B! |9 ~/ a; `Duration                    : 2mn 23s5 T6 }: A. T6 c, [9 M
Overall bit rate          : 83.5 Mbps
% |( A# P% C0 GFormat                       : AVC, n9 |$ j, U& j8 G* ?9 [3 B
Bit rate                       : 83.4 Mbps: F# f% F/ c; y1 b- F6 E
Width                         : 3 840 pixels4 M  f  Y: a) g0 w" O' K5 r% f/ M  b
Height                        : 2 160 pixels
  s6 R5 n! c$ z0 Q# x3 H2 MDisplay aspect ratio   : 16:9* I# I; _) \- {: r; V( ?
Frame rate                  : 29.970 fps
3 [9 d3 u0 X9 |5 oColor space                : YUV
. a; U7 i# v. Y9 a& jChroma subsampling   : 4:2:0
8 _7 {' j8 h9 Y# ^6 c# H0 {) @Bit depth                    : 8 bits% n  H3 T+ H. X9 O
Stream size                 : 1.39 GiB
3 E) Q  K* |+ T2 d0 k
& }2 z7 L" |2 Z# GAudio: u" J# i1 ]3 w1 [
Format                       : AAC+ L3 o! w# y9 g% y9 \% \" u  ^
Codec ID                   : 40
3 Y+ q, _& |7 u( Q- ?) h. V3 CDuration                    : 2mn 23s
5 y$ b2 M1 S5 b8 @Bit rate                       : 128 Kbps' [/ m5 E& ^! E( }$ a1 D
Nominal bit rate        : 136 bps
' v9 m2 p: u: R" J9 l0 kMaximum bit rate     : 576 Kbps+ C* t$ u! w3 H
Channel(s)                 : 2 channels
  m/ X$ O  X1 F. R' {Channel positions     : Front: L R# }% Z4 {& \4 u& {$ b6 b
Sampling rate           : 48.0 KHz
, }" r5 r: |' W/ M/ Z! x' X6 }Stream size                : 2.18 MiB
9 Q, r1 d4 l6 O0 u: G% {0 p$ f; ?) ~, B# b% ~1 }7 `' n
京都曾作为日本的国都历时1000余年,享有“千年古都”之称。京都古称平安京,城市存在的历史可以追溯到7000年以前。
. d8 d$ a; ~5 o
  d* j; Q; i: [5 n# Q是体验日本文化旅游胜地。
4 Y$ }+ H3 Q* o1 k& o

. L- [& ~# K( q6 v- N0 l2 y! B' y; X索尼4K演示片:世界遗产京都 - 日本历史文化千年古都、色彩浓郁免费下载地址:
; @, f8 e* C: E2 I, m9 J$ G+ a; R
9 d$ X/ T% ]+ d6 M4 W* k

; M# Y  N& [  H1 `
游客,如果您要查看本帖隐藏内容请回复

' H4 Y* s4 @$ k- m, W8 J% e9 {' Y
0 P- T- f/ z  s; I2 {

3 s8 W- q: F! M' t, C7 U1 {1 _+ c. V) T1 T: W
  ?' C2 X9 k, @( y
2 t" Q+ J3 R" j3 T& i5 j1 |4 D
: `2 k. k# l. K% ?, u

4 Q* x% b: g( S6 H* n
: G* s" s3 e6 d# T" N: L, Q' c2 z' S- M" J  J3 J! e: T
残梦重生。 发表于 2017-5-3 15:22 | 显示全部楼层
急需4k测试短片下载!
淡定、情緒 发表于 2017-5-4 00:14 来自 移动版  | 显示全部楼层
楼主能不能高点4k演示视频啊~~~
万丈深渊@ 发表于 2017-5-4 04:37 | 显示全部楼层
我只是路过打酱油的,赞hao4k
苦瓜汁 发表于 2017-5-4 11:27 来自 移动版  | 显示全部楼层
么有分,谁能送我点 K币啊::>_<::
半樽寒月敬浮生 发表于 2017-5-4 13:28 | 显示全部楼层
4k视频片源我来了,谢谢提供~~
ruyi2003 发表于 2017-5-4 15:20 | 显示全部楼层
谢谢楼主分享,下下试试
crash 发表于 2017-5-4 15:41 | 显示全部楼层
谢谢楼主分享!
mxzzzzzz 发表于 2017-5-4 19:36 | 显示全部楼层
下来看看
13910530186 发表于 2017-5-4 23:39 | 显示全部楼层
这个必须顶啊!!!
fpun 发表于 2017-5-4 23:43 | 显示全部楼层
啥也不说了,感谢楼主在hao4k分享4k视频内容哇!
zwj_xyxy 发表于 2017-5-5 01:02 | 显示全部楼层
啥也不说了,感谢楼主在hao4k分享4k视频内容哇!
Richard(SH) 发表于 2017-5-5 10:29 | 显示全部楼层
啥也不说了,感谢楼主在hao4k分享4k视频内容哇!
daiwen55 发表于 2017-5-5 23:14 | 显示全部楼层
啥也不说了,感谢楼主在hao4k分享4k视频内容哇!
416692993 发表于 2017-5-6 16:19 | 显示全部楼层
啥也不说了,感谢楼主在hao4k分享4k视频内容哇!
annikissxirou 发表于 2017-5-6 17:59 | 显示全部楼层
支持hao4k,支持楼主大人发布4k资源!
bootyou 发表于 2017-5-6 23:36 | 显示全部楼层
啥也不说了,感谢楼主在hao4k分享4k视频内容哇!
1231q1 发表于 2017-5-6 23:50 | 显示全部楼层
666666666666666666666666666
您需要登录后才可以回帖 登录 | 立即注册

本版积分规则

关闭

站长通知上一条 /1 下一条

返回顶部 联系我们