发表于 2017-5-3 14:59 | 显示全部楼层 |阅读模式
104249h3oxlxnskxvzvpsp.jpg
/ q$ C  x2 t5 Y. E% a; R# k4 k8 y 104249z1avmdvbps6bpapd.jpg . U0 @- Z1 ^" R; h5 Z. u
/ k9 m/ I) g+ f' V+ W! i' u# A/ d
104250opr6ggdzqp9dqk2a.jpg 7 \; e. F! P, @8 {
' T1 l( \' s" u
104251y5kz5ammzmza63zs.jpg
# Y( |$ l8 h3 e# ?' F4 [# |2 f+ \2 V8 _+ `9 x. k- }- l7 e, w
104251n3qc7d3q7c69ewd1.jpg
4 U4 A& b7 ?3 H/ ?( s, v
; z! ^# @$ x, b; s% n  w 104252fqzqnplpptpks1c3.jpg
$ a( v1 g9 c- i6 }& _
( N, |- V& ^8 R+ p& ? 104252ahyextx8hgywtkew.jpg $ k1 U7 C; [4 x" @: R5 }, r

- K9 Q. b1 S* n) N- p& F 104253ormi4su8xbrbixxq.jpg
3 p% M; ?7 r+ v. [* E
, i" K* D& p+ V# x4k视频
8 m9 ?& U0 p! a$ J5 \5 NComplete name                  : G:[索尼.4K.演示片]世界遗产京都The World Heritage Kyoto.mkv: }- o* @# h% F8 `4 r
File size                      : 1.39 GiB
$ v" \/ V  n% H& }( R$ ?4 I0 J5 [Duration                    : 2mn 23s
$ z) j. [& }/ T7 W. ~Overall bit rate          : 83.5 Mbps
3 g- [( n2 I8 K* e5 eFormat                       : AVC$ {3 ]$ a. c  H' `$ y( e
Bit rate                       : 83.4 Mbps! L8 t! V7 k6 h6 I$ `
Width                         : 3 840 pixels
6 i- g) S7 K1 E7 _$ m( |' x: mHeight                        : 2 160 pixels8 p8 H- {  w) ?1 {& \/ w( z
Display aspect ratio   : 16:9
* X+ F) f  {- }9 RFrame rate                  : 29.970 fps) D% V6 @. i+ D' Q5 z7 m
Color space                : YUV' m8 A5 [+ d$ _! ~; j4 b
Chroma subsampling   : 4:2:0' ]* ]5 A" o5 X8 B4 ~! i' E
Bit depth                    : 8 bits
! j- h# u6 B/ _+ TStream size                 : 1.39 GiB5 g6 r$ `' [0 g% K

( u) f* h& }; I- QAudio
& _! ^; N1 O2 F* x8 ]5 BFormat                       : AAC
& U1 g9 R3 Y+ f/ V/ PCodec ID                   : 40: w6 ~1 H! S0 s0 Y; t
Duration                    : 2mn 23s. p, n( m* ?$ v& ~" n! D8 I
Bit rate                       : 128 Kbps2 P/ ]( h, P' Y
Nominal bit rate        : 136 bps
' {! X7 f: J9 ?0 D% b5 o: nMaximum bit rate     : 576 Kbps: @9 w7 U+ L: n5 u- j# c
Channel(s)                 : 2 channels8 S; @9 _& R  j
Channel positions     : Front: L R- p3 U4 d( @5 X2 ]
Sampling rate           : 48.0 KHz
/ q  ~3 n, ]* jStream size                : 2.18 MiB% ^6 e9 n/ d8 F' D/ X

6 w) T% _1 H' e6 |
京都曾作为日本的国都历时1000余年,享有“千年古都”之称。京都古称平安京,城市存在的历史可以追溯到7000年以前。. b/ C6 z* c1 ?

, {/ L) Q2 Y" n5 h是体验日本文化旅游胜地。

- o* ?+ O9 V* U$ X* M) ?* u  s# B
/ N1 w$ D6 {: h: m! B* Q索尼4K演示片:世界遗产京都 - 日本历史文化千年古都、色彩浓郁免费下载地址:
  R& B  S* ]; j+ Z6 ~$ D9 \4 ~& Q& [7 s! z: [- S; G3 b$ h

$ D# i! ^- `6 a2 Z, c% w' }
游客,如果您要查看本帖隐藏内容请回复

- W8 m. G$ G% k" u* z) y( N# }8 K- \* ^

6 ?4 R/ U# ]/ L( O4 [, b
" }9 ^0 v6 q' g. g
% o: K2 [5 h7 R& V; S
1 o) ~& |. H* Q9 ?
1 L( U- @# D, E- m) r# h
  b% z  [* c. ]1 A9 G' P. f9 W
' l! h3 k+ E6 f) y
. U) z9 Q; w8 M( G6 u9 E
发表于 2017-5-3 15:22 | 显示全部楼层
急需4k测试短片下载!
发表于 2017-5-4 00:14 来自手机 | 显示全部楼层
楼主能不能高点4k演示视频啊~~~
发表于 2017-5-4 04:37 | 显示全部楼层
我只是路过打酱油的,赞hao4k
发表于 2017-5-4 11:27 来自手机 | 显示全部楼层
么有分,谁能送我点 K币啊::>_<::
发表于 2017-5-4 13:28 | 显示全部楼层
4k视频片源我来了,谢谢提供~~
发表于 2017-5-4 15:20 | 显示全部楼层
谢谢楼主分享,下下试试
发表于 2017-5-4 15:41 | 显示全部楼层
谢谢楼主分享!
发表于 2017-5-4 19:36 | 显示全部楼层
下来看看
发表于 2017-5-4 23:39 | 显示全部楼层
这个必须顶啊!!!
发表于 2017-5-4 23:43 | 显示全部楼层
啥也不说了,感谢楼主在hao4k分享4k视频内容哇!
发表于 2017-5-5 01:02 | 显示全部楼层
啥也不说了,感谢楼主在hao4k分享4k视频内容哇!
发表于 2017-5-5 10:29 | 显示全部楼层
啥也不说了,感谢楼主在hao4k分享4k视频内容哇!
发表于 2017-5-5 23:14 | 显示全部楼层
啥也不说了,感谢楼主在hao4k分享4k视频内容哇!
发表于 2017-5-6 16:19 | 显示全部楼层
啥也不说了,感谢楼主在hao4k分享4k视频内容哇!
发表于 2017-5-6 17:59 | 显示全部楼层
支持hao4k,支持楼主大人发布4k资源!
发表于 2017-5-6 23:36 | 显示全部楼层
啥也不说了,感谢楼主在hao4k分享4k视频内容哇!
发表于 2017-5-6 23:50 | 显示全部楼层
666666666666666666666666666
您需要登录后才可以回帖 登录 | 立即注册

本版积分规则

返回顶部 联系我们