hao4k 发表于 2017-5-3 14:59 | 显示全部楼层 |阅读模式
104249h3oxlxnskxvzvpsp.jpg ( Z3 D7 Q. H7 b, j: |* [; r) Q
104249z1avmdvbps6bpapd.jpg
' N( ~; H5 @' {# ]7 v+ s! q# }# M" h5 r/ ?- M; H9 k
104250opr6ggdzqp9dqk2a.jpg / p' I7 k' Y  A, t
8 M% J7 ^' `! e
104251y5kz5ammzmza63zs.jpg . v( j& P: p/ G& B4 L
7 b# |) E( W  {! |/ u' p+ O
104251n3qc7d3q7c69ewd1.jpg
% {8 @* {% o  p( X( \1 `
. h$ G: P' P8 P+ u 104252fqzqnplpptpks1c3.jpg
# i; R$ Q( Y. ~$ K5 i; C) ~
9 u6 Y0 r* {! Z3 a. W 104252ahyextx8hgywtkew.jpg
( J$ P2 Q- u! ^8 S1 @2 p; s
& Z$ f; F  p7 G 104253ormi4su8xbrbixxq.jpg
- P" _; [, }: T
1 ~9 l7 p5 |/ P9 B8 M" s4k视频9 Z: K+ P+ j+ m( e
Complete name                  : G:[索尼.4K.演示片]世界遗产京都The World Heritage Kyoto.mkv
6 _8 L$ \( S' jFile size                      : 1.39 GiB4 P& W; Q7 G! x! {/ A
Duration                    : 2mn 23s
& h$ F$ H" j; O0 x! |. wOverall bit rate          : 83.5 Mbps  }3 u( y% H* i0 Z: j: t
Format                       : AVC2 o- x5 E' e, ?
Bit rate                       : 83.4 Mbps
$ ?& I) d1 c0 `$ b  A: N5 TWidth                         : 3 840 pixels
; @3 j* I1 [7 @. C  JHeight                        : 2 160 pixels9 L. e$ Y7 O5 m
Display aspect ratio   : 16:9: ?. V  ^, y2 k( ]2 n+ ]
Frame rate                  : 29.970 fps; @1 M# t/ h& h6 h! U# |
Color space                : YUV
6 @6 Q4 Z( r% _" q! Y! FChroma subsampling   : 4:2:01 F- ^9 v8 _3 O' n0 _' r
Bit depth                    : 8 bits
9 t) R. ?! U* I- M; _) v, _6 P$ Y1 qStream size                 : 1.39 GiB
# D% }% P) D$ {7 p: x& i3 Y: j% o/ B! e
Audio
8 r+ e# n9 X, r& I% Q( kFormat                       : AAC
2 i0 M) D# [9 }  [2 T- M0 d1 QCodec ID                   : 402 I: a& I. E8 L* E: I  Q5 p1 y6 m
Duration                    : 2mn 23s
) p/ t/ q  _4 f5 F) Z! v' V' A' VBit rate                       : 128 Kbps
4 J8 I8 Y( y' Z9 S4 SNominal bit rate        : 136 bps
' J- K5 W# l; v" Y" ^, I8 l+ ]Maximum bit rate     : 576 Kbps5 E9 x2 z$ w( }  h
Channel(s)                 : 2 channels
! V* v9 z+ ?/ ?, {6 bChannel positions     : Front: L R
. h! Q4 }& \  m& d& DSampling rate           : 48.0 KHz
; q$ \( R. j3 Z& u* ~* IStream size                : 2.18 MiB7 a# j+ ]/ m) L* D. D
4 `4 `  D) C: G  j# y4 R& Z' ~
京都曾作为日本的国都历时1000余年,享有“千年古都”之称。京都古称平安京,城市存在的历史可以追溯到7000年以前。3 ^" I  R) m4 r0 Z6 C

" Z3 x7 l- t: s. F* Z9 V& u( N# S5 x是体验日本文化旅游胜地。
* a# h" k/ ^+ E; J( h

, W8 s) B+ Z) z. x9 K索尼4K演示片:世界遗产京都 - 日本历史文化千年古都、色彩浓郁免费下载地址:
% w# X1 w% G; a+ _% ]0 s1 @* h9 ]- X" A3 m

% K; M' t( a" U) |
游客,如果您要查看本帖隐藏内容请回复

5 r( H8 I* N! T3 U2 t7 r5 g
8 s6 j* y5 I- N* }

) R; x3 {* ^, z' I2 u4 b0 t9 M' ^  q) }- q0 d
* Y& G0 ]8 ^0 \5 X, t" P

9 R* B/ E) ^5 ^8 D0 F: I9 U/ H; f& c2 F7 O/ Q: Q

* w  p- g; ~1 L2 N7 |3 O5 _
3 {, v# C; q% S/ x( k9 B" p7 E
( ~+ l- m9 I. _! d- s8 A: X4 i' ?
tsb 发表于 2018-10-20 00:28 | 显示全部楼层
由衷感谢Hao4k平台提供4K资源,可以试试我家的私人影院了。
ANLUN555 发表于 2018-10-19 20:20 | 显示全部楼层
由衷感谢Hao4k平台提供4K资源,可以试试我家的私人影院了。
精武门大佬 发表于 2018-10-17 19:03 | 显示全部楼层
这个正式好极了
枫叶代码 发表于 2018-10-17 08:49 | 显示全部楼层
感谢分享感谢分享感谢分享感谢分享
icac5880 发表于 2018-10-17 08:46 | 显示全部楼层
由衷感谢Hao4k平台提供4K资源,可以试试我家的私人影院了。
zhangshijielove 发表于 2018-10-15 20:59 | 显示全部楼层
这个4K资源很不错哦,我喜欢。赶紧试试我家4K电视
第一细胞 发表于 2018-10-15 14:22 | 显示全部楼层
欣赏京都的美。
kingchow 发表于 2018-10-14 19:33 | 显示全部楼层
楼主辛苦,谢谢分享
feivsqq 发表于 2018-10-14 13:45 | 显示全部楼层
谢谢分享,下一个看看
爱与正义 发表于 2018-10-14 09:19 | 显示全部楼层
感谢发布!
hepburn 发表于 2018-10-13 23:59 | 显示全部楼层
衷心感谢Hao4k平台的资源分享
童声童气 发表于 2018-10-11 12:43 | 显示全部楼层
这个4K资源很不错哦,我喜欢。赶紧试试我家4K电视
童声童气 发表于 2018-10-11 12:43 | 显示全部楼层
谢谢分享 看看
童声童气 发表于 2018-10-11 12:43 | 显示全部楼层
由衷感谢Hao4k平台提供4K资
童声童气 发表于 2018-10-11 12:42 | 显示全部楼层
由衷感谢Hao4k平台提供4K资源,可以试试我家的私人影院了。
童声童气 发表于 2018-10-11 12:42 | 显示全部楼层
由衷感谢Hao4k平台提供4K资源,可以试试我家的私人影院了。
hlys2018 发表于 2018-10-7 11:06 | 显示全部楼层
看看怎么样,感谢分享!!!
您需要登录后才可以回帖 登录 | 立即注册

本版积分规则

返回顶部 联系我们