猜你喜欢

蓝精灵2 4k The.Smurfs.2.2013.COMPLETE.UHD.BLURAY-THRONE 4k版下载2160P「全球首款破解版4K UHD蓝光原盘」

  [复制链接]
查看: 9324|回复: 640

847

主题

1820

帖子

8958

K币

Rank: 9Rank: 9Rank: 9

热心会员突出贡献荣誉管理

威望
0
积分
6545
hao4k 发表于 2017-5-4 11:39:33 | 显示全部楼层 |阅读模式

片  名:蓝精灵2 4K [下载地址在帖子底部]

  • 年  代:2013  
  • 国  家:美国
  • 类  别:喜剧 奇幻 动画 
  • 字  幕:无字幕
  • 上映日期:2013-09-12
  • 文件格式:mp4    
  • 视频效果:4K(3840x2160)    
  • 文件大小:53GB
  • 片  长:105分钟
  • 导  演:拉加·高斯内尔
  • 豆瓣链接:
  • 主  演:尼尔·帕特里克·哈里斯 / 布莱丹·格里森 / 汉克·阿扎利亚 / 杰玛·梅斯 / 凯蒂·派瑞 / 克里斯蒂娜·里奇 / 乔纳森·温特斯 / J·B·斯穆夫 / 乔治·洛佩兹 / 雅各布·特伦布莱 / 南希·奥黛尔 / 卡里姆·巴宾 / 安东·叶利钦 / 约翰·奥利弗 / 弗兰克·维尔克 / 程雷

剧情简介

为了获得更多的蓝精灵精华,邪恶巫师格格巫(汉克·阿扎利亚 Hank Azaria 饰)制造了两个调皮捣蛋的灰色小精灵韦克茜(克里斯蒂娜·里奇 Christina Ricci 配音)和海库斯(JB·斯穆夫 J.B. Smoove 配音)。可是他无法从灰精灵那里提取精华,为此格格巫派出韦克茜混入大森林,绑架了即将迎来生日的蓝妹妹(凯蒂·派瑞 Katy Perry 配音),希望能从她口中拷问出蓝爸爸(乔纳森·温特斯 Jonathan Winters 配音)将她变蓝的秘密。
  为了营救蓝妹妹,蓝爸爸率领笨笨(安东·尤金 Anton Yelchin 配音)、厌厌(乔治·洛佩兹 George Lopez 配音)、浮浮(克里斯蒂娜·里奇 Christina Ricci 配音)重返人类世界,并在他们人类朋友的帮助下,展开了蓝妹妹的营救行动……
全球首张4K UHD蓝光原盘破解版,含完整的BDMV文件夹以及数据,AACS 2.0协议已被完整破解。

General
ID : 0 (0x0)
Complete name : X:\The.Smurfs.2.2013.COMPLETE.UHD.BLURAY-THRONE\BDMV\STREAM\00001.m2ts
Format : BDAV
Format/Info : Blu-ray Video
File size : 53.1 GiB
Duration : 1 h 44 min
Overall bit rate mode : Variable
Overall bit rate : 72.5 Mb/s
Maximum Overall bit rate : 109 Mb/s
Video
ID : 4113 (0x1011)
Menu ID : 1 (0x1)
Format : HEVC
Format/Info : High Efficiency Video Coding
Format profile : Main 10@L5.1@High
Codec ID : 36
Duration : 1 h 44 min
Width : 3 840 pixels
Height : 2 160 pixels
Display aspect ratio : 16:9
Frame rate : 23.976 (24000/1001) FPS
Color space : YUV
Chroma subsampling : 4:2:0 (Type 2)
Bit depth : 10 bits
Color range : Limited
Color primaries : BT.2020
Transfer characteristics : SMPTE ST 2084
Matrix coefficients : BT.2020 non-constant
Mastering display color primaries : R: x=0.680000 y=0.320000, G: x=0.265000 y=0.690000, B: x=0.150000 y=0.060000, White point: x=0.312700 y=0.329000
Mastering display luminance : min: 0.0050 cd/m2, max: 4000.0000 cd/m2
Maximum Content Light Level : 1132 cd/m2
Maximum Frame-Average Light Level : 923 cd/m2
Audio #1
ID : 4352 (0x1100)
Menu ID : 1 (0x1)
Format : Atmos / TrueHD / AC-3
Mode extension : CM (complete main)
Format settings, Endianness : Big
Muxing mode : Stream extension
Codec ID : 131
Duration : 1 h 44 min
Bit rate mode : Variable / Constant
Bit rate : 640 kb/s
Maximum bit rate : 8 124 kb/s
Channel(s) : Object Based / 8 channels / 6 channels
Channel positions : Object Based / Front: L C R, Side: L R, Back: L R, LFE / Front: L C R, Side: L R, LFE
Sampling rate : / 48.0 kHz / 48.0 kHz
Frame rate : 31.250 FPS (1536 spf)
Bit depth : 16 bits
Stream size : 480 MiB (1%)
Audio #2
ID : 4353 (0x1101)
Menu ID : 1 (0x1)
Format : AC-3
Format/Info : Audio Coding 3
Mode extension : CM (complete main)
Format settings, Endianness : Big
Codec ID : 129
Duration : 1 h 44 min
Bit rate mode : Constant
Bit rate : 640 kb/s
Channel(s) : 6 channels
Channel positions : Front: L C R, Side: L R, LFE
Sampling rate : 48.0 kHz
Frame rate : 31.250 FPS (1536 spf)
Bit depth : 16 bits
Compression mode : Lossy
Delay relative to video : -8 ms
Stream size : 480 MiB (1%)
Audio #3
ID : 4354 (0x1102)
Menu ID : 1 (0x1)
Format : DTS
Format/Info : Digital Theater Systems
Format profile : MA / Core
Mode : 16
Format settings, Endianness : Big
Muxing mode : Stream extension
Codec ID : 134
Duration : 1 h 44 min
Bit rate mode : Variable / Constant
Bit rate : Unknown / 1 509 kb/s
Channel(s) : 6 channels
Channel positions : Front: L C R, Side: L R, LFE
Sampling rate : 48.0 kHz
Frame rate : 93.750 FPS (512 spf)
Bit depth : 16 bits
Compression mode : Lossless / Lossy
Audio #4
ID : 4355 (0x1103)
Menu ID : 1 (0x1)
Format : AC-3
Format/Info : Audio Coding 3
Format profile : Dolby Digital
Mode extension : CM (complete main)
Format settings, Endianness : Big
Codec ID : 129
Duration : 1 h 44 min
Bit rate mode : Constant
Bit rate : 192 kb/s
Channel(s) : 2 channels
Channel positions : Front: L R
Sampling rate : 48.0 kHz
Frame rate : 31.250 FPS (1536 spf)
Bit depth : 16 bits
Compression mode : Lossy
Delay relative to video : -8 ms
Stream size : 144 MiB (0%)
Audio #5
ID : 4356 (0x1104)
Menu ID : 1 (0x1)
Format : AC-3
Format/Info : Audio Coding 3
Mode extension : CM (complete main)
Format settings, Endianness : Big
Codec ID : 129
Duration : 1 h 44 min
Bit rate mode : Constant
Bit rate : 640 kb/s
Channel(s) : 6 channels
Channel positions : Front: L C R, Side: L R, LFE
Sampling rate : 48.0 kHz
Frame rate : 31.250 FPS (1536 spf)
Bit depth : 16 bits
Compression mode : Lossy
Delay relative to video : -8 ms
Stream size : 480 MiB (1%)
Text #1
ID : 4768 (0x12A0)
Menu ID : 1 (0x1)
Format : PGS
Codec ID : 144
Text #2
ID : 4769 (0x12A1)
Menu ID : 1 (0x1)
Format : PGS
Codec ID : 144
Text #3
ID : 4770 (0x12A2)
Menu ID : 1 (0x1)
Format : PGS
Codec ID : 144
Text #4
ID : 4771 (0x12A3)
Menu ID : 1 (0x1)
Format : PGS
Codec ID : 144
Text #5
ID : 4772 (0x12A4)
Menu ID : 1 (0x1)
Format : PGS
Codec ID : 144
Technical Specs
4K Ultra HD Blu-ray
UHD-66 Dual-Layer Disc

Video Resolution/Codec
2160p HEVC

Aspect Ratio(s)
1.85:1

Audio Formats
English Dolby Atmos
English Dolby TrueHD 7.1
French DTS-HD Master Audio 5.1
English Dolby Digital 5.1 (Descriptive)
Spanish Dolby Digital 5.1
French Dolby Digital 2.0 (Descriptive)

Subtitles/Captions
English
English SDH
French
Spanish

Supplements
None

蓝精灵2 The Smurfs 2 (2013)「全球首款破解版4K UHD蓝光原盘」BT种子下载
游客,如果您要查看本帖隐藏内容请回复



蓝精灵2 The Smurfs 2 (2013)【4K UHD 蓝光REMUX】磁力链下载
游客,如果您要查看本帖隐藏内容请回复


蓝精灵2 The Smurfs 2 (2013)「全球首款破解版4K UHD蓝光原盘」百度云盘下载
游客,如果您要查看本帖隐藏内容请回复



0

主题

15

帖子

0

K币

Rank: 1

威望
0
积分
17
我没有城府 发表于 2017-5-4 11:53:24 | 显示全部楼层
!!@#!¥@#¥!@#!¥!¥

0

主题

25

帖子

5

K币

Rank: 1

威望
0
积分
44
tshljs 发表于 2017-5-4 12:57:45 | 显示全部楼层
啥也不说了,感谢楼主在hao4k分享4k视频内容哇!

0

主题

6

帖子

3

K币

Rank: 1

威望
0
积分
13
liujianli 发表于 2017-5-4 12:58:59 | 显示全部楼层
什么也不说了先下来再说

0

主题

2

帖子

3

K币

Rank: 1

威望
0
积分
7
wenshuo01 发表于 2017-5-4 13:03:06 | 显示全部楼层
啥也不说了,感谢楼主在hao4k分享4k视频内容哇!

0

主题

7

帖子

3

K币

Rank: 1

威望
0
积分
20
xmzrh 发表于 2017-5-4 13:39:56 | 显示全部楼层
hao,收藏了

0

主题

7

帖子

0

K币

Rank: 1

威望
0
积分
8
雾涣风月 发表于 2017-5-4 14:23:26 来自手机 | 显示全部楼层
楼主能不能多发一点4k电影啊。跪拜 ~~~

0

主题

26

帖子

95

K币

Rank: 1

威望
0
积分
90
wzy197800 发表于 2017-5-4 14:24:38 | 显示全部楼层
这个必须点赞,很不错.

0

主题

2

帖子

10

K币

Rank: 1

威望
0
积分
19
ruyi2003 发表于 2017-5-4 15:10:38 | 显示全部楼层
昨天看到消息,不知真假,楼主反映很快啊

0

主题

1

帖子

3

K币

Rank: 1

威望
0
积分
5
35972175 发表于 2017-5-4 15:15:20 | 显示全部楼层
xiexiefenxiang ,xianxialaizaishuio
您需要登录后才可以回帖 登录 | 立即注册

本版积分规则

Copyright   ©2015-2016  hao4k  Powered by©Discuz!