猜你喜欢
开启左侧

[4k演示视频] 索尼 BRAVIA OLED A1 4K HDR 演示片 (高码率 HEVC 60fps 10bit)[2160P/MP4/724MB]

  [复制链接]
hao4k 发表于 2017-5-18 22:06:40 | 显示全部楼层 |阅读模式
索尼 BRAVIA OLED A1 4K HDR 演示片 (高码率 HEVC 60fps 10bit)[2160P/MP4/724MB]
1 F' e+ y# e# P/ R% ^* v 193037xpkd0901p3j7u8mm.png ' B/ k/ Z3 q: P  k

' i' ^6 X3 L% G. q. mGeneral
6 q/ Z- p( r( x  f6 l2 {1 P% I6 PComplete name : SONY.BRAVIA.OLED.HDR.4K.DEMO.mp4
, V5 M. F/ I: e& v/ SFormat : MPEG-41 Z$ P( r, k- z& J0 a# W
Format profile : Base Media) N* j+ |0 k3 |  M& X% I3 D
Codec ID : isom (isom). K2 N6 L) n/ j0 {6 h: A
File size : 724 MiB; j  |7 G" J9 _  X
Duration : 1 min 23 s" C# i/ N8 A) W
Overall bit rate mode : Variable3 V3 R- U( B. V7 G: ~* k
Overall bit rate : 73.1 Mbps
! \2 @8 J+ }- q  @( T' TEncoded date : UTC 2016-10-24 05:40:14) X1 G/ R2 y+ ^) e2 f/ G  P4 V) }
Tagged date : UTC 2016-10-24 05:40:14
2 y7 D6 [1 ^+ N. \8 O6 R& r
& A4 H  B/ z. b3 s8 P8 P8 c: E' pVideo
3 U# c6 B. \8 H8 i" PID : 18 ^: i2 j( ?- p% d: v' N* b# S0 N
Format : HEVC8 l  V" U  a5 H  p3 d
Format/Info : High Efficiency Video Coding
; f+ j  I2 }2 ?* VFormat profile : Main [email protected]@High- }* h0 C8 z# K* }7 R. Y
Codec ID : hvc1
% ^2 r6 X5 h2 c1 }2 |Codec ID/Info : High Efficiency Video Coding# ]9 D! E& O) D- N6 N
Duration : 1 min 23 s7 s0 }1 K  Y7 m. l) v
Bit rate : 72.9 Mbps
. |- G6 B' s! s, b; c+ S% `Maximum bit rate : 94.2 Mbps
1 e% e  S* [$ @1 _  ]Width : 3840 pixels
) {2 I! H, Y& Q8 {Height : 2160 pixels
" T; T7 x+ \' R( t& `' [Display aspect ratio : 16:96 A% \; C2 R! C; `
Frame rate mode : Constant
3 l' g: {, l' m, f, {Frame rate : 59.940 (60000/1001) FPS
4 S7 ~/ c  _  b6 Z5 xColor space : YUV
, y9 A' k6 f6 N- S8 p+ A: i6 eChroma subsampling : 4:2:0 (Type 2)% ]! u; q8 g, q! Y2 r/ Z
Bit depth : 10 bits
( R1 S+ \9 F' R. L1 p1 R0 f+ f# o1 G! hBits/(Pixel*Frame) : 0.147
$ ^* l/ B3 j4 g6 ZStream size : 722 MiB (100%)
1 B4 C" a. V% W. o% V. C* W4 d! w! sEncoded date : UTC 2016-10-24 06:37:11
+ Y$ q, J1 J$ {- @0 S6 `Tagged date : UTC 2016-10-24 05:40:23
4 W2 h) M- `4 m; _4 R, GColor range : Limited
8 Z2 ^  q# u+ d0 HColor primaries : BT.2020+ C6 u" M% J- V0 O' B! K% P& j
Transfer characteristics : SMPTE ST 2084
) D4 s- {  j1 k9 e- `Matrix coefficients : BT.2020 non-constant' k! K9 R7 ?" [/ R, k
Mastering display color primar : R: x=1.000000 y=1.000000, G: x=1.000000 y=1.000000, B: x=1.000000 y=1.000000, White point: x=1.000000 y=1.000000( R+ A6 H; \/ M# y
Mastering display luminance : min: 0.1000 cd/m2, max: 0.5000 cd/m2
2 O4 ~' i$ ?9 O- Z
" T# R( i) h) ^: X1 g0 _Audio& R; s0 Q2 f- }$ e+ D0 b9 w* |
ID : 2
8 L& W7 n0 ^; G* K$ i- [Format : AAC
: |# P( y4 ]- k+ [  O, eFormat/Info : Advanced Audio Codec' B* `, ?7 e: r1 Q/ h
Format profile : LC' G$ M1 K! c3 ?& H" F) |
Codec ID : 40
2 |9 \; U3 a; M1 ADuration : 1 min 23 s* _* d3 B) ?6 M2 X
Source duration : 1 min 23 s
: s$ M" [4 h0 E' W! P7 J. cBit rate mode : Variable6 E, `" w& _* E2 O$ T
Bit rate : 192 kbps
# a8 f- v! l/ cMaximum bit rate : 197 kbps0 I4 N6 }  z% x8 T3 W
Channel(s) : 2 channels) f, S1 s1 a& B! b
Channel positions : Front: L R) N. t5 T! L3 T; O/ r
Sampling rate : 48.0 kHz
/ K4 _* V. _) I% p1 GFrame rate : 46.875 FPS (1024 spf)
) N) c" d  F4 r2 R5 c1 ^Compression mode : Lossy
0 }/ e9 M* O6 P2 d/ \* R- l' q9 `Stream size : 1.90 MiB (0%)" ~: _) G9 B) W" `7 F5 b' U
Source stream size : 1.90 MiB (0%)" x% _  a! t4 V5 J2 [5 z
Language : English
, c, [/ ?1 F2 w  F% k" ]Encoded date : UTC 2016-10-24 06:37:11$ I3 N! U1 O" U7 ]1 C) |1 }$ S
Tagged date : UTC 2016-10-24 05:40:23
: }: H3 `6 e4 J6 yDemo Ultra HD & HDR (HDR10)by Sony(for Sony OLED A1 Demo)
8 J) m, n2 P6 T9 B- H, JHDR ! So your TV has to be able to play this format !
; T4 M# t1 b0 n1 G5 z在4K HDR电视上观看才能体验最佳效果!; S- s2 |& v& u  b
播放器 : Potplaye(2017版本)
: S* Z- f2 z, `' q
4 [! m9 Q' q( ]% S索尼 Bravia OLED A1电视
; ~# l. C6 U1 G* \ 201016lr7w999db0fdfwzp.jpg ) |7 P3 J& M" M+ Y6 A: c$ L
索尼 Bravia OLED A1电视可以说是集多项黑科技于一体,由于采用了OLED屏幕,所以整体机身非常的纤薄,官方宣称电视的厚度仅为7.8mm,几乎和一部iphone不相上下了。另外该款电视的支架设计也是非常的有特色,在支架中集成了屏幕以外的硬件和接口,并且还配有一个低音炮。
2 H0 M. H" |/ v( U& R& h2 w* h2 P
# {( f( b  e% C+ Y另外索尼 Bravia OLED A1电视的一大亮点则是集成了整个音响系统并保持其极薄的厚度,索尼称之为“银幕声场”Acoustic Surface的技术,运用OLED无背光结构让屏幕本身直接发出声音。
1 M8 \+ y9 T" V1 ^
201016qolo4oo17lok615o.jpg
  R$ j; y2 m5 A' @5 U9 k1 w
索尼 Bravia OLED A1电视采用了4K HDR图像处理芯片X1进阶版,支持HDR动态逐像重塑技术、4K HDR 14bit平滑渐变、双影像数据库三大技术,另外该款电视采用了安卓7.0系统,扩展性能方面更加的出色,并且还内置Google Assistant智能助手和PlayStation Vue服务。
, L6 G! [4 ~: ]/ A0 j) K# w, w; m, U  T 201017ikijrz5i1fwn2rtr.jpg
# c3 j" A+ @8 a  H6 X

- s; o6 v1 F* x. O8 |2 K* C; k: H; U; q! I0 Y
索尼 BRAVIA OLED A1 4K HDR 演示片 (高码率 HEVC 60fps 10bit)[2160P/MP4/724MB]MP4百度云盘免费下载:

! b5 P7 T7 g0 X2 K- r
0 O2 Q& T. v0 m7 _8 c* K  P+ c4 F( {7 @/ p! q% F4 Z! W
游客,如果您要查看本帖隐藏内容请回复
8 d7 Q/ C" E" w, f

- N1 U$ b$ S3 N
$ z: }0 T# k  V3 h. B

! f1 s7 s$ h0 w1 H& z* L% y
( T0 W7 ?+ o, v8 W' Q( q
6 [0 z7 M$ {) v8 Q

/ E( I" Q" G- h, D
更多图片 小图 大图
组图打开中,请稍候......
深秋的黎明 发表于 2017-5-18 22:16:29 | 显示全部楼层
么有分,谁能送我点 K币啊::>_<::
矜持的小女人。 发表于 2017-5-19 00:26:31 | 显示全部楼层
支持一下hao4k的发展!
w609 发表于 2017-5-19 00:38:29 | 显示全部楼层
支持hao4k,支持楼主大人发布4k资源!
huhuhu 发表于 2017-5-19 03:49:21 | 显示全部楼层
感谢楼主,求分享
久病不愈 发表于 2017-5-19 05:37:48 来自手机 | 显示全部楼层
我只是路过打酱油的,赞hao4k
指间flear 发表于 2017-5-19 07:17:31 来自手机 | 显示全部楼层
回的人少,我来小顶一下。支持hao4k发展
懂事了 发表于 2017-5-19 10:14:35 | 显示全部楼层
回的人少,我来小顶一下。支持hao4k发展
SHANSHUI 发表于 2017-5-19 10:48:16 | 显示全部楼层
  C$ s7 l& P% R  y) r
支持一下hao4k的发展!
chen6150563 发表于 2017-5-19 11:30:42 来自手机 | 显示全部楼层
谢谢大家分享
您需要登录后才可以回帖 登录 | 立即注册

本版积分规则

关闭

站长推荐上一条 /1 下一条

Copyright   ©2015-2016  hao4k  Powered by©Discuz!