猜你喜欢

[4k演示视频] 索尼 BRAVIA OLED A1 4K HDR 演示片 (高码率 HEVC 60fps 10bit)[2160P/MP4/724MB]

  [复制链接]
查看: 6918|回复: 435

847

主题

1820

帖子

8958

K币

Rank: 9Rank: 9Rank: 9

热心会员突出贡献荣誉管理

威望
0
积分
6545
hao4k 发表于 2017-5-18 22:06:40 | 显示全部楼层 |阅读模式
索尼 BRAVIA OLED A1 4K HDR 演示片 (高码率 HEVC 60fps 10bit)[2160P/MP4/724MB]' C4 ]+ z' y+ C/ l1 v1 ^$ b
193037xpkd0901p3j7u8mm.png
$ i. r8 r# b( D/ \7 h$ @( x3 {% L. K$ X
General
+ u: C5 L* E8 |; k+ N" X- P) rComplete name : SONY.BRAVIA.OLED.HDR.4K.DEMO.mp4: p# E5 N, w. p. m  j# z7 i$ ^
Format : MPEG-4% j6 S% R; N/ a; h
Format profile : Base Media
' [& F1 d5 x# I& w7 z6 C, G5 PCodec ID : isom (isom)0 S5 t) J0 o9 K! s: x$ z8 {
File size : 724 MiB) Y& c0 y# }2 a5 `" w/ [, y; G
Duration : 1 min 23 s* v- C$ Y) [* Y
Overall bit rate mode : Variable& a, Q. X! [  r6 `/ @
Overall bit rate : 73.1 Mbps7 f# O) q& y2 T( l
Encoded date : UTC 2016-10-24 05:40:14. Y% X3 M, T& o  M
Tagged date : UTC 2016-10-24 05:40:14" ^2 ?) y* a7 |7 g( }  j# |% M

2 i, L  Y2 i9 Z1 S! _Video
* t, b, m9 B/ r+ V: WID : 1
2 p5 N+ l% G2 X% I7 r3 {' h  nFormat : HEVC
2 L" ?, Z* f) v* R+ V2 NFormat/Info : High Efficiency Video Coding
) G8 U: j  u! q! q% V2 u9 ]9 X( eFormat profile : Main 10@L5.1@High; R- A- k( f* I/ C1 P1 R8 p* [6 h5 E
Codec ID : hvc14 o; ?" c' p3 \; z" ^( b
Codec ID/Info : High Efficiency Video Coding- _8 J) D/ h, ?( P, [5 M
Duration : 1 min 23 s" W' }) o; x! K7 b" i4 B- D
Bit rate : 72.9 Mbps
" @/ ^8 X6 D) d$ i# ]Maximum bit rate : 94.2 Mbps
' B9 A( O) F3 p9 F) z4 l1 }% D6 NWidth : 3840 pixels
( r, Q$ ?* X7 T7 z- Q2 B) K0 YHeight : 2160 pixels
! n! @6 e% Y  bDisplay aspect ratio : 16:9
1 F  w  h* P0 X) [Frame rate mode : Constant: f' R: V5 p* R" N2 Y( v
Frame rate : 59.940 (60000/1001) FPS
  b: M9 E! o5 _, Q- _5 j- w, CColor space : YUV
! P$ K- s! Z( Y6 Q: ?* SChroma subsampling : 4:2:0 (Type 2)
$ g% }. Z8 t4 q$ D% E8 }: lBit depth : 10 bits
8 E5 E( f! _( {4 r) \$ K! d7 _4 YBits/(Pixel*Frame) : 0.147
3 I% q8 P; o  P1 A; IStream size : 722 MiB (100%)
6 c  p$ E6 y5 l- h0 jEncoded date : UTC 2016-10-24 06:37:11
4 |# `! b( c' x# ^, fTagged date : UTC 2016-10-24 05:40:239 C8 M& g) ?/ t
Color range : Limited  m- y" z6 p% Y5 L: T. |
Color primaries : BT.2020
4 P/ y$ r( R& {7 C6 V! H; VTransfer characteristics : SMPTE ST 2084
5 W- B8 `0 W. Y4 Z! w% s* cMatrix coefficients : BT.2020 non-constant
9 z* b$ q; Q1 R3 o) D+ D# b. l( yMastering display color primar : R: x=1.000000 y=1.000000, G: x=1.000000 y=1.000000, B: x=1.000000 y=1.000000, White point: x=1.000000 y=1.000000
; j/ ^% a3 Q# g' y) j( S+ lMastering display luminance : min: 0.1000 cd/m2, max: 0.5000 cd/m2" ?: @  C0 `6 W* x4 e" E" ]7 L# D

( ]. C9 G1 m3 G) q3 GAudio
% d: T2 U4 T% L* [! VID : 2
4 X1 d' H  r. k" ^. M) f2 TFormat : AAC
& |7 d1 w: l) k4 H2 F1 vFormat/Info : Advanced Audio Codec
6 J( |& T& \+ K+ PFormat profile : LC
4 K) u7 a7 G7 z! X9 R) vCodec ID : 40
, K5 Q$ S% N. R, a2 O' f0 BDuration : 1 min 23 s
# s: E: n: E/ P0 c, F& r2 lSource duration : 1 min 23 s1 j% P6 Z% P& ~  l/ J% R8 v# A
Bit rate mode : Variable
8 Q$ |' [" i; [' t- ]) tBit rate : 192 kbps
& M/ I" _" K  O* N$ k. C* h0 VMaximum bit rate : 197 kbps+ z  u% b- S- J# t# [6 {3 N$ ?
Channel(s) : 2 channels  n1 F8 N$ Z) T% j9 g0 Z
Channel positions : Front: L R
8 r0 {3 `6 P2 `( G+ ]: k8 f/ ^Sampling rate : 48.0 kHz
& j5 O3 Y2 W/ z8 R0 c2 Y' T+ }; `# xFrame rate : 46.875 FPS (1024 spf)- B& t  \7 Q" V6 C* @
Compression mode : Lossy
# p: i2 [6 {. @4 k8 S2 B, hStream size : 1.90 MiB (0%)
* G+ V7 ^4 o. W  ~9 |% z2 XSource stream size : 1.90 MiB (0%)
" j5 [. l' n3 P. S# J! k& tLanguage : English, x- a7 Q0 I8 r6 y
Encoded date : UTC 2016-10-24 06:37:11! C+ ^& j" P, d+ S& T/ b6 V- J9 ~
Tagged date : UTC 2016-10-24 05:40:23
% f9 V$ |$ u7 G2 ODemo Ultra HD & HDR (HDR10)by Sony(for Sony OLED A1 Demo)
+ x+ g$ s0 f& D8 y& gHDR ! So your TV has to be able to play this format !
- T0 k* Q+ [: v; w7 l在4K HDR电视上观看才能体验最佳效果!) z2 q2 q9 Z1 @5 Z& L1 @
播放器 : Potplaye(2017版本)
/ z+ g7 _5 L( R3 W' W/ V  M, I. y' V1 }; h
索尼 Bravia OLED A1电视
2 E2 l1 m1 @8 p/ { 201016lr7w999db0fdfwzp.jpg
" ], Q  H' A* C索尼 Bravia OLED A1电视可以说是集多项黑科技于一体,由于采用了OLED屏幕,所以整体机身非常的纤薄,官方宣称电视的厚度仅为7.8mm,几乎和一部iphone不相上下了。另外该款电视的支架设计也是非常的有特色,在支架中集成了屏幕以外的硬件和接口,并且还配有一个低音炮。
0 x) Z7 f) P- O
" D* l, G+ x% g( |% y$ W' }0 z, X另外索尼 Bravia OLED A1电视的一大亮点则是集成了整个音响系统并保持其极薄的厚度,索尼称之为“银幕声场”Acoustic Surface的技术,运用OLED无背光结构让屏幕本身直接发出声音。

  S: E3 ^' g2 P0 k  w 201016qolo4oo17lok615o.jpg
1 H  h' K6 i5 P5 N6 \
索尼 Bravia OLED A1电视采用了4K HDR图像处理芯片X1进阶版,支持HDR动态逐像重塑技术、4K HDR 14bit平滑渐变、双影像数据库三大技术,另外该款电视采用了安卓7.0系统,扩展性能方面更加的出色,并且还内置Google Assistant智能助手和PlayStation Vue服务。, O5 Y7 W# c" q' @7 s- D* Y
201017ikijrz5i1fwn2rtr.jpg

, m5 F( @3 W& g( N# y+ T% {9 T
4 B" {( V& I* |5 j2 i5 Y. W7 Z5 s; W* H; |3 I. p8 h
索尼 BRAVIA OLED A1 4K HDR 演示片 (高码率 HEVC 60fps 10bit)[2160P/MP4/724MB]MP4百度云盘免费下载:

6 K1 a# f  t, g! E. B
/ y- a/ J) @3 w( s7 x" u
( m  G% q% B! V! ]4 f% v
游客,如果您要查看本帖隐藏内容请回复
9 S; f- F7 I0 H. N* @/ H0 V
2 O: a' E+ L7 p- y7 D: ?5 N

$ u- X* N" S. X7 x$ W0 w9 y$ b! ^* X9 C1 G8 T, J+ Z: {4 }  q! Z+ c

- h; p! r/ z& }* Z% b3 W
0 K, E( a: w# j* g# k; E0 m8 |, Z; D& i  H& I9 ]* K& n
更多图片 小图 大图
组图打开中,请稍候......

0

主题

14

帖子

0

K币

Rank: 1

威望
0
积分
16
深秋的黎明 发表于 2017-5-18 22:16:29 | 显示全部楼层
么有分,谁能送我点 K币啊::>_<::

0

主题

4

帖子

0

K币

Rank: 1

威望
0
积分
5
矜持的小女人。 发表于 2017-5-19 00:26:31 | 显示全部楼层
支持一下hao4k的发展!

0

主题

29

帖子

505

K币

Rank: 1

签到达人

威望
0
积分
170
w609 发表于 2017-5-19 00:38:29 | 显示全部楼层
支持hao4k,支持楼主大人发布4k资源!

0

主题

36

帖子

4

K币

Rank: 1

威望
0
积分
59
huhuhu 发表于 2017-5-19 03:49:21 | 显示全部楼层
感谢楼主,求分享

0

主题

7

帖子

0

K币

Rank: 1

威望
0
积分
8
久病不愈 发表于 2017-5-19 05:37:48 来自手机 | 显示全部楼层
我只是路过打酱油的,赞hao4k

0

主题

8

帖子

0

K币

Rank: 1

威望
0
积分
9
指间flear 发表于 2017-5-19 07:17:31 来自手机 | 显示全部楼层
回的人少,我来小顶一下。支持hao4k发展

0

主题

12

帖子

0

K币

Rank: 1

威望
0
积分
13
懂事了 发表于 2017-5-19 10:14:35 | 显示全部楼层
回的人少,我来小顶一下。支持hao4k发展

0

主题

44

帖子

33

K币

Rank: 1

威望
0
积分
75
SHANSHUI 发表于 2017-5-19 10:48:16 | 显示全部楼层

* L6 X4 V8 t+ T& v; q# ~* G0 y" n支持一下hao4k的发展!

0

主题

12

帖子

8

K币

Rank: 1

威望
0
积分
24
chen6150563 发表于 2017-5-19 11:30:42 来自手机 | 显示全部楼层
谢谢大家分享
您需要登录后才可以回帖 登录 | 立即注册

本版积分规则

Copyright   ©2015-2016  hao4k  Powered by©Discuz!