猜你喜欢

[4k演示视频] 索尼 BRAVIA OLED A1 4K HDR 演示片 (高码率 HEVC 60fps 10bit)[2160P/MP4/724MB]

  [复制链接]
查看: 3747|回复: 280

775

主题

1510

帖子

1万

积分

热心会员突出贡献荣誉管理

发表于 2017-5-18 22:06:40 | 显示全部楼层 |阅读模式
索尼 BRAVIA OLED A1 4K HDR 演示片 (高码率 HEVC 60fps 10bit)[2160P/MP4/724MB]0 |+ i. g' q- K: I
193037xpkd0901p3j7u8mm.png
+ h/ x  I* |/ s0 K0 t' J1 _% E, x! [! l% d( S! S% Z8 s
General
9 g; T8 Z5 d- n" x1 lComplete name : SONY.BRAVIA.OLED.HDR.4K.DEMO.mp4' Q) S9 G! N% i4 p. h/ o
Format : MPEG-4
$ x: H! m" k" m- A4 j" \, KFormat profile : Base Media
5 p- `- [0 J. ~Codec ID : isom (isom)
7 V/ M! R7 R7 o( M# ~File size : 724 MiB: W5 V; }  ?+ R6 S
Duration : 1 min 23 s
! I1 P% \: i% o4 |$ K+ u( _2 `# gOverall bit rate mode : Variable
! \& i8 N, n) m1 }Overall bit rate : 73.1 Mbps4 D# W4 L/ r9 @0 l
Encoded date : UTC 2016-10-24 05:40:14: I4 o8 ?# D" C7 o3 u
Tagged date : UTC 2016-10-24 05:40:14
3 M( p: J2 n( A2 o! g" O% x: D# T* W" i7 B- A3 q" K) l
Video
9 g" i6 M; ?. A0 z. m2 X* h+ lID : 1
- S" S6 P( S% T2 B1 B& nFormat : HEVC  O- F, m' K" b! K* E  o
Format/Info : High Efficiency Video Coding
( y$ Z% N9 ^7 N, F3 bFormat profile : Main 10@L5.1@High
# l' O1 G9 Y& I4 u2 v) SCodec ID : hvc1. ]* O: \' I8 j
Codec ID/Info : High Efficiency Video Coding' Y8 m& e* q% V) Y# N6 N' l
Duration : 1 min 23 s8 a) a& y, ~) s; o5 B3 a
Bit rate : 72.9 Mbps1 j' F' w9 s% r# l, _, j
Maximum bit rate : 94.2 Mbps& Z4 r# ~( M4 F! q9 g% X  O
Width : 3840 pixels
# X. e1 u7 {3 w2 q; n! m  G, cHeight : 2160 pixels
# ~, n  e- Y7 _4 gDisplay aspect ratio : 16:9: ~( n$ x3 k6 p: n
Frame rate mode : Constant
' i- B* Z- F* zFrame rate : 59.940 (60000/1001) FPS% Z7 c4 l# b+ U; P% U
Color space : YUV: x) H& Q# _' u8 J8 b' `/ X
Chroma subsampling : 4:2:0 (Type 2)* _* C0 G, g' T' |
Bit depth : 10 bits
" k2 ~/ `6 J  [- u' BBits/(Pixel*Frame) : 0.147
- j; f4 y, C% N& f5 Q; B+ s' nStream size : 722 MiB (100%)
+ N, T: d. d6 h" J  S, EEncoded date : UTC 2016-10-24 06:37:11
9 [# t' I( e  t) N4 j. }" ~9 A6 P2 fTagged date : UTC 2016-10-24 05:40:23
3 r/ y$ K& ]  g0 N6 Q- ^* a% TColor range : Limited3 d$ v  p1 Z' h1 ?% ]! d" c; A3 n
Color primaries : BT.20209 D+ y7 m1 F' k" q  d
Transfer characteristics : SMPTE ST 2084
& y0 T. G- D1 o6 _Matrix coefficients : BT.2020 non-constant
" x  @+ L2 D2 cMastering display color primar : R: x=1.000000 y=1.000000, G: x=1.000000 y=1.000000, B: x=1.000000 y=1.000000, White point: x=1.000000 y=1.000000# ?2 g- y( T$ l! f5 q
Mastering display luminance : min: 0.1000 cd/m2, max: 0.5000 cd/m2; x- N0 R7 k2 ^5 n4 h; l

. n+ |: v  `: S. oAudio: }8 w& U# N5 N3 q% s4 ?
ID : 2
9 R& g& G+ x1 J4 w& y7 x8 wFormat : AAC, J9 u/ n' B/ z9 f- D
Format/Info : Advanced Audio Codec. E# f# L; k8 z3 m# s) G( \
Format profile : LC, q3 e3 k1 W  S  R  _3 {% }' I; a
Codec ID : 40
8 W2 z( [2 X* B5 L# HDuration : 1 min 23 s" W, F# e: P$ ~% c+ b
Source duration : 1 min 23 s( O6 Q+ c( x1 b7 y4 t8 H
Bit rate mode : Variable
' ?% M: h% l1 W6 C- C: o( nBit rate : 192 kbps
2 G( I) d1 k& w& ?" h' o% h, a0 z8 eMaximum bit rate : 197 kbps
6 z4 P( U6 E; I' e% }3 e4 LChannel(s) : 2 channels
5 N9 d5 b4 g4 r5 B4 W0 JChannel positions : Front: L R
/ |1 D. `! v+ l2 y5 ^9 j+ x- ISampling rate : 48.0 kHz% ], M% a& [+ ?8 @. \* ~
Frame rate : 46.875 FPS (1024 spf)% i6 |1 Q' j. D8 P$ W$ h$ n
Compression mode : Lossy
3 q. `0 X$ F! }# N  n! ?Stream size : 1.90 MiB (0%)
5 \" ^) |7 @( ~( L& d& k; BSource stream size : 1.90 MiB (0%)
5 u) \6 s7 g2 YLanguage : English5 [0 T0 P& e! S) c
Encoded date : UTC 2016-10-24 06:37:11
5 U$ P; S2 o: ~1 M+ w% RTagged date : UTC 2016-10-24 05:40:23
* M: e6 a1 F2 Z6 VDemo Ultra HD & HDR (HDR10)by Sony(for Sony OLED A1 Demo)
. v$ @" d' r$ h3 KHDR ! So your TV has to be able to play this format !
; b4 t6 S7 F7 k" g) T+ K在4K HDR电视上观看才能体验最佳效果!
2 a" i" y2 i. x! \9 d播放器 : Potplaye(2017版本)
  Y% M1 Q- ?5 d% X, E
* ^9 I) m6 j7 L4 ~9 r* `索尼 Bravia OLED A1电视
8 d2 g. j, T# p9 h: e- j, } 201016lr7w999db0fdfwzp.jpg
2 h! @' c& j" z7 B- @' N% H索尼 Bravia OLED A1电视可以说是集多项黑科技于一体,由于采用了OLED屏幕,所以整体机身非常的纤薄,官方宣称电视的厚度仅为7.8mm,几乎和一部iphone不相上下了。另外该款电视的支架设计也是非常的有特色,在支架中集成了屏幕以外的硬件和接口,并且还配有一个低音炮。
$ B, h9 b" x( o  T8 }0 O1 {
; K4 d' U$ o3 {另外索尼 Bravia OLED A1电视的一大亮点则是集成了整个音响系统并保持其极薄的厚度,索尼称之为“银幕声场”Acoustic Surface的技术,运用OLED无背光结构让屏幕本身直接发出声音。
; r8 g3 ?% p' m- A3 P
201016qolo4oo17lok615o.jpg
; K0 }: a" S" U  {7 N7 \; d
索尼 Bravia OLED A1电视采用了4K HDR图像处理芯片X1进阶版,支持HDR动态逐像重塑技术、4K HDR 14bit平滑渐变、双影像数据库三大技术,另外该款电视采用了安卓7.0系统,扩展性能方面更加的出色,并且还内置Google Assistant智能助手和PlayStation Vue服务。
/ Y0 ~) o4 d2 C 201017ikijrz5i1fwn2rtr.jpg
: e2 _8 ^3 N8 x) x

) B1 U8 I* E6 @3 t1 }& N( x
4 Z9 d3 N) A, ?8 E! U索尼 BRAVIA OLED A1 4K HDR 演示片 (高码率 HEVC 60fps 10bit)[2160P/MP4/724MB]MP4百度云盘免费下载:

' e) U+ ]6 E* g  U, U4 |; j3 a0 B( }' `4 o  K6 X8 F+ N" n

6 d9 U/ N5 G8 b& Q8 x) r
游客,如果您要查看本帖隐藏内容请回复
/ ]3 Z6 `: @/ A+ T) \8 N

) J  X8 g( x4 `+ l" P  v7 W0 n9 j
9 d$ e) m# B7 z' J
* U0 m. k5 @* }: n0 ^

7 U* X4 @7 _5 F; Z6 G' M1 T
8 z* y" M0 n+ B$ {# M
+ z! m* b, i, g% ^/ d
更多图片 小图 大图
组图打开中,请稍候......

0

主题

14

帖子

16

积分

发表于 2017-5-18 22:16:29 | 显示全部楼层
么有分,谁能送我点 K币啊::>_<::

0

主题

4

帖子

5

积分

发表于 2017-5-19 00:26:31 | 显示全部楼层
支持一下hao4k的发展!

0

主题

25

帖子

548

积分

签到达人

发表于 2017-5-19 00:38:29 | 显示全部楼层
支持hao4k,支持楼主大人发布4k资源!

0

主题

35

帖子

57

积分

发表于 2017-5-19 03:49:21 | 显示全部楼层
感谢楼主,求分享

0

主题

7

帖子

8

积分

发表于 2017-5-19 05:37:48 来自手机 | 显示全部楼层
我只是路过打酱油的,赞hao4k

0

主题

8

帖子

9

积分

发表于 2017-5-19 07:17:31 来自手机 | 显示全部楼层
回的人少,我来小顶一下。支持hao4k发展

0

主题

12

帖子

13

积分

发表于 2017-5-19 10:14:35 | 显示全部楼层
回的人少,我来小顶一下。支持hao4k发展

0

主题

37

帖子

96

积分

发表于 2017-5-19 10:48:16 | 显示全部楼层
( j1 J- o6 p5 ?8 ~
支持一下hao4k的发展!

0

主题

12

帖子

24

积分

发表于 2017-5-19 11:30:42 来自手机 | 显示全部楼层
谢谢大家分享
您需要登录后才可以回帖 登录 | 立即注册

本版积分规则

Copyright   ©2015-2016  hao4k  Powered by©Discuz!