猜你喜欢

[4k演示视频] 索尼 BRAVIA OLED A1 4K HDR 演示片 (高码率 HEVC 60fps 10bit)[2160P/MP4/724MB]

  [复制链接]
查看: 1878|回复: 167

632

主题

1025

帖子

3137

积分

签到达人热心会员突出贡献优秀版主荣誉管理论坛元老

发表于 2017-5-18 22:06:40 | 显示全部楼层 |阅读模式
索尼 BRAVIA OLED A1 4K HDR 演示片 (高码率 HEVC 60fps 10bit)[2160P/MP4/724MB]3 d- t3 b. `# f' R$ j9 E
193037xpkd0901p3j7u8mm.png . i7 [) |0 N" _* g$ S
- V; G; e  j/ ~6 U/ i; T8 H
General
  e( h" u7 m: G& DComplete name : SONY.BRAVIA.OLED.HDR.4K.DEMO.mp4
$ f( w$ L8 f5 v* k' l* G6 L4 nFormat : MPEG-4
- t$ _4 v# Q% h( J/ BFormat profile : Base Media
+ ?" U/ m& p5 q2 o- n6 ~Codec ID : isom (isom)8 X8 A9 M! l. I
File size : 724 MiB4 i- ?5 b$ R5 [
Duration : 1 min 23 s. N5 x$ y6 s* w8 h3 [
Overall bit rate mode : Variable
4 G2 |. P* W8 _9 nOverall bit rate : 73.1 Mbps
6 V9 W( }& O5 {9 [2 s, j- [Encoded date : UTC 2016-10-24 05:40:14/ i3 x# c5 [* M0 Z5 `* G
Tagged date : UTC 2016-10-24 05:40:14; k$ m3 g- Y9 I1 `
8 U) c+ K( O$ G! [/ Y7 l: @
Video& ?7 g9 D$ V# [7 B2 \
ID : 1& ~. L3 J  e2 e) I4 G1 X- F
Format : HEVC/ z/ I7 _8 ~: u2 b" N5 D4 [2 w4 u
Format/Info : High Efficiency Video Coding
2 S, W. f1 [1 S: ]5 D, s( s$ x8 J% DFormat profile : Main [email protected]@High/ Z% O9 D. M! ^# `6 _
Codec ID : hvc1
9 f  v, f! V$ J* XCodec ID/Info : High Efficiency Video Coding" d9 `: l" C2 O
Duration : 1 min 23 s
# H! u3 I" v" ~( u+ [( O& LBit rate : 72.9 Mbps, d7 X; v0 e4 g4 g1 z! l4 a; t
Maximum bit rate : 94.2 Mbps
- `; }- R+ e* S  B- n; bWidth : 3840 pixels
5 D0 ]' E0 H9 E% d& wHeight : 2160 pixels  C4 K& \: K5 z# j( m
Display aspect ratio : 16:97 {4 i4 ~( R/ e0 O
Frame rate mode : Constant
9 @; D0 d8 F. C: d, K9 CFrame rate : 59.940 (60000/1001) FPS+ r+ J3 w' G5 a* m; j. h
Color space : YUV
0 J8 g( S# U, {3 W( L/ p& vChroma subsampling : 4:2:0 (Type 2)
/ }& y8 \6 Z/ oBit depth : 10 bits
: {8 R' R# \+ w& k! ]Bits/(Pixel*Frame) : 0.1473 x% v+ {" a; D
Stream size : 722 MiB (100%). o3 P* R, U1 U' E4 p
Encoded date : UTC 2016-10-24 06:37:114 d* c, {) x" h7 R6 O% ~
Tagged date : UTC 2016-10-24 05:40:23
  V- ~0 I7 P! c" bColor range : Limited! m. c% ?  O4 h- i5 W
Color primaries : BT.20200 k1 Z8 g9 H9 \- s2 A2 V9 f" H+ G9 x
Transfer characteristics : SMPTE ST 2084
/ T. a+ |2 [& Z" {Matrix coefficients : BT.2020 non-constant
# y5 L4 |; w2 ], LMastering display color primar : R: x=1.000000 y=1.000000, G: x=1.000000 y=1.000000, B: x=1.000000 y=1.000000, White point: x=1.000000 y=1.000000
$ ]. |( `6 e% u+ WMastering display luminance : min: 0.1000 cd/m2, max: 0.5000 cd/m2
2 X" q  |" c# z% Q9 F4 c' J. n) w1 Y, e
Audio4 i9 J' k  Q) I
ID : 23 h( a- c, ~. {: F" M4 ?
Format : AAC
9 X, s2 U$ D$ @6 v. S! P4 f# FFormat/Info : Advanced Audio Codec
: [$ O! V0 p! ~% ^Format profile : LC
6 }0 o# C" @. m5 V/ UCodec ID : 40
9 O8 ~( a" @6 e8 q2 vDuration : 1 min 23 s+ S) X3 z1 P- |/ G
Source duration : 1 min 23 s
5 d4 y0 M; I6 Q( e4 hBit rate mode : Variable
" I) o; A" V  X6 i  h$ R# O8 yBit rate : 192 kbps. U% o( }' U$ F( _6 n, ^: N8 c3 {2 y- U/ v
Maximum bit rate : 197 kbps; f* n, e1 y% {( _# K
Channel(s) : 2 channels4 |+ \; |5 V' `$ C- ^
Channel positions : Front: L R
, e  z9 j0 g( _1 H, S1 g, k( [Sampling rate : 48.0 kHz
, Z3 S6 Y/ \, u  K2 D( D* gFrame rate : 46.875 FPS (1024 spf)
7 Y8 H$ l7 j3 [, d: q. nCompression mode : Lossy4 Q1 o! W4 }* O$ Q2 ?
Stream size : 1.90 MiB (0%)
$ U! S3 ]4 q: q; C0 z9 aSource stream size : 1.90 MiB (0%)
  S4 H; {0 y, P5 a8 ^Language : English* \, o' k) y; X- z0 {6 ^
Encoded date : UTC 2016-10-24 06:37:11
3 ^/ ~0 |2 |% fTagged date : UTC 2016-10-24 05:40:23
+ Y$ \& G; p5 T& @Demo Ultra HD & HDR (HDR10)by Sony(for Sony OLED A1 Demo)( y' g* }; b/ y) l* [$ G' Z
HDR ! So your TV has to be able to play this format ! * ^& n! f! c* F
在4K HDR电视上观看才能体验最佳效果!
+ G5 F, S6 m$ e; k播放器 : Potplaye(2017版本). U. J: z- C8 Y& y# R# B! \

! k, k, Z# s) b( ~4 w2 O" ?索尼 Bravia OLED A1电视
5 L3 U5 }  i1 v2 l+ B 201016lr7w999db0fdfwzp.jpg - n6 {& J; I- T0 C. g, e% n
索尼 Bravia OLED A1电视可以说是集多项黑科技于一体,由于采用了OLED屏幕,所以整体机身非常的纤薄,官方宣称电视的厚度仅为7.8mm,几乎和一部iphone不相上下了。另外该款电视的支架设计也是非常的有特色,在支架中集成了屏幕以外的硬件和接口,并且还配有一个低音炮。
! E) I5 M: z' Y( ^/ G" P* _+ B9 L& W( C1 Y. ]; u! R) l9 d  A/ f
另外索尼 Bravia OLED A1电视的一大亮点则是集成了整个音响系统并保持其极薄的厚度,索尼称之为“银幕声场”Acoustic Surface的技术,运用OLED无背光结构让屏幕本身直接发出声音。
7 ^0 [% K+ Y  Y3 |% _
201016qolo4oo17lok615o.jpg

# G7 q1 [9 _( e0 G6 R8 C+ s索尼 Bravia OLED A1电视采用了4K HDR图像处理芯片X1进阶版,支持HDR动态逐像重塑技术、4K HDR 14bit平滑渐变、双影像数据库三大技术,另外该款电视采用了安卓7.0系统,扩展性能方面更加的出色,并且还内置Google Assistant智能助手和PlayStation Vue服务。" @( ?; M0 E! |, @
201017ikijrz5i1fwn2rtr.jpg

6 b9 S4 z/ N# B! s) H2 r8 K" [3 \
# Q% @5 V) x( J# Q
( m4 Z, G4 ]3 V7 o索尼 BRAVIA OLED A1 4K HDR 演示片 (高码率 HEVC 60fps 10bit)[2160P/MP4/724MB]MP4百度云盘免费下载:
; T* q0 R$ K& |! v" P- y  S9 D
$ L. t: g% |, H! R
! e7 Y6 p( j' G8 Q3 o# P5 j
游客,如果您要查看本帖隐藏内容请回复
3 i$ [$ P$ G; l& [  j

6 M1 O  `+ Y  r. U6 Y. B" g& b
& g8 d  D+ a7 T. x2 B% F/ \' J

( B# D" \* ]; q  W
8 R1 T- S$ f7 M5 y. q& g% }( q
/ |  G2 Z8 K& _* C6 i, _/ v" r$ p1 x
5 Y2 R# s6 ~, A7 h7 C. g
更多图片 小图 大图
组图打开中,请稍候......

0

主题

11

帖子

12

积分

发表于 2017-5-18 22:16:29 | 显示全部楼层
么有分,谁能送我点 K币啊::>_<::

0

主题

4

帖子

5

积分

发表于 2017-5-19 00:26:31 | 显示全部楼层
支持一下hao4k的发展!

0

主题

17

帖子

420

积分

发表于 2017-5-19 00:38:29 | 显示全部楼层
支持hao4k,支持楼主大人发布4k资源!

0

主题

35

帖子

57

积分

发表于 2017-5-19 03:49:21 | 显示全部楼层
感谢楼主,求分享

0

主题

7

帖子

8

积分

发表于 2017-5-19 05:37:48 来自手机 | 显示全部楼层
我只是路过打酱油的,赞hao4k

0

主题

8

帖子

9

积分

发表于 2017-5-19 07:17:31 来自手机 | 显示全部楼层
回的人少,我来小顶一下。支持hao4k发展

0

主题

10

帖子

11

积分

发表于 2017-5-19 10:14:35 | 显示全部楼层
回的人少,我来小顶一下。支持hao4k发展

0

主题

37

帖子

96

积分

发表于 2017-5-19 10:48:16 | 显示全部楼层

' w/ Z' R8 b: K* Y& v5 N% N) s支持一下hao4k的发展!

0

主题

12

帖子

24

积分

发表于 2017-5-19 11:30:42 来自手机 | 显示全部楼层
谢谢大家分享
您需要登录后才可以回帖 登录 | 立即注册

本版积分规则

Copyright   ©2015-2016  hao4k  Powered by©Discuz!