发表于 2017-5-18 22:06 | 显示全部楼层 |阅读模式
索尼 BRAVIA OLED A1 4K HDR 演示片 (高码率 HEVC 60fps 10bit)[2160P/MP4/724MB]$ h7 w/ M% f# v( I- W6 T0 F7 ~
193037xpkd0901p3j7u8mm.png
0 D4 J+ I/ b! c* Y- ~8 f0 s
6 z2 l$ c( r& f  e, R, W$ U0 u  RGeneral& u( P9 l4 h2 ]  t& u% W& [
Complete name : SONY.BRAVIA.OLED.HDR.4K.DEMO.mp42 Y: p0 B: X* m% a3 E: e
Format : MPEG-4
) p! Y& z0 \/ C6 s& r" QFormat profile : Base Media8 I4 `+ w2 E8 x
Codec ID : isom (isom)' T0 y! Y5 s9 Z
File size : 724 MiB
! M6 L6 R; k% d+ Q9 \Duration : 1 min 23 s
/ ~4 C/ Z5 U- P5 v8 n  JOverall bit rate mode : Variable5 t: x  v- Q9 B$ X: O. @5 V) A
Overall bit rate : 73.1 Mbps
$ L; v2 e* z3 s3 T, X. nEncoded date : UTC 2016-10-24 05:40:14
# K2 }! ]7 N5 \& o, g: x4 E4 eTagged date : UTC 2016-10-24 05:40:14
# ^  J7 D# |: ^. y
) x4 T1 V, K, l# O2 oVideo
) x/ I0 h3 I* ?# ^2 c, cID : 17 c2 H9 Q* X0 T5 Y! r
Format : HEVC
8 ^# D2 o( u0 U6 ~" R; BFormat/Info : High Efficiency Video Coding
5 v" R( [/ t* F2 ~Format profile : Main 10@L5.1@High
" `2 X. e% o8 m! E$ A" V4 \Codec ID : hvc15 y4 @3 H# r8 l* J4 L3 K5 E8 C  V
Codec ID/Info : High Efficiency Video Coding0 a5 R0 M/ H) K* C/ k; y
Duration : 1 min 23 s
* e: @6 z8 [$ NBit rate : 72.9 Mbps$ J0 q# F' R1 v5 N1 s
Maximum bit rate : 94.2 Mbps
- R4 z/ v4 ^2 X/ `6 j4 v) d* x0 \Width : 3840 pixels
0 a. y9 O4 r1 }+ Y# j9 ]7 YHeight : 2160 pixels
+ O( U+ Y/ N. ]( P' V8 I' MDisplay aspect ratio : 16:9
" a" |" `2 |2 ^Frame rate mode : Constant; F; `4 z! }. i% p6 W3 U; D" I
Frame rate : 59.940 (60000/1001) FPS# O1 Z( Z6 \1 S: c- K
Color space : YUV  e) y/ u0 v' d6 c8 q& w
Chroma subsampling : 4:2:0 (Type 2)* k8 M% U# Y6 j7 t& a' J
Bit depth : 10 bits3 b4 k+ ^  @% ?
Bits/(Pixel*Frame) : 0.147# z2 x! m8 G0 {9 q, `
Stream size : 722 MiB (100%)
8 \2 x4 a0 B3 t3 A$ h* j1 ^Encoded date : UTC 2016-10-24 06:37:11$ B+ w3 Q6 W3 Z0 ~1 B2 q( `& Z  T
Tagged date : UTC 2016-10-24 05:40:23
$ ~. b- C+ V0 F, P- ZColor range : Limited  U$ Y% S+ u  ~6 l
Color primaries : BT.2020
  V. ~. Q4 G! f3 ]) S1 _: u- VTransfer characteristics : SMPTE ST 2084% }$ I, c% ~& |0 [5 L. p0 l5 Q
Matrix coefficients : BT.2020 non-constant
0 E. ^3 S7 k2 w9 _3 M. rMastering display color primar : R: x=1.000000 y=1.000000, G: x=1.000000 y=1.000000, B: x=1.000000 y=1.000000, White point: x=1.000000 y=1.000000$ J7 d1 F! U1 \! f* H
Mastering display luminance : min: 0.1000 cd/m2, max: 0.5000 cd/m2
2 ^2 R  T5 i) F  @8 F2 l
' Z: }) l- \& y4 z7 HAudio
7 l5 \8 c) ^0 t( V; WID : 2
5 o5 W% O$ v- i; ~" L' ~" [( IFormat : AAC
' W) F% |( p+ Y9 l; l2 w& UFormat/Info : Advanced Audio Codec
" Y) P( _$ q7 i' l3 O& U6 BFormat profile : LC0 L& N2 Z% Z' f) b, q
Codec ID : 40
7 j6 U5 K9 I* c8 fDuration : 1 min 23 s$ D  \2 p  ^# m8 ~# a: O
Source duration : 1 min 23 s1 G2 ^" g$ M9 c* I2 e
Bit rate mode : Variable& ?+ e3 i1 v- v* Z2 x2 \
Bit rate : 192 kbps* A/ m$ z+ s: E6 z, O
Maximum bit rate : 197 kbps/ T5 S4 ]# b# i7 Y! S! B3 `
Channel(s) : 2 channels* ~4 L" W3 g6 r0 w3 w* L% g; B2 k
Channel positions : Front: L R
' n1 z" z/ z6 a3 }( d5 l: \Sampling rate : 48.0 kHz8 y1 B3 r9 W! m4 M  J( {) _
Frame rate : 46.875 FPS (1024 spf)& J# h, [* o7 K2 X7 }. x+ `4 S2 O, }
Compression mode : Lossy9 z- T5 ]+ S7 u$ X5 t5 g4 z
Stream size : 1.90 MiB (0%)9 }; X( b0 ]) S
Source stream size : 1.90 MiB (0%)+ {+ t+ U4 ]# |! Q* N+ {+ X! r; G
Language : English1 ^- t6 F$ E7 n2 F8 j, F
Encoded date : UTC 2016-10-24 06:37:111 @' c7 z2 W  Z7 a
Tagged date : UTC 2016-10-24 05:40:23
9 n1 ]6 @3 e) N1 qDemo Ultra HD & HDR (HDR10)by Sony(for Sony OLED A1 Demo)6 T# d- |: C/ i0 ?1 V' T6 Y5 R; t
HDR ! So your TV has to be able to play this format ! 3 l& G3 l  {, j+ C( Z
在4K HDR电视上观看才能体验最佳效果!0 f# b- ^- [0 g4 b7 M* T3 I
播放器 : Potplaye(2017版本)7 g; g6 M3 Q9 M/ m
3 z' Z4 C( H6 X( y2 u; \
索尼 Bravia OLED A1电视
- s6 r* I8 v; {$ V0 {3 U/ k 201016lr7w999db0fdfwzp.jpg
0 k8 I0 f( f7 S  y* B6 I3 Q" s$ q索尼 Bravia OLED A1电视可以说是集多项黑科技于一体,由于采用了OLED屏幕,所以整体机身非常的纤薄,官方宣称电视的厚度仅为7.8mm,几乎和一部iphone不相上下了。另外该款电视的支架设计也是非常的有特色,在支架中集成了屏幕以外的硬件和接口,并且还配有一个低音炮。& w6 r2 O9 l# Z' B
/ h: O( H1 H2 \& @) N+ S
另外索尼 Bravia OLED A1电视的一大亮点则是集成了整个音响系统并保持其极薄的厚度,索尼称之为“银幕声场”Acoustic Surface的技术,运用OLED无背光结构让屏幕本身直接发出声音。
3 H" ?; `7 }( c( \
201016qolo4oo17lok615o.jpg
7 \' p! }  n7 v" S  v
索尼 Bravia OLED A1电视采用了4K HDR图像处理芯片X1进阶版,支持HDR动态逐像重塑技术、4K HDR 14bit平滑渐变、双影像数据库三大技术,另外该款电视采用了安卓7.0系统,扩展性能方面更加的出色,并且还内置Google Assistant智能助手和PlayStation Vue服务。
8 Y% ^: L& U/ Y! l& n& U+ _7 d2 b) a 201017ikijrz5i1fwn2rtr.jpg
% [5 j+ D. x1 W1 i8 T) J4 H3 J9 b- C, D

! B# p9 ]6 W$ A( U9 I
  O7 W$ G+ B( R- g: U- K7 T索尼 BRAVIA OLED A1 4K HDR 演示片 (高码率 HEVC 60fps 10bit)[2160P/MP4/724MB]MP4百度云盘免费下载:
( c' y! {, t6 n, w. p9 M; A

+ G6 M' `3 ~7 k2 f
+ j! ^+ n' J9 A0 Y2 d
游客,如果您要查看本帖隐藏内容请回复

/ @( i6 w- ]+ H0 N/ S" r0 ^" V& L6 ?
3 _) o  Q; S8 [7 J# R( [

* s' F8 B  R, h7 j( Q, W1 F( h$ K: m0 p/ S" \
# d/ D2 N2 g6 L7 \1 ?  A

, g( I0 j7 f# ?# @
; E# T" P# K$ H( z$ o. ?
更多图片 小图 大图
组图打开中,请稍候......
发表于 2017-5-18 22:16 | 显示全部楼层
么有分,谁能送我点 K币啊::>_<::
发表于 2017-5-19 00:26 | 显示全部楼层
支持一下hao4k的发展!
发表于 2017-5-19 00:38 | 显示全部楼层
支持hao4k,支持楼主大人发布4k资源!
发表于 2017-5-19 03:49 | 显示全部楼层
感谢楼主,求分享
发表于 2017-5-19 05:37 来自手机 | 显示全部楼层
我只是路过打酱油的,赞hao4k
发表于 2017-5-19 07:17 来自手机 | 显示全部楼层
回的人少,我来小顶一下。支持hao4k发展
发表于 2017-5-19 10:14 | 显示全部楼层
回的人少,我来小顶一下。支持hao4k发展
发表于 2017-5-19 10:48 | 显示全部楼层

& I7 x: ]& z# q支持一下hao4k的发展!
发表于 2017-5-19 11:30 来自手机 | 显示全部楼层
谢谢大家分享
发表于 2017-5-19 13:22 | 显示全部楼层
啥也不说了,感谢楼主在hao4k分享4k视频内容哇!
发表于 2017-5-19 18:37 | 显示全部楼层
支持一下hao4k的发展!
发表于 2017-5-19 18:59 | 显示全部楼层
啥也不说了,感谢楼主在hao4k分享4k视频内容哇!
发表于 2017-5-19 19:06 | 显示全部楼层
确实是难得4k好帖啊,顶先
发表于 2017-5-19 19:07 | 显示全部楼层
6666666666666666666
发表于 2017-5-19 19:52 | 显示全部楼层
支持hao4k,支持楼主大人发布4k资源!
发表于 2017-5-19 20:17 | 显示全部楼层
bugoushiwoejwe w123213
发表于 2017-5-19 21:26 | 显示全部楼层
啥也不说了,感谢楼主在hao4k分享4k视频内容哇!
您需要登录后才可以回帖 登录 | 立即注册

本版积分规则

返回顶部 联系我们