LadyGaga 发表于 2017-5-26 21:58 | 显示全部楼层 |阅读模式
索尼 BRAVIA OLED A1 4K HDR 演示片 (高码率 HEVC 60fps 10bit)[2160P/MP4/724MB]3 S$ [: n3 s/ q- c3 |" W2 H; r

索尼 BRAVIA OLED A1 4K HDR 演示片 (高码率 HEVC 60fps 10bit)[2160P/MP4/724MB]

索尼 BRAVIA OLED A1 4K HDR 演示片 (高码率 HEVC 60fps 10bit)[2160P/MP4/724MB]

# o% ]3 \, q3 @! ^/ d$ Z
/ L9 H9 ]2 N9 W, L* ~; ~8 x& }注意,此4k片源为索尼OLED电视专用4K演示片!$ b' |* t5 b( }+ X6 [* s( g4 W

, p! q2 X5 V+ ^$ f1 O) ]

索尼 BRAVIA OLED A1 4K HDR 演示片 (高码率 HEVC 60fps 10bit)[2160P/MP4/724MB]

索尼 BRAVIA OLED A1 4K HDR 演示片 (高码率 HEVC 60fps 10bit)[2160P/MP4/724MB]

3 @- e2 l9 ~  @# x( F: T$ v/ ^3 u4 L1 w' z+ h; `$ V2 Q# |, A

索尼 BRAVIA OLED A1 4K HDR 演示片 (高码率 HEVC 60fps 10bit)[2160P/MP4/724MB]

索尼 BRAVIA OLED A1 4K HDR 演示片 (高码率 HEVC 60fps 10bit)[2160P/MP4/724MB]

$ P" d* k5 H- W8 x

索尼 BRAVIA OLED A1 4K HDR 演示片 (高码率 HEVC 60fps 10bit)[2160P/MP4/724MB]

索尼 BRAVIA OLED A1 4K HDR 演示片 (高码率 HEVC 60fps 10bit)[2160P/MP4/724MB]

5 _$ |& S. W7 d- f# }; P2 X+ [& f) h4 W5 a

索尼 BRAVIA OLED A1 4K HDR 演示片 (高码率 HEVC 60fps 10bit)[2160P/MP4/724MB]

索尼 BRAVIA OLED A1 4K HDR 演示片 (高码率 HEVC 60fps 10bit)[2160P/MP4/724MB]
  |: H( x  ~/ r7 s
2 a2 U  b& s+ Q& U0 G

索尼 BRAVIA OLED A1 4K HDR 演示片 (高码率 HEVC 60fps 10bit)[2160P/MP4/724MB]

索尼 BRAVIA OLED A1 4K HDR 演示片 (高码率 HEVC 60fps 10bit)[2160P/MP4/724MB]
" R, E' m$ M' N0 v

% j* b; Q- G- S/ _

索尼 BRAVIA OLED A1 4K HDR 演示片 (高码率 HEVC 60fps 10bit)[2160P/MP4/724MB]

索尼 BRAVIA OLED A1 4K HDR 演示片 (高码率 HEVC 60fps 10bit)[2160P/MP4/724MB]

+ t" a+ ]+ r" q! s) N% N* E
" C2 H/ |- x7 q5 A4 N  J) j, D

索尼 BRAVIA OLED A1 4K HDR 演示片 (高码率 HEVC 60fps 10bit)[2160P/MP4/724MB]

索尼 BRAVIA OLED A1 4K HDR 演示片 (高码率 HEVC 60fps 10bit)[2160P/MP4/724MB]

5 v1 R/ }& z6 `  G9 R% g% U+ ?7 \% |$ e/ Q; \  \

索尼 BRAVIA OLED A1 4K HDR 演示片 (高码率 HEVC 60fps 10bit)[2160P/MP4/724MB]

索尼 BRAVIA OLED A1 4K HDR 演示片 (高码率 HEVC 60fps 10bit)[2160P/MP4/724MB]

$ `) c0 n! A9 k0 Y4 t" Y4 |8 P! b, f) e) N+ A

索尼 BRAVIA OLED A1 4K HDR 演示片 (高码率 HEVC 60fps 10bit)[2160P/MP4/724MB]

索尼 BRAVIA OLED A1 4K HDR 演示片 (高码率 HEVC 60fps 10bit)[2160P/MP4/724MB]
0 [& D7 G1 N, F$ j

4 l7 P2 S- B/ `( q- e6 Y% @

索尼 BRAVIA OLED A1 4K HDR 演示片 (高码率 HEVC 60fps 10bit)[2160P/MP4/724MB]

索尼 BRAVIA OLED A1 4K HDR 演示片 (高码率 HEVC 60fps 10bit)[2160P/MP4/724MB]

! X' O+ F& w9 `- Y  c, n$ I9 N0 S1 g
- R2 z5 n; }1 t3 x3 ^- u( XGeneral
4 K4 k) |6 R) }- A# @Complete name : Sony.BRAVIA.OLED.HDR.4K.DEMO.mp4
0 C! e$ |# s/ h! t& Q# ZFormat : MPEG-4/ T$ f; t: ^, Z7 q
Format profile : Base Media8 T% t# ~9 |. b" m
Codec ID : isom (isom)
) G2 `, b( Q% y1 ^( {' v3 ]) jFile size : 724 MiB
$ l+ G& |- n* s# VDuration : 1 min 23 s
0 ~- q7 w+ L, vOverall bit rate mode : Variable8 w1 ^- [9 g7 M0 ]; Y% A
Overall bit rate : 73.1 Mbps
- R/ L' D( ^$ \7 M, OEncoded date : UTC 2016-10-24 05:40:14# K! `+ \* c* _9 w
Tagged date : UTC 2016-10-24 05:40:14
7 J! ]- s3 \7 s4 @# F3 ~" U/ H. g5 D7 G, h2 p
Video
8 v0 }% y5 F8 K3 iID : 1
+ ]; o& U1 a3 v3 W! dFormat : HEVC
( E+ F) K; i+ VFormat/Info : High Efficiency Video Coding! l) p+ w( o" U
Format profile : Main 10@L5.1@High
" N5 o0 J6 g) ], rCodec ID : hvc1
+ d5 K7 w; j6 y/ e* A# K, ACodec ID/Info : High Efficiency Video Coding
4 B7 }8 [8 U  CDuration : 1 min 23 s" I9 @, V; R9 u5 J% x; I2 _
Bit rate : 72.9 Mbps# e& b( J) j0 J7 B
Maximum bit rate : 94.2 Mbps! @' C+ @( {% X% V% c' w$ f; ^
Width : 3840 pixels% Q( o% J( N( @! N* b$ \1 T- g( L
Height : 2160 pixels
9 s+ P1 v2 q0 L% i. w3 T4 p6 z4 yDisplay aspect ratio : 16:9
. u6 n. A( L# x1 u1 @" _* S! \9 jFrame rate mode : Constant) A) \# [; }4 R$ X2 W" V2 p
Frame rate : 59.940 (60000/1001) FPS& ^. |7 [2 `" ?) j. z
Color space : YUV
( X  O8 J1 i$ g3 FChroma subsampling : 4:2:0 (Type 2)
3 r4 I" N7 `3 MBit depth : 10 bits
3 N  P+ U1 a: N" c6 \* y6 d5 rBits/(Pixel*Frame) : 0.147
! i+ L. i$ F4 l" c/ GStream size : 722 MiB (100%)
" c: j9 h9 C4 @$ P& VEncoded date : UTC 2016-10-24 06:37:11
# N# E) k2 @6 \; ]. a' |Tagged date : UTC 2016-10-24 05:40:234 S3 A! n8 {  m7 J' ]
Color range : Limited9 O* s+ j, ]2 H3 a
Color primaries : BT.20203 t) c4 T" w9 |  W$ G
Transfer characteristics : SMPTE ST 20840 D  x, O+ s  _8 O
Matrix coefficients : BT.2020 non-constant) e' Y; s5 o* A
Mastering display color primar : R: x=1.000000 y=1.000000, G: x=1.000000 y=1.000000, B: x=1.000000 y=1.000000, White point: x=1.000000 y=1.000000( K" c/ ^+ t0 b0 a
Mastering display luminance : min: 0.1000 cd/m2, max: 0.5000 cd/m2
0 w$ o2 s2 E8 n" ^9 x) r2 Y& O* G) ^4 `$ v5 _
Audio
+ U& P/ p0 g9 |. N6 t. d" G9 pID : 2- j. ], r) ]! ~8 h
Format : AAC  R) E' O- o7 l6 f
Format/Info : Advanced Audio Codec
0 N9 M0 T1 m7 O& XFormat profile : LC  P+ k2 P6 d6 |
Codec ID : 40% r) D$ _1 {6 U5 D+ w
Duration : 1 min 23 s
0 O& }, }. H0 L9 c5 qSource duration : 1 min 23 s$ X" T2 ]4 I6 U' u
Bit rate mode : Variable. Z7 \1 O0 X, m/ d* A9 i' ~. m
Bit rate : 192 kbps# w( ?0 E/ A9 q0 t7 G
Maximum bit rate : 197 kbps
6 \" q6 U4 O. X( b& L" L. J) G: GChannel(s) : 2 channels& p; T9 e2 r9 l
Channel positions : Front: L R
6 k8 u8 P! b2 _% g5 i/ r- OSampling rate : 48.0 kHz
0 {  b5 A9 ?1 C! R( }; TFrame rate : 46.875 FPS (1024 spf)7 p, k, {8 k% b( V' _' R. f' F! w
Compression mode : Lossy5 L3 s5 Q, e  A9 o1 ~  f; q
Stream size : 1.90 MiB (0%)$ A6 Q) i+ H1 f5 T% B& a
Source stream size : 1.90 MiB (0%)4 U4 I( L& W3 R  J% V2 [
Language : English9 B) R: S7 A; J
Encoded date : UTC 2016-10-24 06:37:11
/ P# y/ ^8 |. p- `4 e7 N  OTagged date : UTC 2016-10-24 05:40:23- ^. s2 r9 U$ V
Demo Ultra HD & HDR (HDR10)by Sony(for Sony OLED A1 Demo)" f, ?; c/ @" D; Q
HDR ! So your TV has to be able to play this format ! ; @1 j7 P# ]' d) ?( k% K$ [* K
在4K OLED HDR电视上观看才能体验最佳效果!, _* z0 z6 ?3 s4 A# s9 l
播放器 : Potplaye(2017版本)
! h/ T9 A& m1 S' P
/ ]9 H9 C- H9 J& ]( ^) W# M8 H索尼 Bravia OLED A1电视
8 N# Z" j' C3 w- b

索尼 BRAVIA OLED A1 4K HDR 演示片 (高码率 HEVC 60fps 10bit)[2160P/MP4/724MB]

索尼 BRAVIA OLED A1 4K HDR 演示片 (高码率 HEVC 60fps 10bit)[2160P/MP4/724MB]
! b& |+ \4 |" d% \& x" k0 M
索尼 Bravia OLED A1电视可以说是集多项黑科技于一体,由于采用了OLED屏幕,所以整体机身非常的纤薄,官方宣称电视的厚度仅为7.8mm,几乎和一部iphone不相上下了。另外该款电视的支架设计也是非常的有特色,在支架中集成了屏幕以外的硬件和接口,并且还配有一个低音炮。
0 m2 W, n; z8 }0 K
5 Q. ?; S/ q( f) p+ k  e2 V另外索尼 Bravia OLED A1电视的一大亮点则是集成了整个音响系统并保持其极薄的厚度,索尼称之为“银幕声场”Acoustic Surface的技术,运用OLED无背光结构让屏幕本身直接发出声音。
$ H6 y& X( |; g8 }

索尼 BRAVIA OLED A1 4K HDR 演示片 (高码率 HEVC 60fps 10bit)[2160P/MP4/724MB]

索尼 BRAVIA OLED A1 4K HDR 演示片 (高码率 HEVC 60fps 10bit)[2160P/MP4/724MB]

3 u+ I- g. D9 a) G索尼 Bravia OLED A1电视采用了4K HDR图像处理芯片X1进阶版,支持HDR动态逐像重塑技术、4K HDR 14bit平滑渐变、双影像数据库三大技术,另外该款电视采用了安卓7.0系统,扩展性能方面更加的出色,并且还内置Google Assistant智能助手和PlayStation Vue服务。5 F5 }; \5 {3 V1 I) L& v

索尼 BRAVIA OLED A1 4K HDR 演示片 (高码率 HEVC 60fps 10bit)[2160P/MP4/724MB]

索尼 BRAVIA OLED A1 4K HDR 演示片 (高码率 HEVC 60fps 10bit)[2160P/MP4/724MB]

% Y5 b: ~" P- d1 G* T" T$ o: e
* k, q/ j% T5 F+ z0 t
2 W  W; `; j/ oMP4百度云盘
$ R4 s# x8 x' Q% a8 M6 C4 m
7 n8 r0 |0 ~8 B) Q0 R5 U$ l0 j$ \/ j* @# P$ K- S& e7 J( s7 X  A- K0 P  g
索尼 BRAVIA OLED A1 4K HDR 演示片 (高码率 HEVC 60fps 10bit)[2160PMP4724MB].txt (319 Bytes, 下载次数: 16)
淡看,伤感美 发表于 2017-5-26 22:48 | 显示全部楼层
回的人少,我来小顶一下。支持hao4k发展
84137395 发表于 2017-5-26 23:53 | 显示全部楼层
瞧瞧下载看看
学会珍惜i 发表于 2017-5-27 07:34 | 显示全部楼层
额,看不懂在说神马~@_@
zsq35 发表于 2017-5-27 08:31 | 显示全部楼层
啥也不说了,感谢楼主在hao4k分享4k视频内容哇!
胖子就是矯情 发表于 2017-5-27 13:52 | 显示全部楼层
4k视频片源我来了,谢谢提供~~
就此长大了╮ 发表于 2017-5-27 22:22 | 显示全部楼层
确实是难得4k好帖啊,顶先
〃βαβγ。☆ 发表于 2017-5-28 00:35 | 显示全部楼层
急需4k测试短片下载!
邋遢 发表于 2017-5-28 07:58 | 显示全部楼层
啥也不说了,感谢楼主在hao4k分享4k视频内容哇!
maa01 发表于 2017-5-28 09:27 | 显示全部楼层
支持hao4k,支持楼主大人发布4k资源!
adsdsadsa 发表于 2017-5-28 11:03 | 显示全部楼层
dasadfsafsadfsa
armjames 发表于 2017-5-28 13:09 | 显示全部楼层
买了电视,肯定要配上测试视频
liujp712 发表于 2017-5-28 21:33 | 显示全部楼层
看看高清,震撼感觉
茶煲 发表于 2017-5-28 22:08 | 显示全部楼层
啥也不说了,感谢楼主在hao4k分享4k视频内容哇!
ymcq4K 发表于 2017-5-28 23:14 | 显示全部楼层
啥也不说了,感谢楼主在hao4k分享4k视频内容哇!
bossmt2 发表于 2017-5-29 16:02 | 显示全部楼层
支持hao4k,支持楼主大人发布4k资源!
zlg8 发表于 2017-5-30 00:10 | 显示全部楼层
xxxxxxxxxxxxxxxxxxxxxxxxxxxxxxxxxxxxxxxxxxxxxxxxxxxxxxxxxxxxxxxxxxxxxxxxxxxxxxxxxxxx
z403529262 发表于 2017-5-30 12:42 | 显示全部楼层
感谢楼主分享
您需要登录后才可以回帖 登录 | 立即注册

本版积分规则

返回顶部 联系我们