发表于 2017-5-26 21:58 | 显示全部楼层 |阅读模式
# v3 @# k# H& n2 f
索尼 BRAVIA OLED A1 4K HDR 演示片 (高码率 HEVC 60fps 10bit)[2160P/MP4/724MB]
/ D" \8 }( m/ n  b! ^* W 221900mud2wn23nuthwzrn.jpg 2 S+ J$ n0 j& p0 e& p5 g. U- d$ @

: u/ y% A7 p; X1 T5 E注意,此4k片源为索尼OLED电视专用4K演示片!
  b; d% Q* n: }$ a3 ~9 u
# Y" [2 c9 M( m+ _ 221854l8y6rmdyj6rgpf88.jpg
! Y+ Y3 A3 v5 \5 x; j. c! n- u2 ]) C- [$ k0 c* N4 _
221858cdpfudpps2up2ddp.jpg 9 ?7 i- ^' R( D5 L  M: x5 R: F

1 k/ u( D- u' e. `0 I* U* u% q
: i5 D- Y/ u7 H% r9 dGeneral! L4 V$ q9 C5 R- a
Complete name : Sony.BRAVIA.OLED.HDR.4K.DEMO.mp4; \! [! F' k% O: P2 @; F
Format : MPEG-4+ r" j- O, A' I' f9 j
Format profile : Base Media
) g6 w: M- y- ?3 k* j% ICodec ID : isom (isom)
3 F: z; G9 N  r1 {File size : 724 MiB
5 n, Y% n* r; h; K  cDuration : 1 min 23 s
: n- o$ k$ _$ s7 C6 y5 b* }Overall bit rate mode : Variable" G+ H: _8 U/ K& R4 t; u
Overall bit rate : 73.1 Mbps
! O( @0 B* A& k0 c4 e$ `' Y* ]Encoded date : UTC 2016-10-24 05:40:14
, S) O/ q+ _+ l" Q4 ?% z' STagged date : UTC 2016-10-24 05:40:14
" K7 l& H7 o; G( b: e/ T& V. y3 K0 D! r) s5 O3 c+ P
Video* @' e) I5 l6 m% ^% j% S& _6 |
ID : 1
  n% C- v, ^# w2 \% N. t) RFormat : HEVC" q* Q1 T  t, Y* v4 t. \
Format/Info : High Efficiency Video Coding3 Y5 \8 |3 O9 v
Format profile : Main 10@L5.1@High
9 J7 u0 W: Q3 d1 T; }: NCodec ID : hvc1
- m! Q8 }4 N1 |% r: o# \$ iCodec ID/Info : High Efficiency Video Coding$ C& S( q9 y  |& i" e4 q
Duration : 1 min 23 s# x& [% Q3 M& }+ x  S+ r
Bit rate : 72.9 Mbps
$ a! b" [' ]& }( c* G4 H0 c  m0 F- ?Maximum bit rate : 94.2 Mbps7 D/ q* h$ \7 L9 d. D( P
Width : 3840 pixels
& v. Y" Z8 y( j9 R8 NHeight : 2160 pixels
& k+ H) o4 I* r# f! eDisplay aspect ratio : 16:96 v/ t  Q, U- s; H8 t; c1 R0 ^
Frame rate mode : Constant7 k3 c* D9 p# ~# m( i
Frame rate : 59.940 (60000/1001) FPS
8 ]/ E. D% @0 ?; [6 f1 X8 dColor space : YUV
4 c# x7 P) W8 v9 Y& x, V' GChroma subsampling : 4:2:0 (Type 2)) u# x3 H3 y' X2 d) Z# B+ }" u
Bit depth : 10 bits( a8 T$ I. b* M/ o& H( g$ x
Bits/(Pixel*Frame) : 0.147
$ d0 k' m& `0 q# Q: dStream size : 722 MiB (100%)
: f' y1 X! C2 ^$ lEncoded date : UTC 2016-10-24 06:37:11: Z* c% C& U: m2 _! N8 V. n
Tagged date : UTC 2016-10-24 05:40:23
4 U7 p5 `: ?, Z7 @$ mColor range : Limited  j+ N3 i. o- j; }
Color primaries : BT.2020
& ~  s; H% D& ^; f. B- bTransfer characteristics : SMPTE ST 2084& i6 n4 G7 y4 a$ N3 r1 _% e
Matrix coefficients : BT.2020 non-constant
: r3 c6 ^. }1 w/ cMastering display color primar : R: x=1.000000 y=1.000000, G: x=1.000000 y=1.000000, B: x=1.000000 y=1.000000, White point: x=1.000000 y=1.000000
. u; N7 ~) s1 G# U5 FMastering display luminance : min: 0.1000 cd/m2, max: 0.5000 cd/m2
. F+ ^- x( D& @+ D% Q- s3 ?& _5 x9 p3 v
Audio
% D) N& w0 f$ E) V$ i- tID : 2/ _6 B0 b3 n6 {/ k
Format : AAC
7 Z( b0 Q* q* D  n5 a- hFormat/Info : Advanced Audio Codec
) Y  Q1 }5 ^6 V: z7 M* s6 i. SFormat profile : LC
3 l& k' v; E& L+ [0 r" b9 tCodec ID : 40
7 ^# u% W( q" b+ K. |Duration : 1 min 23 s
* [- o% k7 }, c" uSource duration : 1 min 23 s
, i8 |' j# p. ?0 @* P2 gBit rate mode : Variable
$ g7 z* g) G' gBit rate : 192 kbps
9 i8 _* g7 l/ e1 l* s1 [* jMaximum bit rate : 197 kbps
! i' t% V7 n) r: GChannel(s) : 2 channels
' [8 ]9 L5 A0 H* i' v7 }! i+ hChannel positions : Front: L R+ V# H4 F# G  w2 ~
Sampling rate : 48.0 kHz
* ~' W/ L6 ]0 n* Z$ v- M- KFrame rate : 46.875 FPS (1024 spf)2 ]# @! U4 _  W+ c% g: N
Compression mode : Lossy
. a, R2 f9 j7 O* }8 M6 ^9 K' OStream size : 1.90 MiB (0%)
9 j0 V  W$ l: H- hSource stream size : 1.90 MiB (0%)/ |' v+ K4 K) n2 W
Language : English
7 w4 d6 B9 O# `0 Q" dEncoded date : UTC 2016-10-24 06:37:11
8 f6 D( k7 U# h! eTagged date : UTC 2016-10-24 05:40:23; N# T3 U8 U2 o+ |% {1 H
Demo Ultra HD & HDR (HDR10)by Sony(for Sony OLED A1 Demo)0 x$ Q% x: Z! w9 S5 \2 q
HDR ! So your TV has to be able to play this format !
' X1 c8 G" G" C: k2 `在4K OLED HDR电视上观看才能体验最佳效果!
; w2 T7 W, B9 d% l0 e. g+ k播放器 : Potplaye(2017版本)
$ m9 ]1 F: }. O" B& u. L( _7 W/ v: l" j" `
索尼 Bravia OLED A1电视
, x$ q% W2 d" h6 G# r$ R 201016lr7w999db0fdfwzp.jpg
# D: U7 J* i3 L3 m4 W2 S3 X/ }索尼 Bravia OLED A1电视可以说是集多项黑科技于一体,由于采用了OLED屏幕,所以整体机身非常的纤薄,官方宣称电视的厚度仅为7.8mm,几乎和一部iphone不相上下了。另外该款电视的支架设计也是非常的有特色,在支架中集成了屏幕以外的硬件和接口,并且还配有一个低音炮。
; N1 t: w' ?4 R: `0 r+ B* w/ w# x- `" \
另外索尼 Bravia OLED A1电视的一大亮点则是集成了整个音响系统并保持其极薄的厚度,索尼称之为“银幕声场”Acoustic Surface的技术,运用OLED无背光结构让屏幕本身直接发出声音。
. ^  k- g0 `# m! | 201016qolo4oo17lok615o.jpg # d3 b, U$ a' U- a
索尼 Bravia OLED A1电视采用了4K HDR图像处理芯片X1进阶版,支持HDR动态逐像重塑技术、4K HDR 14bit平滑渐变、双影像数据库三大技术,另外该款电视采用了安卓7.0系统,扩展性能方面更加的出色,并且还内置Google Assistant智能助手和PlayStation Vue服务。5 Q/ h8 k# }( U/ l
201017ikijrz5i1fwn2rtr.jpg
4 B& N  I7 q8 s0 I) I
  q% \; M0 ], g/ \! G( R
) T" y4 S' [% ?" m0 kMP4百度云盘$ y( m5 p: j0 [

2 z5 g, }2 m* }! @9 l% n) I9 ]  E: k6 \
游客,如果您要查看本帖隐藏内容请回复
8 f& M7 K3 l9 r4 z+ R

+ Z, \3 s3 v. L2 Y; v. k
( u# \: w: O& |5 x. b) I# O1 B/ x( J( \5 d, E- Z

: K# u$ A$ q$ L! ~" O: L
更多图片 小图 大图
组图打开中,请稍候......
发表于 2017-5-26 22:48 | 显示全部楼层
回的人少,我来小顶一下。支持hao4k发展
发表于 2017-5-26 23:53 | 显示全部楼层
发表于 2017-5-27 07:34 | 显示全部楼层
额,看不懂在说神马~@_@
发表于 2017-5-27 08:31 | 显示全部楼层
啥也不说了,感谢楼主在hao4k分享4k视频内容哇!
发表于 2017-5-27 13:52 | 显示全部楼层
4k视频片源我来了,谢谢提供~~
发表于 2017-5-27 22:22 | 显示全部楼层
确实是难得4k好帖啊,顶先
发表于 2017-5-28 00:35 | 显示全部楼层
急需4k测试短片下载!
发表于 2017-5-28 07:58 | 显示全部楼层
啥也不说了,感谢楼主在hao4k分享4k视频内容哇!
发表于 2017-5-28 09:27 | 显示全部楼层
支持hao4k,支持楼主大人发布4k资源!
发表于 2017-5-28 11:03 | 显示全部楼层
dasadfsafsadfsa
发表于 2017-5-28 13:09 | 显示全部楼层
买了电视,肯定要配上测试视频
发表于 2017-5-28 21:33 | 显示全部楼层
看看高清,震撼感觉
发表于 2017-5-28 22:08 | 显示全部楼层
啥也不说了,感谢楼主在hao4k分享4k视频内容哇!
发表于 2017-5-28 23:14 | 显示全部楼层
啥也不说了,感谢楼主在hao4k分享4k视频内容哇!
发表于 2017-5-29 16:02 | 显示全部楼层
支持hao4k,支持楼主大人发布4k资源!
发表于 2017-5-30 00:10 | 显示全部楼层
xxxxxxxxxxxxxxxxxxxxxxxxxxxxxxxxxxxxxxxxxxxxxxxxxxxxxxxxxxxxxxxxxxxxxxxxxxxxxxxxxxxx
发表于 2017-5-30 12:42 | 显示全部楼层
感谢楼主分享
您需要登录后才可以回帖 登录 | 立即注册

本版积分规则

关闭

站长通知上一条 /1 下一条

返回顶部 联系我们