发表于 2017-5-26 21:58 | 显示全部楼层 |阅读模式
  K& O: ~0 ~% H
索尼 BRAVIA OLED A1 4K HDR 演示片 (高码率 HEVC 60fps 10bit)[2160P/MP4/724MB]7 d  f$ i5 I5 [2 A( e# d8 m
221900mud2wn23nuthwzrn.jpg
4 @1 C) A& ^* c  e' w
: |" j9 G3 W  ^2 m注意,此4k片源为索尼OLED电视专用4K演示片!
' f1 [0 n1 m+ Y% z' y' z9 I. Q% B9 e5 P9 V0 M  Y, e1 \: [; ?4 `
221854l8y6rmdyj6rgpf88.jpg , k" I! r- _! F4 ^, h! T. [, m

4 b, d. }5 i3 U- G 221858cdpfudpps2up2ddp.jpg
8 a+ N$ b9 h: C; _2 Q! ], i0 V: z# p, o+ A8 [/ I
0 m) [2 o* D/ s; X. o, h
General' @  H3 b4 U2 q5 ]2 t
Complete name : SONY.BRAVIA.OLED.HDR.4K.DEMO.mp46 l1 U% z2 w: L- P" d) F
Format : MPEG-4" a, a7 n2 J1 d$ `/ O# X2 m
Format profile : Base Media! R6 j4 @: F( V) `0 D
Codec ID : isom (isom)! ^* p& |& h5 G9 q3 R& g
File size : 724 MiB; e0 B3 V" O9 H, Y, W6 k
Duration : 1 min 23 s
: g  }$ i/ U& X/ O( J9 VOverall bit rate mode : Variable
6 O' B3 V0 w& `9 ~- sOverall bit rate : 73.1 Mbps
5 X& @" [$ d% ]. `( S/ I* J  WEncoded date : UTC 2016-10-24 05:40:14( h5 T2 K& u, X( {
Tagged date : UTC 2016-10-24 05:40:14
6 L/ h6 A, V4 ]1 w6 y' d
+ U. l6 n8 x8 MVideo
) h; k! K6 s  z$ b% jID : 1* o9 G' F( A. Y! Y! S- \, x9 H
Format : HEVC0 E2 v+ V& ~/ f1 B- ?
Format/Info : High Efficiency Video Coding4 V: F) q, w, {0 F; D, E7 G" Z8 E
Format profile : Main 10@L5.1@High
8 J: I7 [, n) f9 v% Y4 H$ v! `Codec ID : hvc1
, E  p5 h1 q5 A* l- n6 r0 ]  @: ]Codec ID/Info : High Efficiency Video Coding% z9 r1 ?5 O1 [7 p* ~9 u- @2 ^) m
Duration : 1 min 23 s; {6 W8 _9 N2 {, Z# X2 ?6 X% c! b1 L
Bit rate : 72.9 Mbps# t" X5 W( G, ]1 Z
Maximum bit rate : 94.2 Mbps) C; t1 X! U3 `: c0 s; A
Width : 3840 pixels
. M2 u/ q) ]. EHeight : 2160 pixels) C& p, q5 K6 v3 w* ]( |+ e7 s9 H" G
Display aspect ratio : 16:9
% I' E  k8 T6 {& x4 |' C/ xFrame rate mode : Constant; V7 k) t1 e0 z/ S) T+ A( C
Frame rate : 59.940 (60000/1001) FPS
+ |  q9 s6 H: V/ P) y1 U( TColor space : YUV0 J8 e" e6 T. f
Chroma subsampling : 4:2:0 (Type 2)  b. b5 @- V4 b& K) q
Bit depth : 10 bits8 z/ T5 }- C! v# g) p& n1 ^
Bits/(Pixel*Frame) : 0.147. R* B: P3 O' a# W, |
Stream size : 722 MiB (100%)
' e) x! h7 `# G0 f+ f5 OEncoded date : UTC 2016-10-24 06:37:116 H$ n. F' [: {
Tagged date : UTC 2016-10-24 05:40:23
6 C4 f) Z# T: W" _Color range : Limited
; w  P  i7 Z4 r4 B: p3 c& TColor primaries : BT.20208 a% F/ i# n7 B8 E  `. ?7 Z
Transfer characteristics : SMPTE ST 2084
8 a; z9 ]' v/ lMatrix coefficients : BT.2020 non-constant# I3 J2 G9 g0 |" c/ n2 _1 z
Mastering display color primar : R: x=1.000000 y=1.000000, G: x=1.000000 y=1.000000, B: x=1.000000 y=1.000000, White point: x=1.000000 y=1.000000
. x3 I. W! A3 \( B& h7 _Mastering display luminance : min: 0.1000 cd/m2, max: 0.5000 cd/m2
3 j$ \; b! e2 ^, e2 E
0 T' R8 p- o7 zAudio8 l/ Q0 ]+ ^# n7 \
ID : 26 Q' v# c' X2 @' h
Format : AAC0 T: ?0 `% x& W% Y2 l, U! K
Format/Info : Advanced Audio Codec& @+ g0 f- V# X" n2 c
Format profile : LC
! {- O% t. t) L, l/ D9 SCodec ID : 40
/ E- s1 _  ^8 nDuration : 1 min 23 s- ?0 j8 d& c$ P' G* {
Source duration : 1 min 23 s
3 T$ g5 j6 |) N& }) X9 Y; M: n* aBit rate mode : Variable
3 y1 m! t* I, o. _1 D5 e7 e) l: _Bit rate : 192 kbps
$ p. B- l7 s6 O' ~$ ?3 EMaximum bit rate : 197 kbps
% Y7 e; A. g7 WChannel(s) : 2 channels
) C: V: b: k) S. ^Channel positions : Front: L R
9 E5 I0 [5 b& e# q; }2 [% uSampling rate : 48.0 kHz8 Y% O# m, t; N' N
Frame rate : 46.875 FPS (1024 spf)
+ y7 w3 l9 Q3 ~/ w  UCompression mode : Lossy
3 g' e$ E, S; I; XStream size : 1.90 MiB (0%)
/ q4 J- {! d2 i5 \Source stream size : 1.90 MiB (0%)7 Q/ ?' n* u* i- w& ?
Language : English5 n; b% w0 ^6 O
Encoded date : UTC 2016-10-24 06:37:11/ B5 x2 N1 i$ ~' A% w
Tagged date : UTC 2016-10-24 05:40:236 R/ I! x0 h" p3 ~( D
Demo Ultra HD & HDR (HDR10)by Sony(for Sony OLED A1 Demo)
# q% j- Q  f6 a: _8 F1 vHDR ! So your TV has to be able to play this format !
# K: l! E, J+ R8 D% B; D在4K OLED HDR电视上观看才能体验最佳效果!
+ J# u$ L* c" D' W播放器 : Potplaye(2017版本)
9 w8 r% b5 a$ E: B( X+ n" N2 l. x) w1 `" G: K
索尼 Bravia OLED A1电视, b) }: W  D9 y8 ?9 r, i+ W8 m. I
201016lr7w999db0fdfwzp.jpg
" n* h# ^/ ~5 _/ \' U& L索尼 Bravia OLED A1电视可以说是集多项黑科技于一体,由于采用了OLED屏幕,所以整体机身非常的纤薄,官方宣称电视的厚度仅为7.8mm,几乎和一部iphone不相上下了。另外该款电视的支架设计也是非常的有特色,在支架中集成了屏幕以外的硬件和接口,并且还配有一个低音炮。
8 j/ t2 T! l) b0 @* ]( h! \$ K0 I
另外索尼 Bravia OLED A1电视的一大亮点则是集成了整个音响系统并保持其极薄的厚度,索尼称之为“银幕声场”Acoustic Surface的技术,运用OLED无背光结构让屏幕本身直接发出声音。3 A4 f6 D6 L, k. l
201016qolo4oo17lok615o.jpg : O0 i3 O0 n; G3 G4 p( S3 n8 L4 X
索尼 Bravia OLED A1电视采用了4K HDR图像处理芯片X1进阶版,支持HDR动态逐像重塑技术、4K HDR 14bit平滑渐变、双影像数据库三大技术,另外该款电视采用了安卓7.0系统,扩展性能方面更加的出色,并且还内置Google Assistant智能助手和PlayStation Vue服务。
0 B5 K3 ^9 t2 P* E+ R 201017ikijrz5i1fwn2rtr.jpg $ T+ _7 `3 S5 q  b+ S) r
$ X# D% z: \" }, ^% N5 S- H+ F

7 L  D3 v, r: V; EMP4百度云盘; l: [1 l  B& i8 z' j1 C, E& z( c

, h; _; V1 g4 Q% X* C  V# A9 W$ L8 R- r) w- O
游客,如果您要查看本帖隐藏内容请回复
5 ]: n, d; E& L6 j1 K

; l. @# N, S' E; F7 n+ u  P' D0 Q5 Q: A+ @6 K6 m* j

9 z7 e# N8 D4 {2 F* E
4 K. v, S- t4 S4 _( }! A
更多图片 小图 大图
组图打开中,请稍候......
发表于 2017-5-26 22:48 | 显示全部楼层
回的人少,我来小顶一下。支持hao4k发展
发表于 2017-5-26 23:53 | 显示全部楼层
瞧瞧下载看看
发表于 2017-5-27 07:34 | 显示全部楼层
额,看不懂在说神马~@_@
发表于 2017-5-27 08:31 | 显示全部楼层
啥也不说了,感谢楼主在hao4k分享4k视频内容哇!
发表于 2017-5-27 13:52 | 显示全部楼层
4k视频片源我来了,谢谢提供~~
发表于 2017-5-27 22:22 | 显示全部楼层
确实是难得4k好帖啊,顶先
发表于 2017-5-28 00:35 | 显示全部楼层
急需4k测试短片下载!
发表于 2017-5-28 07:58 | 显示全部楼层
啥也不说了,感谢楼主在hao4k分享4k视频内容哇!
发表于 2017-5-28 09:27 | 显示全部楼层
支持hao4k,支持楼主大人发布4k资源!
您需要登录后才可以回帖 登录 | 立即注册

本版积分规则

返回顶部 联系我们