片  名:金刚4K

  • 导  演:彼得·杰克逊
  • 年  代:90年代    
  • 国  家:美国   
  • 电影分类:动作   冒险   剧情   爱情片   
  • 电影格式:MKV|REMUX   
  • 分 辨 率: 4K(3840x2160)    
  • 画质标准:HDR    
  • 音质编码:DTS:X    Dolby Digital Audio    DTS-HD Master Audio    DTS Audio     
  • 电影声道:7.1声道   
  • 电影语言:英文原版     
  • 资源大小:93.4GB
  • 中文字幕:https://www.hao4k.com/thread-29150-1-1.html

剧情简介

导演率领拍摄组来到神秘的骷髅岛开始了一部电影的拍摄,女主角是漂亮娇小的安(娜奥米•沃茨 Naomi Watts 饰),她在纽约的演艺事业陷入了低谷,这是她时来运转的大好机会。他们乘坐轮船来到岛上,却不知在岛上即将要险象横生。
  正当导演要开始开机拍摄时,他们遭到了当地土著的袭击,几个随行人员遇难身亡。摄制组慌忙逃离,幸好起航离去,却发现不见了女主角安。
  原来安土著野人抓走,被当作祭品。安尖声惊叫,引来了传说中骷髅岛的猩猩——金刚的关注。金刚在岛上很有霸气,连恐龙都要忌它几分。然而,野兽爱上了美人,金刚搭救安脱离困境,不料却让自己陷入了一场悲剧。

金刚4K

金刚4K

King Kong: The Eighth Wonder of the World/金刚4K King.Kong.2005.EXTENDED.2160p.BluRay.HEVC.DTS-X.7.1-HDRINVASION 4K版原盘电影资源说明第七十三部 4K UHD 蓝光原盘破解版,含完整的 BDMV 文件夹以及数据,AACS 2.0 协议已被完整破解。

Disc Title: KING_KONG_UHD
Disc Size: 93,415,427,784 bytes
Protection: AACS2
BD-Java: Yes
Extras: Ultra HD
BDInfo: 0.5.8.6 (compatible layout created by DVDFab 10.0.6.2)

PLAYLIST REPORT:

Name: 00801.MPLS
Length: 3:20:08.871 (h:m:s.ms)
Size: 90,695,970,816 bytes
Total Bitrate: 60.42 Mbps

VIDEO:

Codec Bitrate Description
—– ——- ———–
MPEG-H HEVC Video 46154 kbps 2160p / 23.976 fps / 16:9 / Main 10 Profile 5.1 High / 4:2:0 / 10 bits / HDR / BT.2020 /

AUDIO:

Codec Language Bitrate Description
—– ——– ——- ———–
DTS:X/DTS-HD Master Audio English 7413 kbps 7.1-X / 48 kHz / 7413 kbps / 24-bit (DTS Core: 5.1 / 48 kHz / 1509 kbps / 24-bit)
DTS Audio English 256 kbps 2.0 / 48 kHz / 256 kbps / 24-bit
DTS Audio French 768 kbps 5.1 / 48 kHz / 768 kbps / 24-bit
DTS Audio Spanish 768 kbps 5.1 / 48 kHz / 768 kbps / 24-bit
DTS Audio Japanese 768 kbps 5.1 / 48 kHz / 768 kbps / 24-bit
DTS Audio Portuguese 768 kbps 5.1 / 48 kHz / 768 kbps / 24-bit
Dolby Digital Audio English 192 kbps 2.0 / 48 kHz / 192 kbps / Dolby Surround

SUBTITLES:

Codec Language Bitrate Description
—– ——– ——- ———–
Presentation Graphics English 20.583 kbps
Presentation Graphics French 16.553 kbps
Presentation Graphics Spanish 15.343 kbps
Presentation Graphics Japanese 10.863 kbps
Presentation Graphics Portuguese 15.33 kbps
Presentation Graphics English 79.934 kbps
Presentation Graphics Japanese 45.056 kbps
Presentation Graphics French 0.406 kbps
Presentation Graphics Spanish 0.426 kbps
Presentation Graphics Japanese 0.571 kbps
Presentation Graphics Portuguese 1.048 kbps

FILES:

Name Time In Length Size Total Bitrate
—- ——- —— —- ————-
00011.M2TS 0:00:00.000 1:13:58.767 33,858,760,704 61,023 kbps
00105.M2TS 1:13:58.767 0:02:59.179 1,365,639,168 60,973 kbps
00083.M2TS 1:16:57.946 0:14:11.433 6,379,352,064 59,939 kbps
00106.M2TS 1:31:09.380 0:00:49.799 371,865,600 59,737 kbps
00090.M2TS 1:31:59.180 0:06:03.363 2,681,376,768 59,034 kbps
00107.M2TS 1:38:02.543 0:08:41.312 3,954,352,128 60,683 kbps
00092.M2TS 1:46:43.855 0:20:30.646 9,891,883,008 64,303 kbps
00108.M2TS 2:07:14.501 0:02:03.623 928,395,264 60,078 kbps
00097.M2TS 2:09:18.125 0:15:40.856 5,870,051,328 49,912 kbps
00109.M2TS 2:24:58.981 0:00:48.923 375,539,712 61,408 kbps
00100.M2TS 2:25:47.905 0:20:22.971 10,589,429,760 69,270 kbps
00110.M2TS 2:46:10.877 0:00:21.771 168,867,840 62,050 kbps
00102.M2TS 2:46:32.649 0:05:56.022 2,339,831,808 52,577 kbps
00111.M2TS 2:52:28.671 0:00:46.004 351,787,008 61,174 kbps
00104.M2TS 2:53:14.675 0:26:54.195 11,568,838,656 57,335 kbps

4K UHD BD King Kong: The Eighth Wonder of the World/金刚4K King.Kong.2005.EXTENDED.2160p.BluRay.HEVC.DTS-X.7.1-HDRINVASION 4K版原盘电影资源下载

金刚4K King.Kong.2005.EXTENDED.2160p.BluRay.HEVC.DTS-X.7.1-HDRINVASION (4K UHD 蓝光原盘 4K UHD BDISO 2160p 93.4GB)
游客,如果您要查看本帖隐藏内容请回复

金刚4K King.Kong.2005.EXTENDED.2160p.BluRay.REMUX.HEVC.DTS-X.7.1-FGT(4K UHD 蓝光 REMUX 4K UHD BD REMUX 2160p  85.81GB)
游客,如果您要查看本帖隐藏内容请回复



金刚系列合辑:
https://www.hao4k.com/jingang/zlj.html
B Color Smilies

全部评论1023

金刚4K King.Kong.2005.EXTENDED.2160p.BluRay.HEVC.DTS-X.7.1-HDRINVASION 4k版下载[第73部破解4K UHD蓝光原盘电影] 
返回顶部 联系我们